osu file format v14

[General]
AudioFilename: audio.mp3
AudioLeadIn: 0
PreviewTime: 174104
Countdown: 0
SampleSet: Soft
StackLeniency: 0.7
Mode: 0
LetterboxInBreaks: 0
WidescreenStoryboard: 1

[Editor]
DistanceSpacing: 0.1
BeatDivisor: 4
GridSize: 32
TimelineZoom: 1.8

[Metadata]
Title:Catharsis
TitleUnicode:カタルシス
Artist:PassCode
ArtistUnicode:PassCode
Creator:mrforse
Version:Amats' Insane
Source:
Tags:japanese jrock j-rock jpop j-pop pop rock female vocals vocalist ZENITH 高嶋楓 Takashima Kaede 南菜生 Minami Nao 今田夢菜 Imada Yuna 大上陽奈子 Oogami Hinako amats nemidnight Baack
BeatmapID:3652653
BeatmapSetID:1780807

[Difficulty]
HPDrainRate:5
CircleSize:3.6
OverallDifficulty:8
ApproachRate:9
SliderMultiplier:1.6
SliderTickRate:1

[Events]
//Background and Video events
0,0,"bg.jpg",0,0
//Break Periods
//Storyboard Layer 0 (Background)
//Storyboard Layer 1 (Fail)
//Storyboard Layer 2 (Pass)
//Storyboard Layer 3 (Foreground)
//Storyboard Layer 4 (Overlay)
//Storyboard Sound Samples

[TimingPoints]
303,306.122448979592,4,2,1,40,1,0
19588,-125,4,2,1,40,0,0
19894,-111.111111111111,4,2,1,60,0,0
39486,-142.857142857143,4,2,1,50,0,0
48670,-125,4,2,1,50,0,0
49282,-125,4,2,1,55,0,0
66348,-125,4,2,1,5,0,0
66425,-111.111111111111,4,2,1,55,0,0
68874,-100,4,2,1,55,0,0
72547,-100,4,2,1,20,0,0
73772,-100,4,2,1,70,0,1
88389,-100,4,2,1,5,0,1
88466,-100,4,2,1,70,0,1
92063,-100,4,2,1,5,0,1
92139,-100,4,2,1,70,0,1
93364,-100,4,2,1,70,0,0
103160,-125,4,2,1,50,0,0
105532,-125,4,2,1,5,0,0
105609,-125,4,2,1,50,0,0
112956,-111.111111111111,4,2,1,55,0,0
129792,-142.857142857143,4,2,1,55,0,0
130022,-142.857142857143,4,2,1,5,0,0
130098,-100,4,2,1,55,0,0
132547,-100,4,2,1,60,0,0
132624,-100,4,2,1,30,0,0
133007,-100,4,2,1,60,0,0
133083,-100,4,2,1,30,0,0
133236,-100,4,2,1,55,0,0
133313,-100,4,2,1,65,0,0
133389,-100,4,2,1,30,0,0
133466,-100,4,2,1,60,0,0
133542,-100,4,2,1,30,0,0
133695,-100,4,2,1,60,0,0
133772,-100,4,2,1,65,0,0
133848,-100,4,2,1,30,0,0
134231,-100,4,2,1,60,0,0
134308,-100,4,2,1,30,0,0
134690,-100,4,2,1,60,0,0
134996,-100,4,2,1,70,0,1
153287,-100,4,2,1,5,0,1
153364,-100,4,2,1,70,0,1
153899,-100,4,2,1,5,0,1
153976,-100,4,2,1,70,0,1
154588,-111.111111111111,4,2,1,65,0,0
159716,-111.111111111111,4,2,1,5,0,0
159792,-111.111111111111,4,2,1,65,0,0
164384,-125,4,2,1,65,0,0
165609,-111.111111111111,4,2,1,65,0,0
171731,-100,4,2,1,65,0,0
174180,-100,4,2,1,75,0,1
196068,-100,4,2,1,75,0,0
196833,306.122448979592,4,2,1,70,1,0
196833,-100,4,2,1,70,0,0
204104,-100,4,2,1,5,0,0
204180,-100,4,2,1,70,0,0
204563,-100,4,2,1,5,0,0
204639,-100,4,2,1,70,0,0
206629,-142.857142857143,4,2,1,70,0,0
209537,-125,4,2,1,70,0,0
210303,-125,4,2,1,60,0,0
211527,-142.857142857143,4,2,1,50,0,0
221323,-142.857142857143,4,2,1,45,0,0
226221,-142.857142857143,4,2,1,40,0,0
228670,-142.857142857143,4,2,1,35,0,0
229894,-200,4,2,1,30,0,0
230507,-200,4,2,1,25,0,0
230813,-200,4,2,1,20,0,0

[Colours]
Combo1 : 221,180,235
Combo2 : 20,191,248
Combo3 : 40,40,247
Combo4 : 190,85,225
Combo5 : 169,213,241

[HitObjects]
263,223,19435,53,0,0:0:0:0:
263,223,19588,2,0,L|188:214,1,64,8|0,0:0|0:0,0:0:0:0:
88,144,19894,22,0,P|60:204|88:288,1,143.999995605469,4|8,3:2|0:0,0:0:0:0:
200,216,20354,1,2,0:0:0:0:
260,328,20507,2,0,L|343:318,1,71.9999978027344,2|2,3:2|3:2,0:0:0:0:
400,212,20813,1,10,0:0:0:0:
492,344,20966,6,0,B|486:284|486:284|492:263|492:263|487:195,1,143.999995605469,6|0,3:2|3:0,0:0:0:0:
504,64,21425,2,0,P|464:72|424:64,1,71.9999978027344,8|2,0:0|0:0,0:0:0:0:
332,0,21731,1,2,3:2:0:0:
300,124,21884,1,0,3:0:0:0:
204,32,22037,2,0,L|193:115,1,71.9999978027344,10|2,0:0|0:0,0:0:0:0:
64,196,22343,6,0,B|114:192|158:184|158:184|184:192|198:212,1,143.999995605469,4|10,3:2|0:0,0:0:0:0:
112,300,22803,1,0,0:0:0:0:
228,368,22956,2,0,L|311:357,1,71.9999978027344,2|2,3:2|3:2,0:0:0:0:
368,240,23262,1,10,0:0:0:0:
460,372,23415,38,0,B|454:312|454:312|460:291|460:291|455:223,1,143.999995605469,6|0,3:2|3:0,0:0:0:0:
384,132,23874,2,0,L|373:215,1,71.9999978027344,8|2,0:0|0:0,0:0:0:0:
264,284,24180,1,0,3:0:0:0:
223,158,24333,1,0,3:0:0:0:
112,256,24486,2,0,P|147:251|182:259,1,71.9999978027344,8|0,0:0|0:0,0:0:0:0:
40,332,24792,6,0,B|12:296|12:296|40:196,1,143.999995605469,6|8,3:2|0:0,0:0:0:0:
60,76,25251,1,2,0:0:0:0:
152,168,25405,2,0,L|235:157,1,71.9999978027344,2|2,3:2|3:2,0:0:0:0:
172,36,25711,1,10,0:0:0:0:
292,108,25864,6,0,L|434:90,1,143.999995605469,6|0,3:2|3:0,0:0:0:0:
512,204,26323,2,0,P|476:199|441:207,1,71.9999978027344,8|0,0:0|0:0,0:0:0:0:
356,308,26629,1,2,3:2:0:0:
304,188,26782,1,0,3:0:0:0:
236,304,26935,2,0,L|246:387,1,71.9999978027344,10|2,0:0|0:0,0:0:0:0:
92,380,27241,38,0,B|86:320|86:320|92:299|92:299|87:231,1,143.999995605469,4|10,3:2|0:0,0:0:0:0:
40,104,27700,1,0,0:0:0:0:
176,160,27854,2,0,P|140:164|105:156,1,71.9999978027344,2|2,3:2|3:2,0:0:0:0:
180,36,28160,1,10,0:0:0:0:
288,152,28313,6,0,B|340:156|382:163|382:163|408:156|422:135,1,143.999995605469,6|0,3:2|3:0,0:0:0:0:
504,36,28772,2,0,L|514:119,1,71.9999978027344,8|2,0:0|0:0,0:0:0:0:
492,232,29078,1,8,3:0:0:0:
492,232,29155,1,0,0:0:0:0:
492,232,29231,2,0,L|497:275,2,35.9999989013672,8|8|10,0:0|0:0|3:2,0:0:0:0:
452,364,29537,1,8,0:0:0:0:
452,364,29614,1,8,0:0:0:0:
452,364,29690,6,0,B|364:344|404:396|304:376,1,143.999995605469,6|8,3:2|0:0,0:0:0:0:
192,320,30149,1,0,0:0:0:0:
304,240,30303,2,0,P|328:266|342:299,1,71.9999978027344,2|0,3:2|3:0,0:0:0:0:
240,384,30609,1,10,0:0:0:0:
104,312,30762,38,0,B|110:252|110:252|104:231|104:231|109:163,1,143.999995605469,6|0,3:2|3:0,0:0:0:0:
24,56,31221,2,0,L|14:139,1,71.9999978027344,8|0,0:0|0:0,0:0:0:0:
28,264,31527,1,2,3:2:0:0:
108,169,31680,1,0,3:0:0:0:
172,288,31833,2,0,P|208:292|243:284,1,71.9999978027344,10|0,0:0|0:0,0:0:0:0:
360,172,32139,6,0,B|333:266|333:266|361:302,1,143.999995605469,6|8,3:2|0:0,0:0:0:0:
444,192,32598,1,2,0:0:0:0:
488,328,32751,2,0,L|498:245,1,71.9999978027344,2|0,3:2|3:0,0:0:0:0:
512,112,33058,1,10,0:0:0:0:
360,172,33211,6,0,B|316:168|316:168|292:158|292:158|268:163|268:163|192:157,1,143.999995605469,6|0,3:2|3:0,0:0:0:0:
224,24,33670,2,0,P|248:50|262:83,1,71.9999978027344,10|0,0:0|0:0,0:0:0:0:
168,144,33976,1,2,3:2:0:0:
116,16,34129,1,2,3:2:0:0:
4,100,34282,2,0,L|14:183,1,71.9999978027344,10|2,0:0|0:0,0:0:0:0:
136,272,34588,38,0,P|76:244|-8:272,1,143.999995605469,6|10,3:2|0:0,0:0:0:0:
104,360,35047,1,0,0:0:0:0:
220,264,35200,2,0,L|230:347,1,71.9999978027344,2|2,3:2|3:2,0:0:0:0:
124,252,35507,1,10,0:0:0:0:
260,176,35660,6,0,B|352:148|312:200|412:180,1,143.999995605469,6|0,3:2|3:0,0:0:0:0:
504,276,36119,2,0,P|468:272|433:280,1,71.9999978027344,10|0,0:0|0:0,0:0:0:0:
332,376,36425,1,2,3:2:0:0:
304,248,36578,1,0,3:0:0:0:
188,336,36731,2,0,P|224:332|259:340,1,71.9999978027344,10|0,0:0|0:0,0:0:0:0:
96,376,37037,6,0,B|102:316|102:316|96:295|96:295|101:227,1,143.999995605469,6|8,3:2|0:0,0:0:0:0:
132,88,37496,1,0,0:0:0:0:
192,236,37649,1,2,3:2:0:0:
232,80,37803,1,2,3:2:0:0:
64,156,37956,1,10,0:0:0:0:
284,248,38109,38,0,B|327:244|327:244|351:234|351:234|375:239|375:239|451:233,1,143.999995605469,6|0,3:2|3:0,0:0:0:0:
476,72,38568,2,0,P|446:50|412:39,1,71.9999978027344,14|0,0:0|0:0,0:0:0:0:
292,144,38874,1,10,0:0:0:0:
309,149,38951,1,8,0:0:0:0:
327,151,39027,1,8,0:0:0:0:
345,151,39104,1,8,0:0:0:0:
362,147,39180,2,0,L|356:103,3,35.9999989013672,8|8|4|4,0:3|0:3|0:3|0:3,0:0:0:0:
328,36,39486,38,0,P|273:25|222:45,2,111.999996582031,6|0|0,3:2|3:0|3:0,0:0:0:0:
452,92,40405,1,2,3:2:0:0:
327,151,40711,2,0,L|342:278,2,111.999996582031,0|2|2,3:0|3:2|3:2,0:0:0:0:
220,68,41629,1,2,3:2:0:0:
116,152,41935,6,0,P|64:132|10:142,2,111.999996582031,2|0|2,3:2|3:0|3:2,0:0:0:0:
224,236,42854,1,2,3:2:0:0:
348,184,43160,2,0,L|363:56,2,111.999996582031,0|0|2,3:0|3:0|3:2,0:0:0:0:
244,240,44078,1,2,3:2:0:0:
328,336,44384,54,0,B|376:331|376:331|392:322|392:322|437:318,2,111.999996582031,2|0|0,3:2|3:0|3:0,0:0:0:0:
192,352,45303,1,2,3:2:0:0:
60,264,45609,2,0,L|44:391,2,111.999996582031,2|2|0,3:2|3:2|3:2,0:0:0:0:
40,144,46527,1,2,3:2:0:0:
156,184,46833,6,0,P|207:164|261:174,2,111.999996582031,2|0|0,3:2|3:0|3:0,0:0:0:0:
56,228,47751,1,2,3:2:0:0:
168,300,48058,2,0,L|295:284,1,111.999996582031,2|2,3:2|3:0,0:0:0:0:
384,208,48670,53,10,3:2:0:0:
468,284,48823,1,8,0:0:0:0:
468,284,48899,1,8,0:0:0:0:
468,284,48976,2,0,L|477:208,1,64,8|8,0:0|0:0,0:0:0:0:
512,108,49282,22,0,P|472:116|440:108,1,64,4|0,3:2|0:0,0:0:0:0:
376,40,49588,1,8,0:0:0:0:
280,76,49741,2,0,L|297:214,1,128,0|0,0:0|3:0,0:0:0:0:
360,296,50200,2,0,P|320:288|288:296,1,64,10|0,0:0|0:0,0:0:0:0:
228,376,50507,6,0,P|259:380|290:372,1,64,2|0,3:2|0:0,0:0:0:0:
224,260,50813,2,0,B|148:248|180:300|88:284,1,128,10|2,0:0|3:2,0:0:0:0:
8,256,51272,1,0,3:0:0:0:
96,196,51425,2,0,L|86:120,1,64,10|0,0:0|0:0,0:0:0:0:
0,40,51731,6,0,P|61:54|119:31,1,128,6|8,3:2|0:0,0:0:0:0:
232,20,52190,1,2,0:0:0:0:
232,20,52343,2,0,L|222:95,1,64,0|0,3:0|3:0,0:0:0:0:
296,160,52649,2,0,L|305:84,1,64,10|0,0:0|0:0,0:0:0:0:
400,16,52956,38,0,L|383:150,1,128,0|8,3:0|0:0,0:0:0:0:
424,232,53415,1,0,0:0:0:0:
504,168,53568,2,0,L|513:243,1,64,0|0,3:0|3:0,0:0:0:0:
512,336,53874,2,0,P|472:328|440:336,1,64,10|2,0:0|0:0,0:0:0:0:
328,376,54180,6,0,L|318:300,1,64,6|0,3:2|0:0,0:0:0:0:
308,208,54486,1,8,0:0:0:0:
228,296,54639,2,0,B|184:292|184:292|164:282|164:282|144:288|144:288|100:284,1,128,0|0,0:0|3:0,0:0:0:0:
0,264,55098,1,10,0:0:0:0:
0,264,55251,1,2,0:0:0:0:
111,221,55405,6,0,L|101:296,1,64,2|2,3:2|0:0,0:0:0:0:
32,180,55711,1,10,0:0:0:0:
148,120,55864,2,0,B|224:108|192:160|284:144,1,128,2|2,0:0|3:2,0:0:0:0:
288,20,56323,2,0,P|261:50|252:82,1,64,10|0,0:0|0:0,0:0:0:0:
404,88,56629,38,0,P|364:80|332:88,1,64,6|0,3:2|0:0,0:0:0:0:
488,128,56935,2,0,B|491:72|491:72|485:55|485:55|488:1,2,128,10|2|10,0:0|3:2|0:0,0:0:0:0:
484,232,57700,1,0,0:0:0:0:
388,168,57854,6,0,L|397:243,1,64,0|0,3:0|3:0,0:0:0:0:
436,324,58160,1,10,0:0:0:0:
332,372,58313,1,8,0:0:0:0:
332,372,58389,1,8,0:0:0:0:
332,372,58466,2,0,P|300:376|269:368,1,64,8|0,0:0|3:0,0:0:0:0:
200,260,58772,1,12,0:0:0:0:
312,288,58925,1,0,0:0:0:0:
184,356,59078,22,0,L|108:346,1,64,4|2,3:2|3:2,0:0:0:0:
92,240,59384,1,10,0:0:0:0:
20,356,59537,2,0,L|3:221,1,128,2|2,0:0|3:2,0:0:0:0:
32,132,59996,1,8,0:0:0:0:
32,132,60303,6,0,L|108:122,1,64,2|0,3:2|3:0,0:0:0:0:
180,88,60609,2,0,L|170:164,1,64,8|0,0:0|0:0,0:0:0:0:
204,264,60915,1,0,3:0:0:0:
204,264,61068,1,0,3:0:0:0:
268,168,61221,1,10,0:0:0:0:
268,168,61527,54,0,P|298:160|330:164,1,64,2|0,3:2|3:0,0:0:0:0:
408,236,61833,1,10,0:0:0:0:
504,192,61986,2,0,B|501:136|501:136|507:119|507:119|504:65,1,128,2|2,0:0|3:2,0:0:0:0:
424,8,62445,1,8,0:0:0:0:
424,8,62751,6,0,L|414:84,1,64,0|0,3:0|3:0,0:0:0:0:
332,132,63058,2,0,L|322:56,1,64,10|2,0:0|0:0,0:0:0:0:
228,24,63364,2,0,L|244:155,1,128,0|12,3:0|0:0,0:0:0:0:
243,151,63976,54,0,P|212:143|180:147,1,64,6|2,3:2|3:2,0:0:0:0:
116,212,64282,1,10,0:0:0:0:
24,152,64435,2,0,B|27:208|27:208|21:225|21:225|24:279,1,128,2|2,0:0|3:2,0:0:0:0:
32,372,64894,1,8,0:0:0:0:
32,372,65200,6,0,P|62:364|94:368,1,64,0|0,3:0|3:0,0:0:0:0:
172,288,65507,1,8,0:0:0:0:
248,384,65660,1,8,0:0:0:0:
248,384,65736,1,8,0:0:0:0:
248,384,65813,2,0,L|324:374,1,64,10|0,0:0|3:0,0:0:0:0:
436,380,66119,2,0,B|416:352|416:352|436:276,1,96,14|0,0:0|0:0,0:0:0:0:
440,252,66425,6,0,L|523:263,1,71.9999978027344,6|0,3:2|3:0,0:0:0:0:
424,148,66731,1,10,0:0:0:0:
328,256,66884,2,0,L|339:339,1,71.9999978027344,2|0,0:0|3:0,0:0:0:0:
240,216,67190,2,0,L|251:299,1,71.9999978027344,2|8,3:2|0:0,0:0:0:0:
112,364,67496,6,0,L|94:221,1,143.999995605469,2|0,0:0|3:0,0:0:0:0:
8,108,67956,2,0,P|43:112|78:104,1,71.9999978027344,10|2,0:0|0:0,0:0:0:0:
216,20,68262,1,0,3:0:0:0:
232,168,68415,1,0,3:0:0:0:
324,56,68568,1,8,0:0:0:0:
152,84,68721,1,2,3:2:0:0:
152,84,68797,1,0,3:0:0:0:
152,84,68874,6,0,L|141:167,1,80,14|0,0:0|3:0,0:0:0:0:
188,324,69180,37,10,0:0:0:0:
232,168,69333,1,2,3:2:0:0:
108,288,69486,5,8,0:0:0:0:
272,292,69639,1,2,3:2:0:0:
136,184,69792,5,8,0:0:0:0:
196,344,69945,1,2,3:2:0:0:
328,208,70098,38,0,P|284:200|244:208,1,80,8|0,0:0|3:0,0:0:0:0:
324,368,70405,2,0,P|352:333|366:295,1,80,10|0,0:0|0:0,0:0:0:0:
196,344,70711,2,0,L|140:337,2,53.3333333333333,2|0|8,3:2|0:0|0:0,0:0:0:0:
108,268,71017,2,0,L|52:274,2,53.3333333333333,8|8|4,0:3|0:3|0:3,0:0:0:0:
0,336,71323,5,4,3:2:0:0:
256,192,71425,12,0,72547,0:0:0:0:
336,280,73772,6,0,B|330:227|330:227|336:210|336:210|332:154|332:154|320:176|307:197,1,160,6|8,3:2|0:0,0:0:0:0:
244,300,74231,2,0,L|156:289,1,80,2|0,0:0|3:0,0:0:0:0:
4,256,74537,1,2,3:2:0:0:
176,208,74690,1,10,0:0:0:0:
84,368,74843,38,0,B|79:300|79:300|89:275|89:275|83:191,1,160,6|0,3:2|3:0,0:0:0:0:
0,80,75303,2,0,P|39:84|78:76,1,80,8|0,0:0|0:0,0:0:0:0:
216,8,75609,1,2,3:2:0:0:
236,148,75762,1,0,3:0:0:0:
372,76,75915,2,0,P|332:80|293:72,1,80,10|0,0:0|0:0,0:0:0:0:
456,4,76221,6,0,B|473:129|473:129|456:144|447:171,1,160,6|8,3:2|0:0,0:0:0:0:
304,216,76680,2,0,P|343:211|382:219,1,80,2|0,0:0|3:0,0:0:0:0:
448,344,76986,1,2,3:2:0:0:
492,192,77139,1,10,0:0:0:0:
340,308,77292,6,0,B|288:300|231:287|231:287|219:315|189:326,1,160,6|0,3:2|3:0,0:0:0:0:
96,208,77751,2,0,P|119:239|132:277,1,80,8|0,0:0|0:0,0:0:0:0:
0,192,78058,2,0,L|10:104,1,80,2|0,3:2|3:0,0:0:0:0:
112,0,78364,1,14,0:0:0:0:
152,140,78517,1,0,0:0:0:0:
288,32,78670,38,0,B|388:12|340:72|444:52,1,160,6|8,3:2|0:0,0:0:0:0:
324,132,79129,2,0,P|284:136|245:128,1,80,2|0,0:0|3:0,0:0:0:0:
188,0,79435,1,2,3:2:0:0:
152,140,79588,1,10,0:0:0:0:
32,4,79741,6,0,B|26:71|26:71|12:94|12:94|6:159,1,160,6|0,3:2|3:0,0:0:0:0:
116,268,80200,2,0,P|76:260|37:264,1,80,8|0,0:0|0:0,0:0:0:0:
140,376,80507,2,0,P|179:380|218:372,1,80,2|0,3:2|3:0,0:0:0:0:
272,228,80813,1,10,0:0:0:0:
144,284,80966,1,0,0:0:0:0:
312,344,81119,6,0,B|384:348|420:364|420:364|436:340|462:325,1,160,6|8,3:2|0:0,0:0:0:0:
388,188,81578,2,0,L|398:275,1,80,2|0,0:0|3:0,0:0:0:0:
496,144,81884,1,2,3:2:0:0:
336,116,82037,1,10,0:0:0:0:
500,40,82190,38,0,P|396:4|348:36,1,160,6|0,3:2|3:0,0:0:0:0:
388,188,82649,2,0,L|475:177,1,80,10|0,0:0|0:0,0:0:0:0:
316,96,82956,1,8,3:0:0:0:
296,90,83032,1,0,3:0:0:0:
276,88,83109,1,0,3:0:0:0:
256,88,83185,1,0,3:0:0:0:
237,92,83262,2,0,L|243:143,3,40,10|0|8|8,0:0|0:0|0:0|0:0,0:0:0:0:
308,184,83568,6,0,B|264:164|228:184|228:184|188:220|136:196,1,160,6|8,3:2|0:0,0:0:0:0:
80,72,84027,1,2,0:0:0:0:
4,208,84180,2,0,L|15:295,1,80,0|0,3:0|3:0,0:0:0:0:
132,188,84486,1,10,0:0:0:0:
180,348,84639,6,0,B|247:345|247:345|271:356|271:356|337:354,1,160,6|0,3:2|3:0,0:0:0:0:
480,304,85098,2,0,L|469:217,1,80,8|0,0:0|0:0,0:0:0:0:
400,76,85405,1,0,3:0:0:0:
352,228,85558,1,2,3:2:0:0:
240,96,85711,2,0,P|279:92|318:100,1,80,10|2,0:0|0:0,0:0:0:0:
156,216,86017,38,0,B|126:165|126:165|160:64,1,160,6|8,3:2|0:0,0:0:0:0:
308,20,86476,2,0,L|319:107,1,80,2|0,0:0|3:0,0:0:0:0:
356,244,86782,1,2,3:2:0:0:
432,96,86935,1,10,0:0:0:0:
492,260,87088,6,0,B|477:375|477:375|447:328,1,160,6|0,3:2|3:0,0:0:0:0:
380,204,87547,2,0,L|387:283,1,80,8|0,0:0|0:0,0:0:0:0:
272,380,87854,1,2,3:2:0:0:
236,232,88007,1,0,3:0:0:0:
172,376,88160,2,0,B|112:371|112:371|99:374|99:374|40:370,1,120,10|0,0:0|0:0,0:0:0:0:
0,280,88466,6,0,B|67:274|67:274|90:260|90:260|155:254,1,160,6|8,3:2|0:0,0:0:0:0:
272,380,88925,2,0,L|279:301,1,80,2|0,0:0|3:0,0:0:0:0:
336,156,89231,1,2,3:2:0:0:
388,312,89384,1,10,0:0:0:0:
504,184,89537,38,0,B|498:131|498:131|504:114|504:114|500:58|500:58|488:80|475:101,1,160,6|0,3:2|3:0,0:0:0:0:
336,156,89996,2,0,P|297:160|258:152,1,80,8|0,0:0|0:0,0:0:0:0:
128,64,90303,1,2,3:2:0:0:
280,52,90456,1,0,3:0:0:0:
176,168,90609,2,0,L|97:161,1,80,10|0,0:0|0:0,0:0:0:0:
0,28,90915,6,0,P|10:107|19:186,1,160,6|8,3:2|0:0,0:0:0:0:
32,328,91374,1,0,0:0:0:0:
168,248,91527,2,0,L|89:241,1,80,2|0,3:2|3:0,0:0:0:0:
176,380,91833,2,0,B|235:375|235:375|248:378|248:378|307:374,1,120,8|0,0:0|0:0,0:0:0:0:
372,380,92139,6,0,L|379:301,1,80,2|8,3:2|0:0,0:0:0:0:
416,152,92445,1,2,3:2:0:0:
492,304,92598,1,8,0:0:0:0:
492,304,92675,1,8,0:0:0:0:
492,304,92751,2,0,L|485:225,1,80,10|0,0:0|3:0,0:0:0:0:
448,64,93058,1,10,0:0:0:0:
332,192,93211,1,10,0:0:0:0:
332,192,93287,1,8,0:0:0:0:
332,192,93364,38,0,B|264:187|264:187|239:197|239:197|155:191,1,160,4|8,3:2|0:0,0:0:0:0:
52,128,93823,1,0,0:0:0:0:
180,52,93976,2,0,P|206:81|222:117,1,80,0|0,3:0|3:0,0:0:0:0:
120,244,94282,1,8,0:0:0:0:
32,96,94435,6,0,L|11:262,1,160,6|0,3:2|3:0,0:0:0:0:
132,348,94894,2,0,L|125:269,1,80,8|0,0:0|0:0,0:0:0:0:
200,132,95200,1,2,3:2:0:0:
228,276,95354,1,0,3:0:0:0:
348,176,95507,2,0,P|309:172|270:180,1,80,10|2,0:0|0:0,0:0:0:0:
424,264,95813,6,0,B|454:213|454:213|420:112,1,160,4|10,3:2|0:0,0:0:0:0:
348,0,96272,1,0,0:0:0:0:
278,136,96425,2,0,P|239:140|200:132,1,80,2|2,3:2|3:2,0:0:0:0:
112,8,96731,1,10,0:0:0:0:
16,140,96884,38,0,B|11:204|11:204|21:229|21:229|16:297,1,160,6|0,3:2|3:0,0:0:0:0:
116,192,97343,1,8,0:0:0:0:
156,332,97496,2,0,P|195:336|234:328,1,80,2|0,0:0|3:0,0:0:0:0:
324,208,97803,1,0,3:0:0:0:
396,356,97956,2,0,L|403:277,1,80,8|0,0:0|0:0,0:0:0:0:
504,128,98262,6,0,B|452:136|395:149|395:149|383:121|353:110,1,160,6|8,3:2|0:0,0:0:0:0:
256,20,98721,1,2,0:0:0:0:
160,132,98874,2,0,P|121:136|82:128,1,80,2|2,3:2|3:2,0:0:0:0:
144,8,99180,1,10,0:0:0:0:
256,116,99333,6,0,B|260:180|260:180|250:205|250:205|255:273,1,160,6|0,3:2|3:0,0:0:0:0:
128,352,99792,2,0,L|135:273,1,80,8|0,0:0|0:0,0:0:0:0:
160,132,100098,1,2,3:2:0:0:
64,232,100251,1,0,3:0:0:0:
0,92,100405,2,0,P|39:96|78:88,1,80,8|2,0:0|0:0,0:0:0:0:
252,24,100711,38,0,B|222:75|222:75|256:176,1,160,4|10,3:2|0:0,0:0:0:0:
352,48,101170,1,0,0:0:0:0:
424,184,101323,2,0,L|503:177,1,80,2|2,3:2|3:2,0:0:0:0:
444,32,101629,1,10,0:0:0:0:
336,152,101782,6,0,B|339:209|339:209|333:233|333:233|343:252|343:252|346:308,1,160,6|0,3:2|3:0,0:0:0:0:
504,384,102241,2,0,L|511:305,1,80,8|0,0:0|3:0,0:0:0:0:
428,152,102547,1,14,0:0:0:0:
346,308,103160,22,0,B|270:320|302:268|210:284,1,128,6|8,3:2|0:0,0:0:0:0:
140,328,103619,1,0,0:0:0:0:
52,288,103772,2,0,L|61:213,1,64,0|0,3:0|3:0,0:0:0:0:
8,132,104078,2,0,P|69:146|127:123,1,128,10|0,0:0|3:0,0:0:0:0:
192,32,104537,5,0,0:0:0:0:
228,136,104690,2,0,L|303:127,1,64,10|0,0:0|0:0,0:0:0:0:
340,40,104996,2,0,L|265:49,1,64,2|0,3:2|3:0,0:0:0:0:
416,116,105303,2,0,L|428:12,1,96,10|0,0:0|0:0,0:0:0:0:
512,8,105609,54,0,L|495:142,1,128,2|8,3:2|0:0,0:0:0:0:
512,236,106068,2,0,P|451:222|393:245,1,128,2|0,0:0|3:0,0:0:0:0:
348,360,106527,2,0,P|406:336|467:350,2,128,10|0|8,0:0|3:0|0:0,0:0:0:0:
304,224,107445,6,0,L|295:299,1,64,2|2,3:2|3:2,0:0:0:0:
220,356,107751,2,0,L|211:281,1,64,10|2,0:0|0:3,0:0:0:0:
124,244,108058,54,0,B|48:232|80:284|-12:268,1,128,2|8,3:2|0:0,0:0:0:0:
0,152,108517,2,0,P|58:128|119:142,1,128,2|2,0:0|3:2,0:0:0:0:
208,196,108976,2,0,L|217:121,1,64,10|0,0:0|0:0,0:0:0:0:
128,52,109282,6,0,B|204:64|172:12|264:28,1,128,0|8,3:0|0:0,0:0:0:0:
364,76,109894,1,0,3:0:0:0:
364,76,110047,1,0,3:0:0:0:
448,28,110200,2,0,L|457:103,1,64,10|0,0:0|0:0,0:0:0:0:
512,164,110430,1,0,0:0:0:0:
512,164,110507,54,0,P|453:140|392:154,1,128,2|8,3:2|0:0,0:0:0:0:
448,252,111119,1,0,3:0:0:0:
448,252,111272,1,0,3:0:0:0:
344,220,111425,2,0,L|353:295,1,64,10|0,0:0|0:0,0:0:0:0:
456,352,111731,6,0,P|416:344|384:352,1,64,2|0,3:2|3:0,0:0:0:0:
268,364,112037,2,0,L|251:229,1,128,14|10,0:0|0:0,0:0:0:0:
240,164,112420,1,8,0:0:0:0:
240,164,112496,2,0,B|200:168,1,32,8|8,0:0|0:0,0:0:0:0:
132,184,112649,2,0,B|136:223,3,32,10|8|10|8,3:2|0:0|0:0|0:0,0:0:0:0:
44,192,112956,6,0,B|16:156|16:156|44:56,1,143.999995605469,4|8,3:2|0:0,0:0:0:0:
188,80,113415,2,0,L|105:91,1,71.9999978027344,0|0,0:0|3:0,0:0:0:0:
220,0,113721,1,0,3:0:0:0:
348,52,113874,2,0,P|355:86|350:122,1,71.9999978027344,10|0,0:0|0:0,0:0:0:0:
216,200,114180,6,0,B|266:196|310:188|310:188|336:196|350:216,1,143.999995605469,2|10,3:2|0:0,0:0:0:0:
412,324,114639,1,0,0:0:0:0:
288,376,114792,2,0,L|205:365,1,71.9999978027344,2|0,3:2|3:0,0:0:0:0:
136,272,115098,2,0,L|219:283,1,71.9999978027344,10|0,0:0|0:0,0:0:0:0:
52,356,115405,6,0,B|58:296|58:296|52:275|52:275|57:207,1,143.999995605469,2|8,3:2|0:0,0:0:0:0:
0,92,115864,2,0,P|67:111|132:82,1,143.999995605469,2|0,0:0|3:0,0:0:0:0:
248,0,116323,2,0,B|220:36|220:36|248:136,2,143.999995605469,10|0|8,0:0|3:0|0:0,0:0:0:0:
246,130,117241,38,0,L|317:120,1,71.9999978027344,0|0,3:0|3:0,0:0:0:0:
404,60,117547,1,14,0:0:0:0:
404,60,117700,1,2,0:0:0:0:
512,124,117854,6,0,B|506:184|506:184|512:205|512:205|507:273,1,143.999995605469,6|8,3:2|0:0,0:0:0:0:
444,372,118313,1,0,0:0:0:0:
348,268,118466,2,0,P|383:262|418:269,1,71.9999978027344,0|2,3:0|3:2,0:0:0:0:
316,368,118772,1,10,0:0:0:0:
192,304,118925,2,0,L|201:228,1,71.9999978027344,2|2,0:0|3:2,0:0:0:0:
212,152,119231,1,2,0:0:0:0:
330,85,119384,2,0,P|294:92|259:86,1,71.9999978027344,10|2,0:0|0:0,0:0:0:0:
142,21,119690,2,0,P|165:47|178:81,1,71.9999978027344,2|2,3:2|3:2,0:0:0:0:
180,215,119996,2,0,P|191:181|213:152,1,71.9999978027344,10|0,0:0|0:0,0:0:0:0:
80,84,120303,6,0,B|74:144|74:144|80:165|80:165|75:233,1,143.999995605469,6|10,3:2|0:0,0:0:0:0:
24,356,120762,1,0,0:0:0:0:
144,284,120915,2,0,L|153:355,1,71.9999978027344,2|0,3:2|3:0,0:0:0:0:
280,376,121221,2,0,L|289:304,1,71.9999978027344,10|0,0:0|0:0,0:0:0:0:
216,200,121527,37,0,3:0:0:0:
352,252,121680,2,0,P|387:257|422:250,1,71.9999978027344,8|2,0:0|3:2,0:0:0:0:
312,112,121986,1,8,0:0:0:0:
312,112,122063,1,8,0:0:0:0:
312,112,122139,2,0,L|302:183,1,71.9999978027344,8|8,0:0|0:0,0:0:0:0:
216,328,122445,1,8,0:0:0:0:
144,160,122598,1,8,0:0:0:0:
92,344,122751,37,4,3:2:0:0:
216,200,123058,5,4,3:2:0:0:
68,160,123976,53,4,3:2:0:0:
296,196,124282,5,4,3:2:0:0:
220,48,125200,53,4,3:2:0:0:
296,276,125507,5,4,3:2:0:0:
476,216,126425,53,4,3:2:0:0:
212,272,126731,5,4,3:2:0:0:
305,204,126884,1,8,0:0:0:0:
305,204,126961,1,8,0:0:0:0:
305,204,127037,2,0,L|295:275,1,71.9999978027344,8|8,0:0|3:0,0:0:0:0:
212,156,127343,1,8,3:0:0:0:
352,128,127496,1,4,3:0:0:0:
224,56,127649,54,0,B|136:36|176:88|76:68,1,143.999995605469,4|4,3:2|3:2,0:0:0:0:
80,192,128262,5,8,0:0:0:0:
212,156,128415,1,8,0:0:0:0:
84,69,128568,1,8,0:0:0:0:
160,220,128721,1,8,0:0:0:0:
224,56,128874,54,0,L|233:127,1,71.9999978027344,4|0,3:2|3:0,0:0:0:0:
260,264,129180,1,12,0:0:0:0:
324,144,129333,1,0,3:0:0:0:
380,280,129486,1,10,0:0:0:0:
380,280,129563,1,8,0:3:0:0:
380,280,129639,2,0,L|427:274,1,35.9999989013672,4|0,0:3|3:0,0:0:0:0:
496,232,129792,2,0,L|507:327,1,83.9999974365235,14|0,0:0|0:0,0:0:0:0:
412,368,130098,22,0,B|360:360|303:347|303:347|291:375|261:386,1,160,6|10,3:2|0:0,0:0:0:0:
244,228,130558,2,0,L|233:316,1,80,2|0,0:0|0:0,0:0:0:0:
144,360,130864,1,2,3:2:0:0:
112,220,131017,1,8,0:0:0:0:
12,352,131170,6,0,B|9:285|9:285|20:261|20:261|18:195,1,160,2|0,0:0|3:0,0:0:0:0:
140,116,131629,2,0,P|101:120|62:112,1,80,10|0,0:0|0:0,0:0:0:0:
204,28,131935,1,2,3:2:0:0:
224,172,132088,1,0,3:0:0:0:
352,68,132241,2,0,L|272:77,1,80,8|0,0:0|0:0,0:0:0:0:
360,212,132547,5,10,3:2:0:0:
444,44,132700,1,8,0:0:0:0:
444,44,132777,1,8,0:0:0:0:
444,44,132854,2,0,L|438:87,1,40,8|8,0:0|0:0,0:0:0:0:
468,156,133007,38,0,L|511:161,3,40,8|8|8|8,3:0|0:0|0:0|0:0,0:0:0:0:
388,152,133313,1,8,0:0:0:0:
388,152,133390,1,8,0:0:0:0:
388,152,133467,2,0,L|393:195,1,40,4|8,3:0|0:0,0:0:0:0:
440,268,133619,1,8,0:0:0:0:
440,268,133696,1,8,0:0:0:0:
440,268,133772,70,0,L|434:311,5,40,10|8|8|8|8|8,3:2|0:0|0:0|0:0|0:0|0:0,0:0:0:0:
355,251,134231,2,0,L|360:207,5,40,10|8|8|8|8|8,3:2|0:0|0:0|0:0|0:0|0:0,0:0:0:0:
344,332,134690,1,10,3:2:0:0:
104,372,134996,6,0,B|98:305|98:305|84:282|84:282|78:217,1,160,6|8,3:2|0:0,0:0:0:0:
4,104,135456,2,0,P|43:108|82:100,1,80,2|0,0:0|3:0,0:0:0:0:
212,36,135762,1,2,3:2:0:0:
64,8,135915,1,10,0:0:0:0:
244,44,136068,6,0,B|261:169|261:169|244:184|235:211,1,160,6|0,3:2|3:0,0:0:0:0:
77,216,136527,2,0,P|116:211|155:219,1,80,8|0,0:0|0:0,0:0:0:0:
292,268,136833,1,2,3:2:0:0:
160,316,136986,1,0,3:0:0:0:
304,372,137139,2,0,L|392:361,1,80,10|0,0:0|0:0,0:0:0:0:
512,256,137445,38,0,B|506:189|506:189|492:166|492:166|486:101,1,160,6|8,3:2|0:0,0:0:0:0:
364,8,137905,2,0,L|353:96,1,80,2|0,0:0|3:0,0:0:0:0:
308,224,138211,1,2,3:2:0:0:
252,80,138364,1,10,0:0:0:0:
155,219,138517,70,0,B|103:211|46:198|46:198|34:226|4:237,1,160,6|0,3:2|3:0,0:0:0:0:
116,352,138976,2,0,P|155:356|194:348,1,80,8|0,0:0|0:0,0:0:0:0:
280,220,139282,2,0,P|256:252|244:290,1,80,2|0,3:2|3:0,0:0:0:0:
352,360,139588,1,10,0:0:0:0:
408,220,139741,1,0,0:0:0:0:
480,376,139894,6,0,B|486:309|486:309|500:286|500:286|506:221,1,160,6|8,3:2|0:0,0:0:0:0:
512,60,140354,2,0,L|424:71,1,80,2|0,0:0|3:0,0:0:0:0:
288,104,140660,1,2,3:2:0:0:
452,148,140813,1,10,0:0:0:0:
256,96,140966,6,0,B|262:149|262:149|256:166|256:166|260:222|260:222|272:200|285:179,1,160,6|0,3:2|3:0,0:0:0:0:
356,56,141425,2,0,P|324:33|286:20,1,80,8|0,0:0|0:0,0:0:0:0:
148,76,141731,1,2,3:2:0:0:
288,104,141884,1,0,3:0:0:0:
120,72,142037,2,0,L|109:160,1,80,10|0,0:0|0:0,0:0:0:0:
244,260,142343,38,0,P|140:224|92:256,1,160,6|8,3:2|0:0,0:0:0:0:
0,384,142803,2,0,L|11:296,1,80,2|0,0:0|3:0,0:0:0:0:
36,156,143109,1,2,3:2:0:0:
96,316,143262,1,10,0:0:0:0:
264,260,143415,6,0,B|136:237|136:237|168:277,1,160,6|0,3:2|3:0,0:0:0:0:
288,368,143874,2,0,L|376:357,1,80,10|0,0:0|0:0,0:0:0:0:
428,208,144180,1,10,0:0:0:0:
408,202,144256,1,8,0:0:0:0:
388,200,144333,1,8,0:0:0:0:
368,200,144409,1,8,0:0:0:0:
349,204,144486,2,0,L|355:255,3,40,8|8|4|4,0:3|0:3|0:3|0:3,0:0:0:0:
484,268,144792,6,0,B|514:217|514:217|480:116,1,160,6|8,3:2|0:0,0:0:0:0:
396,0,145251,1,2,0:0:0:0:
312,132,145405,2,0,P|273:136|234:128,1,80,0|0,3:0|3:0,0:0:0:0:
140,8,145711,1,10,0:0:0:0:
48,160,145864,38,0,B|42:93|42:93|28:70|28:70|22:5,1,160,6|0,3:2|3:0,0:0:0:0:
160,88,146323,2,0,L|149:175,1,80,8|0,0:0|0:0,0:0:0:0:
96,324,146629,1,0,3:0:0:0:
48,184,146782,1,2,3:2:0:0:
172,288,146935,2,0,P|211:292|250:284,1,80,10|2,0:0|0:0,0:0:0:0:
332,120,147241,6,0,B|302:171|302:171|336:272,1,160,6|8,3:2|0:0,0:0:0:0:
492,292,147700,2,0,P|453:288|414:296,1,80,2|0,0:0|3:0,0:0:0:0:
284,380,148007,1,0,3:0:0:0:
240,212,148160,1,10,0:0:0:0:
160,380,148313,6,0,B|154:313|154:313|140:290|140:290|134:225,1,160,6|0,3:2|3:0,0:0:0:0:
80,56,148772,1,8,0:0:0:0:
40,220,148925,1,8,0:0:0:0:
192,132,149078,2,0,P|153:128|114:136,1,80,2|0,0:0|3:0,0:0:0:0:
256,212,149384,2,0,P|278:180|291:142,1,80,14|0,0:0|0:0,0:0:0:0:
156,24,149690,38,0,B|256:4|208:64|312:44,1,160,6|8,3:2|0:0,0:0:0:0:
476,4,150149,2,0,L|465:91,1,80,2|0,0:0|3:0,0:0:0:0:
452,232,150456,1,2,3:2:0:0:
380,92,150609,1,10,0:0:0:0:
256,212,150762,6,0,B|204:204|147:191|147:191|135:219|105:230,1,160,6|0,3:2|3:0,0:0:0:0:
40,84,151221,2,0,P|63:116|75:154,1,80,8|0,0:0|0:0,0:0:0:0:
60,312,151527,1,2,3:2:0:0:
0,180,151680,1,0,3:0:0:0:
72,336,151833,2,0,L|159:325,1,80,10|0,0:0|0:0,0:0:0:0:
248,184,152139,6,0,B|218:235|218:235|252:336,1,160,6|8,3:2|0:0,0:0:0:0:
352,216,152598,1,0,0:0:0:0:
392,376,152751,2,0,L|403:289,1,80,2|0,3:2|3:0,0:0:0:0:
340,128,153058,2,0,P|398:139|455:121,1,120,12|0,0:0|0:0,0:0:0:0:
471,33,153364,38,0,L|392:44,1,80,2|8,3:2|0:0,0:0:0:0:
224,8,153670,2,0,B|246:45|246:45|224:128,1,120,6|0,3:2|0:0,0:0:0:0:
204,192,153976,2,0,L|136:183,2,53.3333333333333,10|8|8,0:0|0:0|0:0,0:0:0:0:
96,124,154282,2,0,L|28:132,2,53.3333333333333,8|8|4,0:3|0:3|0:3,0:0:0:0:
0,204,154588,6,0,B|6:264|6:264|0:285|0:285|5:353,1,143.999995605469,4|2,3:2|0:0,0:0:0:0:
120,380,155047,2,0,L|130:309,1,71.9999978027344,2|8,3:2|0:0,0:0:0:0:
192,200,155354,1,2,0:0:0:0:
228,320,155507,2,0,P|263:326|298:319,1,71.9999978027344,2|10,0:0|0:0,0:0:0:0:
384,208,155813,5,2,3:2:0:0:
468,332,155966,2,0,L|486:190,1,143.999995605469,8|0,0:0|3:0,0:0:0:0:
504,52,156425,1,10,0:0:0:0:
348,92,156578,1,2,3:2:0:0:
488,156,156731,1,0,0:0:0:0:
328,84,156884,38,0,B|240:64|280:116|180:96,1,143.999995605469,6|0,3:2|0:0,0:0:0:0:
100,0,157343,2,0,L|90:71,1,71.9999978027344,2|0,3:2|0:0,0:0:0:0:
0,176,157649,2,0,P|60:148|144:176,1,143.999995605469,10|2,0:0|0:0,0:0:0:0:
236,264,158109,1,10,0:0:0:0:
236,264,158185,1,8,0:0:0:0:
236,264,158262,5,2,3:2:0:0:
112,336,158415,2,0,P|77:342|42:335,1,71.9999978027344,10|0,0:0|0:0,0:0:0:0:
136,240,158721,1,2,3:0:0:0:
212,368,158874,2,0,L|283:358,1,71.9999978027344,8|10,0:0|0:3,0:0:0:0:
360,336,159104,1,8,0:3:0:0:
360,336,159180,2,0,L|353:284,3,35.9999989013672,10|8|6|4,0:3|0:3|0:3|0:3,0:0:0:0:
444,364,159486,6,0,L|429:244,1,107.999996704102,6|0,3:2|0:0,0:0:0:0:
488,176,159792,2,0,P|453:182|418:175,1,71.9999978027344,2|0,0:0|3:0,0:0:0:0:
316,56,160098,2,0,B|322:116|322:116|316:137|316:137|321:205,1,143.999995605469,8|2,0:0|0:0,0:0:0:0:
232,304,160558,1,2,0:0:0:0:
160,172,160711,38,0,P|195:166|230:173,1,71.9999978027344,2|8,3:2|0:3,0:0:0:0:
348,268,161017,1,4,0:3:0:0:
216,284,161170,1,2,3:2:0:0:
296,352,161323,1,10,0:0:0:0:
128,292,161476,5,2,3:2:0:0:
108,312,161782,6,0,P|60:336|4:280,1,143.999995605469,6|0,3:2|3:0,0:0:0:0:
32,200,162165,1,0,0:0:0:0:
32,200,162241,2,0,L|25:148,3,35.9999989013672,0|0|0|0,3:0|0:0|0:0|0:0,0:0:0:0:
120,212,162547,2,0,B|211:193|171:245|259:225,1,143.999995605469,8|2,0:0|0:0,0:0:0:0:
360,140,163007,1,2,0:0:0:0:
388,280,163160,37,2,3:2:0:0:
356,120,163313,1,10,0:0:0:0:
468,244,163466,2,0,B|474:184|474:184|468:163|468:163|473:95,1,143.999995605469,2|10,3:2|0:0,0:0:0:0:
400,0,163925,1,8,0:3:0:0:
356,120,164078,2,0,L|281:114,1,71.9999978027344,4|4,0:3|0:3,0:0:0:0:
196,20,164384,6,0,L|213:158,1,128,6|0,3:2|0:0,0:0:0:0:
288,240,164843,1,0,3:0:0:0:
288,240,164996,2,0,P|227:226|169:249,1,128,10|2,0:0|0:0,0:0:0:0:
80,356,165456,1,2,3:2:0:0:
24,192,165609,6,0,L|9:307,2,107.999996704102,8|8|2,0:0|0:3|3:2,0:0:0:0:
48,40,166221,1,10,0:0:0:0:
172,160,166374,1,2,3:2:0:0:
188,176,166680,38,0,B|232:172|232:172|256:162|256:162|280:167|280:167|356:161,1,143.999995605469,6|0,3:2|0:0,0:0:0:0:
328,24,167139,2,0,P|305:51|293:85,1,71.9999978027344,2|0,3:2|0:0,0:0:0:0:
444,32,167445,2,0,B|450:92|450:92|444:113|444:113|449:181,1,143.999995605469,10|2,0:0|0:0,0:0:0:0:
424,312,167905,1,2,0:0:0:0:
360,176,168058,5,2,3:2:0:0:
328,328,168211,1,8,0:0:0:0:
216,216,168364,2,0,P|251:210|286:217,1,71.9999978027344,2|0,3:2|0:0,0:0:0:0:
208,368,168670,2,0,P|185:340|173:306,1,71.9999978027344,10|0,0:0|0:0,0:0:0:0:
128,160,168976,1,0,0:0:0:0:
52,308,169129,1,8,0:0:0:0:
52,308,169206,1,8,0:0:0:0:
52,308,169282,6,0,L|34:166,1,143.999995605469,6|0,3:2|0:0,0:0:0:0:
24,28,169741,1,2,3:2:0:0:
128,128,169894,2,0,P|163:134|198:127,1,71.9999978027344,10|0,0:0|0:0,0:0:0:0:
308,28,170200,2,0,P|273:22|238:29,1,71.9999978027344,2|2,0:0|0:0,0:0:0:0:
352,132,170507,37,2,3:2:0:0:
396,0,170660,1,8,0:0:0:0:
496,120,170813,2,0,L|490:195,1,71.9999978027344,0|0,3:0|3:0,0:0:0:0:
440,336,171119,1,8,0:0:0:0:
388,208,171272,1,0,3:0:0:0:
332,356,171425,2,0,P|297:362|262:355,1,71.9999978027344,14|2,0:0|0:0,0:0:0:0:
136,236,171731,6,0,B|188:244|245:257|245:257|276:248|287:218,1,160,6|10,3:2|0:0,0:0:0:0:
232,84,172190,1,2,0:0:0:0:
88,156,172343,2,0,L|0:145,1,80,0|0,3:0|3:0,0:0:0:0:
156,52,172649,1,10,0:0:0:0:
168,204,172803,1,2,3:2:0:0:
304,124,172956,6,0,L|216:113,1,80,10|0,0:0|3:0,0:0:0:0:
340,228,173262,2,0,L|428:217,1,80,8|2,0:0|0:0,0:0:0:0:
512,128,173568,1,0,3:0:0:0:
389,52,173721,1,8,0:0:0:0:
389,52,173797,1,8,0:0:0:0:
389,52,173874,2,0,P|385:91|393:130,1,80,10|0,0:0|3:0,0:0:0:0:
496,276,174180,38,0,P|464:253|426:240,1,80,12|2,0:0|3:2,0:0:0:0:
272,300,174486,1,10,0:0:0:0:
424,336,174639,1,2,3:2:0:0:
244,292,174792,2,0,L|255:204,1,80,8|2,0:0|3:2,0:0:0:0:
316,52,175098,1,10,0:0:0:0:
360,200,175251,1,2,3:2:0:0:
240,80,175405,6,0,P|201:76|162:84,1,80,8|0,0:0|0:0,0:0:0:0:
12,168,175711,1,10,0:0:0:0:
168,188,175864,1,0,0:0:0:0:
72,44,176017,2,0,L|83:132,1,80,10|0,0:0|3:0,0:0:0:0:
156,288,176323,2,0,L|167:200,1,80,8|0,0:0|3:0,0:0:0:0:
240,44,176629,5,14,0:0:0:0:
272,204,176782,1,2,0:0:0:0:
396,88,176935,2,0,P|357:79|317:83,1,80,10|2,0:0|0:0,0:0:0:0:
440,204,177241,1,8,0:0:0:0:
472,60,177394,1,2,3:2:0:0:
340,168,177547,1,10,0:0:0:0:
504,156,177700,1,2,3:2:0:0:
312,172,177854,38,0,L|323:260,1,80,8|0,0:0|0:0,0:0:0:0:
400,372,178160,1,10,0:0:0:0:
512,252,178313,1,0,3:0:0:0:
512,252,178389,1,0,3:0:0:0:
512,252,178466,2,0,P|473:243|433:247,1,80,14|0,0:0|3:0,0:0:0:0:
404,280,178695,1,0,0:0:0:0:
404,280,178772,2,0,P|364:283|325:275,1,80,10|0,0:0|3:0,0:0:0:0:
236,116,179078,6,0,B|266:167|266:167|232:268,1,160,14|8,0:0|0:0,0:0:0:0:
140,372,179537,1,0,0:0:0:0:
52,248,179690,2,0,L|41:336,1,80,8|0,0:0|3:0,0:0:0:0:
160,236,179996,2,0,L|150:156,1,80,10|0,0:0|3:0,0:0:0:0:
0,100,180303,6,0,P|40:103|79:95,1,80,10|0,0:0|0:0,0:0:0:0:
244,44,180609,1,10,0:0:0:0:
92,12,180762,1,2,0:0:0:0:
272,48,180915,2,0,L|262:127,1,80,8|0,0:0|3:0,0:0:0:0:
228,284,181221,1,10,0:0:0:0:
176,140,181374,1,0,3:0:0:0:
304,244,181527,38,0,P|344:247|383:239,1,80,10|0,0:0|0:0,0:0:0:0:
376,96,181833,2,0,P|353:129|340:166,1,80,8|2,0:0|0:0,0:0:0:0:
460,276,182139,1,8,0:0:0:0:
492,144,182292,1,0,3:0:0:0:
456,308,182445,2,0,L|376:298,1,80,10|0,0:0|3:0,0:0:0:0:
244,188,182751,5,14,0:0:0:0:
256,356,182905,1,0,3:0:0:0:
160,220,183058,1,8,0:0:0:0:
316,256,183212,1,2,3:2:0:0:
156,332,183364,1,8,3:0:0:0:
137,330,183440,1,8,3:0:0:0:
117,328,183517,1,0,3:0:0:0:
97,325,183593,1,0,3:0:0:0:
77,323,183670,2,0,L|26:317,3,40,4|4|0|0,3:0|3:0|3:0|3:0,0:0:0:0:
0,252,183976,6,0,L|11:164,1,80,14|2,0:0|3:2,0:0:0:0:
64,20,184282,1,10,0:0:0:0:
100,168,184435,1,2,0:0:0:0:
228,36,184588,2,0,P|188:33|149:41,1,80,8|2,0:0|3:2,0:0:0:0:
240,180,184894,2,0,P|279:183|318:175,1,80,10|2,0:0|3:2,0:0:0:0:
420,28,185200,37,8,0:0:0:0:
448,192,185354,1,0,0:0:0:0:
332,52,185507,1,10,0:0:0:0:
492,116,185660,1,2,0:0:0:0:
492,116,185736,1,0,0:0:0:0:
492,116,185813,2,0,L|404:105,1,80,10|0,0:0|3:0,0:0:0:0:
248,32,186119,2,0,B|240:72|240:72|248:112,1,80,8|0,0:0|3:0,0:0:0:0:
284,284,186425,5,14,0:0:0:0:
344,128,186578,1,2,0:0:0:0:
384,292,186731,1,10,0:0:0:0:
268,164,186884,1,2,0:0:0:0:
440,212,187037,2,0,B|400:204|400:204|360:212,1,80,8|2,0:0|3:2,0:0:0:0:
212,308,187343,2,0,B|250:315|250:315|290:307,1,80,10|2,0:0|3:2,0:0:0:0:
176,164,187649,5,8,0:0:0:0:
128,332,187803,1,0,0:0:0:0:
0,220,187956,2,0,L|11:132,1,80,10|0,0:0|3:0,0:0:0:0:
16,100,188185,1,0,3:0:0:0:
16,100,188262,1,10,0:0:0:0:
176,164,188415,1,0,3:0:0:0:
48,292,188568,1,10,0:0:0:0:
92,136,188721,1,2,3:2:0:0:
204,284,188874,38,0,B|244:289|244:289|281:280,1,80,14|0,0:0|0:0,0:0:0:0:
436,216,189180,1,8,0:0:0:0:
280,184,189333,1,0,0:0:0:0:
344,336,189486,1,8,0:0:0:0:
364,176,189639,1,0,3:0:0:0:
472,316,189792,2,0,L|461:228,1,80,10|0,0:0|3:0,0:0:0:0:
388,92,190098,6,0,B|420:117|420:117|457:128,1,80,10|0,0:0|0:0,0:0:0:0:
324,16,190405,2,0,B|286:27|286:27|254:52,1,80,10|0,0:0|0:0,0:0:0:0:
324,220,190711,2,0,L|313:132,1,80,10|0,0:0|3:0,0:0:0:0:
164,48,191017,2,0,L|175:136,1,80,10|0,0:0|3:0,0:0:0:0:
96,288,191323,5,14,0:0:0:0:
80,132,191476,1,0,0:0:0:0:
184,260,191629,1,8,0:0:0:0:
28,228,191782,1,0,0:0:0:0:
176,148,191935,2,0,P|216:145|255:153,1,80,8|0,0:0|3:0,0:0:0:0:
292,168,192165,1,0,3:0:0:0:
292,168,192241,2,0,L|281:256,1,80,10|0,0:0|3:0,0:0:0:0:
400,376,192547,37,10,0:0:0:0:
432,224,192700,1,0,0:0:0:0:
312,356,192854,1,8,0:0:0:0:
488,352,193007,1,0,3:0:0:0:
488,352,193083,1,0,0:0:0:0:
488,352,193160,2,0,L|497:272,1,80,8|0,0:0|3:0,0:0:0:0:
416,128,193466,2,0,L|407:208,1,80,10|0,0:0|3:0,0:0:0:0:
312,356,193772,5,14,0:0:0:0:
280,200,193925,1,0,0:0:0:0:
216,356,194078,1,8,0:0:0:0:
364,284,194231,1,2,0:0:0:0:
196,224,194384,1,8,0:0:0:0:
312,356,194537,1,0,3:0:0:0:
180,208,194690,2,0,B|140:203|140:203|103:212,1,80,10|0,0:0|3:0,0:0:0:0:
108,356,194996,6,0,B|132:323|132:323|143:287,1,80,8|0,0:0|3:0,0:0:0:0:
88,112,195303,1,10,0:0:0:0:
36,272,195456,1,0,3:0:0:0:
180,180,195609,1,10,0:0:0:0:
8,188,195762,1,0,3:0:0:0:
168,308,195915,1,10,0:0:0:0:
92,136,196068,1,8,0:0:0:0:
168,308,196833,38,0,B|268:328|220:268|324:288,1,160,6|8,3:2|0:0,0:0:0:0:
448,364,197292,1,0,0:0:0:0:
500,228,197445,2,0,L|490:148,1,80,0|0,3:0|3:0,0:0:0:0:
416,12,197751,1,10,0:0:0:0:
384,160,197905,1,0,0:0:0:0:
264,36,198058,6,0,B|212:28|155:15|155:15|143:43|113:54,1,160,6|8,3:2|0:0,0:0:0:0:
228,152,198517,1,0,0:0:0:0:
368,80,198670,2,0,L|358:159,1,80,0|0,3:0|3:0,0:0:0:0:
300,308,198976,1,10,0:0:0:0:
260,160,199129,1,0,0:0:0:0:
192,320,199282,6,0,B|139:314|139:314|122:320|122:320|66:316|66:316|88:304|109:291,1,160,6|10,3:2|0:0,0:0:0:0:
144,148,199741,1,0,0:0:0:0:
260,264,199894,2,0,B|300:272|300:272|338:265,1,80,0|2,3:0|3:2,0:0:0:0:
476,180,200200,1,10,0:0:0:0:
340,160,200354,1,2,0:0:0:0:
420,308,200507,38,0,L|410:228,1,80,2|0,3:2|3:0,0:0:0:0:
368,72,200813,2,0,L|358:151,1,80,8|0,0:0|0:0,0:0:0:0:
260,292,201119,1,8,0:0:0:0:
240,298,201195,1,8,3:0:0:0:
220,300,201272,1,4,3:0:0:0:
200,300,201348,1,0,3:0:0:0:
181,296,201425,2,0,L|190:216,1,80,12|0,0:0|0:0,0:0:0:0:
288,56,201731,6,0,B|236:60|236:60|224:68|224:68|179:73|179:73|160:48|160:48|137:34,1,160,6|10,3:2|0:0,0:0:0:0:
24,0,202190,1,0,0:0:0:0:
0,164,202343,2,0,B|14:172|14:172|33:197|33:197|78:192|78:192|90:184|90:184|142:180,1,160,2|10,3:2|0:0,0:0:0:0:
268,88,202803,1,0,0:0:0:0:
336,228,202956,6,0,B|343:262|345:307,1,80,6|0,3:2|0:0,0:0:0:0:
196,312,203262,2,0,B|197:267|205:232,1,80,10|0,0:0|0:0,0:0:0:0:
284,108,203568,1,2,3:2:0:0:
148,156,203721,1,0,3:0:0:0:
304,228,203874,2,0,B|359:223|359:223|375:213|375:213|430:208,1,120,8|0,0:0|0:0,0:0:0:0:
456,204,204180,37,6,3:2:0:0:
436,356,204333,2,0,B|380:351|380:351|364:341|364:341|309:336,1,120,2|0,0:0|0:0,0:0:0:0:
284,332,204639,1,2,0:0:0:0:
220,192,204792,2,0,L|230:271,1,80,2|0,3:2|3:0,0:0:0:0:
360,224,205098,2,0,L|350:145,1,80,8|8,0:0|0:0,0:0:0:0:
252,0,205405,5,0,3:0:0:0:
220,164,205558,1,8,0:0:0:0:
348,24,205711,1,2,3:2:0:0:
172,72,205864,1,0,3:0:0:0:
356,144,206017,1,10,0:0:0:0:
375,141,206093,1,8,0:0:0:0:
395,139,206170,1,8,0:0:0:0:
415,136,206246,1,8,0:0:0:0:
435,134,206323,2,0,L|482:128,3,40,8|8|4|4,0:3|0:3|0:3|0:3,0:0:0:0:
512,196,206629,5,6,3:2:0:0:
256,192,206706,12,0,209078,0:0:0:0:
296,68,209537,5,2,0:0:0:0:
296,68,209614,1,2,0:0:0:0:
296,68,209690,6,0,B|320:103|320:103|302:186,1,128,2|2,0:0|0:0,0:0:0:0:
208,284,210149,1,2,0:0:0:0:
208,284,210303,2,0,P|276:256|340:284,1,128,8|0,0:0|0:0,0:0:0:0:
396,368,210762,1,0,0:0:0:0:
396,368,210838,1,0,0:0:0:0:
396,368,210915,2,0,L|411:240,1,128,2|0,0:3|0:0,0:0:0:0:
512,148,211527,22,0,P|451:160|392:141,1,111.999996582031,6|0,3:2|0:0,0:0:0:0:
328,108,211986,22,0,P|267:95|208:114,1,111.999996582031,2|2,0:0|0:0,0:0:0:0:
144,132,212445,2,0,L|150:187,1,55.9999982910157,2|2,0:0|0:0,0:0:0:0:
192,272,212751,2,0,P|131:259|72:278,1,111.999996582031
16,332,213211,1,0,0:0:0:0:
16,332,213364,2,0,L|1:216,1,111.999996582031,2|2,0:0|0:0,0:0:0:0:
0,60,213976,6,0,P|54:72|108:59,1,111.999996582031,2|0,0:0|0:0,0:0:0:0:
192,36,214435,2,0,P|179:90|192:144,1,111.999996582031,2|2,0:0|0:0,0:0:0:0:
236,212,214894,2,0,L|291:205,1,55.9999982910157,2|2,0:0|0:0,0:0:0:0:
380,156,215200,2,0,L|365:271,1,111.999996582031
404,356,215660,1,0,0:0:0:0:
404,356,215813,2,0,P|349:343|295:356,1,111.999996582031,2|2,0:0|0:0,0:0:0:0:
136,376,216425,54,0,L|121:260,1,111.999996582031,2|0,0:0|0:0,0:0:0:0:
44,236,216884,2,0,L|58:120,1,111.999996582031,2|2,0:0|0:0,0:0:0:0:
72,48,217343,2,0,L|127:54,1,55.9999982910157,2|2,0:0|0:0,0:0:0:0:
192,104,217649,2,0,L|307:89,1,111.999996582031
392,40,218109,1,0,0:0:0:0:
392,40,218262,2,0,P|379:94|392:148,1,111.999996582031,2|2,0:0|0:0,0:0:0:0:
496,288,218874,6,0,P|455:250|402:234,1,111.999996582031,2|0,0:0|0:0,0:0:0:0:
324,264,219333,2,0,L|208:249,1,111.999996582031,2|2,0:0|0:0,0:0:0:0:
132,240,219792,2,0,L|125:295,1,55.9999982910157,2|2,0:0|0:0,0:0:0:0:
36,292,220098,2,0,L|50:176,1,111.999996582031,0|2,0:0|0:0,0:0:0:0:
0,92,220711,2,0,P|54:104|108:91,1,111.999996582031,2|2,0:0|0:0,0:0:0:0:
244,12,221323,54,0,P|206:52|190:105,1,111.999996582031,2|0,0:0|0:0,0:0:0:0:
196,196,221782,2,0,L|311:181,1,111.999996582031,2|0,0:0|0:0,0:0:0:0:
388,164,222241,2,0,L|381:108,1,55.9999982910157,2|2,0:0|0:0,0:0:0:0:
460,68,222547,2,0,L|474:183,1,111.999996582031
484,260,223007,1,0,0:0:0:0:
368,336,223313,1,2,0:0:0:0:
368,336,223466,2,0,L|312:329,1,55.9999982910157,2|2,0:0|0:0,0:0:0:0:
240,288,223772,6,0,L|124:302,1,111.999996582031,2|0,0:0|0:0,0:0:0:0:
44,324,224231,2,0,P|51:269|34:216,1,111.999996582031,2|2,0:0|0:0,0:0:0:0:
0,144,224690,2,0,L|55:137,1,55.9999982910157,2|2,0:0|0:0,0:0:0:0:
124,96,224996,2,0,L|138:211,1,111.999996582031
152,292,225456,1,0,0:0:0:0:
152,292,225609,2,0,P|204:274|259:282,1,111.999996582031,2|2,0:0|0:0,0:0:0:0:
356,368,226221,54,0,L|370:252,1,111.999996582031,2|0,0:0|0:0,0:0:0:0:
444,228,226680,2,0,L|429:112,1,111.999996582031,2|2,0:0|0:0,0:0:0:0:
420,36,227139,2,0,L|364:42,1,55.9999982910157,2|2,0:0|0:0,0:0:0:0:
292,88,227445,2,0,L|176:73,1,111.999996582031
92,64,227905,1,0,0:0:0:0:
92,64,228058,2,0,P|104:118|91:172,1,111.999996582031,2|2,0:0|0:0,0:0:0:0:
12,312,228670,6,0,P|52:274|105:258,1,111.999996582031,2|0,0:0|0:0,0:0:0:0:
232,168,229282,2,0,P|218:221|230:276,1,111.999996582031,2|0,0:0|0:0,0:0:0:0:
280,344,229741,1,2,0:0:0:0:
280,344,229894,2,0,L|367:333,2,80,2|2|2,0:0|0:0|0:0,0:0:0:0:
204,356,230813,1,2,0:0:0:0:
