osu file format v14

[General]
AudioFilename: audio.mp3
AudioLeadIn: 0
PreviewTime: 208541
Countdown: 0
SampleSet: Normal
StackLeniency: 0.7
Mode: 1
LetterboxInBreaks: 0
WidescreenStoryboard: 1

[Editor]
DistanceSpacing: 2.7
BeatDivisor: 3
GridSize: 32
TimelineZoom: 2.699999

[Metadata]
Title:ATLAS
TitleUnicode:ATLAS
Artist:PassCode
ArtistUnicode:PassCode
Creator:_HeLLFly_
Version:Oni
Source:
Tags:female vocals idol metalcore kawaii metal jmetal j-metal j-rock jrock rock japanese 高嶋楓 takashima kaede 南菜生 minami nao 今田夢菜 imada yuna 大上陽奈子 oogami hinako STRIVE REVERBERATE ep. hellfly
BeatmapID:4415177
BeatmapSetID:2104268

[Difficulty]
HPDrainRate:5
CircleSize:5
OverallDifficulty:6
ApproachRate:5
SliderMultiplier:1.4
SliderTickRate:1

[Events]
//Background and Video events
0,0,"bg.jpg",0,-80
//Break Periods
//Storyboard Layer 0 (Background)
//Storyboard Layer 1 (Fail)
//Storyboard Layer 2 (Pass)
//Storyboard Layer 3 (Foreground)
//Storyboard Layer 4 (Overlay)
//Storyboard Sound Samples

[TimingPoints]
491,300,4,1,0,45,1,0
491,-100,4,1,0,45,0,0
1681,-100,4,1,0,70,0,0
2891,300,4,1,0,75,1,0
2891,-100,4,1,0,75,0,0
10081,-100,4,1,0,80,0,0
22081,-100,4,1,0,70,0,0
23291,300,4,1,0,60,1,0
23291,-100,4,1,0,60,0,0
42031,-100,4,1,0,80,0,0
54491,300,4,1,0,90,1,1
54491,-100,4,1,0,90,0,1
62891,-100,4,1,0,85,0,0
64091,-100,4,1,0,92,0,1
73091,-100,4,1,0,85,0,0
73691,-100,4,1,0,80,0,1
83291,-100,4,1,0,70,0,0
92881,-100,4,1,0,65,0,0
97681,-100,4,1,0,70,0,0
102491,-100,4,1,0,85,0,1
106841,-100,4,1,0,85,0,0
107291,-100,4,1,0,85,0,1
111641,-100,4,1,0,85,0,0
112116,300,4,1,0,85,1,8
114491,300,4,1,0,90,1,1
114491,-100,4,1,0,90,0,1
122891,-100,4,1,0,85,0,0
124091,-100,4,1,0,92,0,1
133691,-100,4,1,0,80,0,0
136091,394.736842105263,4,1,0,75,1,0
136091,-83.3333333333333,4,1,0,75,0,0
137669,394.736842105263,4,1,0,85,1,0
137669,-83.3333333333333,4,1,0,85,0,0
162833,-83.3333333333333,4,1,0,80,0,0
166090,394.736842105263,4,1,0,75,1,0
166090,-83.3333333333333,4,1,0,75,0,0
178711,-83.3333333333333,4,1,0,75,0,0
180300,394.736842105263,4,1,0,75,1,8
180300,-83.3333333333333,4,1,0,75,0,0
181089,600,4,1,0,65,1,0
181089,-57.1428571428571,4,1,0,65,0,0
185889,600,4,1,0,55,1,0
185889,-66.6666666666667,4,1,0,55,0,0
205079,-66.6666666666667,4,1,0,70,0,0
207179,-57.1428571428571,4,1,0,80,0,0
208689,300,4,1,0,95,1,1
208689,-100,4,1,0,95,0,1
217089,-100,4,1,0,85,0,0
218289,-100,4,1,0,80,0,1
224429,-100,4,1,0,85,0,1
225489,-100,4,1,0,75,0,0
226679,-100,4,1,0,80,0,0
227889,-100,4,1,0,85,0,1
237489,-100,4,1,0,80,0,0
239429,-100,4,1,0,85,0,0
240179,-100,4,1,0,100,0,0
240479,-100,4,1,0,55,0,0
245289,-100,4,1,0,30,0,0

[HitObjects]
256,192,491,8,0,1541,1:0:0:0:
253,187,1691,5,0,1:0:0:0:
249,189,1841,1,8,1:0:0:0:
249,189,1916,1,8,1:0:0:0:
249,189,1991,1,8,1:0:0:0:
249,189,2141,1,8,1:0:0:0:
253,187,2291,1,0,1:0:0:0:
253,187,2441,1,0,1:0:0:0:
253,187,2591,1,0,1:0:0:0:
249,189,2741,1,8,1:0:0:0:
253,192,2891,1,4,1:0:0:0:
256,192,3491,1,8,1:0:0:0:
256,192,3791,1,0,1:0:0:0:
256,192,3941,1,8,1:0:0:0:
256,192,4391,1,0,1:0:0:0:
256,192,4691,1,8,1:0:0:0:
256,192,4991,1,8,1:0:0:0:
256,192,5291,1,4,1:0:0:0:
256,192,5891,1,8,1:0:0:0:
256,192,6191,1,0,1:0:0:0:
256,192,6341,1,8,1:0:0:0:
256,192,6791,1,0,1:0:0:0:
256,192,7091,1,8,1:0:0:0:
256,192,7391,1,0,1:0:0:0:
256,192,7691,1,12,1:0:0:0:
249,189,8291,1,8,1:0:0:0:
256,192,8591,1,0,1:0:0:0:
256,192,8741,1,8,1:0:0:0:
256,192,9191,1,0,1:0:0:0:
256,192,9491,1,8,1:0:0:0:
256,192,9791,1,0,1:0:0:0:
256,192,9866,1,0,1:0:0:0:
256,192,9941,1,0,1:0:0:0:
256,192,10091,1,12,1:0:0:0:
253,187,10391,1,0,1:0:0:0:
251,194,10541,1,12,1:0:0:0:
253,187,10841,1,0,1:0:0:0:
251,194,10991,1,12,1:0:0:0:
253,192,11291,1,4,1:0:0:0:
253,192,11441,1,4,1:0:0:0:
253,192,11591,1,4,1:0:0:0:
251,194,11741,1,12,1:0:0:0:
251,194,12491,1,12,1:0:0:0:
253,187,12791,1,0,1:0:0:0:
249,189,12941,1,8,1:0:0:0:
253,187,13016,1,0,1:0:0:0:
249,189,13091,1,8,1:0:0:0:
253,187,13241,1,0,1:0:0:0:
249,189,13391,1,8,1:0:0:0:
249,189,13541,1,8,1:0:0:0:
253,187,13691,1,0,1:0:0:0:
249,189,13991,1,8,1:0:0:0:
253,187,14291,1,0,1:0:0:0:
249,189,14441,1,8,1:0:0:0:
249,189,14516,1,8,1:0:0:0:
253,187,14591,1,0,1:0:0:0:
249,189,14741,1,8,1:0:0:0:
253,187,14891,1,0,1:0:0:0:
249,189,15191,1,8,1:0:0:0:
253,187,15341,1,0,1:0:0:0:
253,187,15416,1,0,1:0:0:0:
249,189,15491,1,8,1:0:0:0:
253,187,15641,1,0,1:0:0:0:
249,189,15791,1,8,1:0:0:0:
253,187,15866,1,0,1:0:0:0:
249,189,15941,1,8,1:0:0:0:
253,187,16091,1,0,1:0:0:0:
249,189,16241,1,8,1:0:0:0:
253,187,16316,1,0,1:0:0:0:
249,189,16391,1,8,1:0:0:0:
249,189,16466,1,8,1:0:0:0:
253,187,16541,1,0,1:0:0:0:
253,187,16691,1,0,1:0:0:0:
253,187,16841,1,0,1:0:0:0:
249,189,16991,1,8,1:0:0:0:
249,189,17141,1,8,1:0:0:0:
249,189,17216,1,8,1:0:0:0:
253,187,17291,1,0,1:0:0:0:
249,189,17591,1,8,1:0:0:0:
253,187,17741,1,0,1:0:0:0:
253,187,17816,1,0,1:0:0:0:
249,189,17891,1,8,1:0:0:0:
253,187,18041,1,0,1:0:0:0:
249,189,18191,1,8,1:0:0:0:
253,187,18491,1,0,1:0:0:0:
253,187,18641,1,0,1:0:0:0:
253,187,18716,1,0,1:0:0:0:
249,189,18791,1,8,1:0:0:0:
249,189,18941,1,8,1:0:0:0:
253,187,19091,1,0,1:0:0:0:
253,187,19241,1,0,1:0:0:0:
249,189,19391,1,8,1:0:0:0:
253,187,19466,1,0,1:0:0:0:
253,187,19541,1,0,1:0:0:0:
253,187,19691,1,0,1:0:0:0:
249,189,19841,1,8,1:0:0:0:
249,189,19916,1,8,1:0:0:0:
253,187,19991,1,0,1:0:0:0:
253,187,20141,1,0,1:0:0:0:
249,189,20291,1,8,1:0:0:0:
253,187,20366,1,0,1:0:0:0:
253,187,20441,1,0,1:0:0:0:
253,187,20591,1,0,1:0:0:0:
251,194,20741,1,12,1:0:0:0:
256,192,22091,1,4,1:0:0:0:
251,194,23291,1,12,1:0:0:0:
256,192,23591,1,0,1:0:0:0:
256,192,23741,1,8,1:0:0:0:
256,192,24041,1,8,1:0:0:0:
256,192,24191,1,0,1:0:0:0:
256,192,24491,1,0,1:0:0:0:
256,192,24791,1,0,1:0:0:0:
256,192,25091,1,8,1:0:0:0:
256,192,25241,1,0,0:0:0:0:
256,192,25391,1,8,1:0:0:0:
256,192,25541,1,8,1:0:0:0:
256,192,25691,1,0,1:0:0:0:
256,192,25991,1,8,1:0:0:0:
249,189,26141,1,8,1:0:0:0:
256,192,26441,1,0,1:0:0:0:
256,192,26591,1,8,1:0:0:0:
256,192,26741,1,8,1:0:0:0:
256,192,26891,1,0,1:0:0:0:
256,192,27191,1,0,1:0:0:0:
256,192,27491,1,0,1:0:0:0:
256,192,27791,1,0,1:0:0:0:
256,192,27941,1,8,1:0:0:0:
253,187,28091,1,0,1:0:0:0:
256,192,28391,1,0,1:0:0:0:
256,192,28541,1,8,1:0:0:0:
256,192,28841,1,8,1:0:0:0:
256,192,28991,1,0,1:0:0:0:
256,192,29291,1,0,1:0:0:0:
256,192,29591,1,0,1:0:0:0:
256,192,29891,1,8,1:0:0:0:
256,192,30191,1,8,1:0:0:0:
256,192,30491,1,0,1:0:0:0:
256,192,30791,1,0,1:0:0:0:
256,192,30941,1,8,1:0:0:0:
256,192,31091,1,8,1:0:0:0:
256,192,31391,1,0,1:0:0:0:
256,192,31541,1,0,1:0:0:0:
256,192,31691,1,8,1:0:0:0:
256,192,31991,1,8,1:0:0:0:
256,192,32141,1,8,1:0:0:0:
256,192,32291,1,0,1:0:0:0:
256,192,32591,1,0,1:0:0:0:
256,192,32741,1,8,1:0:0:0:
253,187,32891,1,0,1:0:0:0:
256,192,33191,1,8,1:0:0:0:
256,192,33341,1,0,1:0:0:0:
256,192,33641,1,0,1:0:0:0:
256,192,33791,1,8,1:0:0:0:
256,192,34091,1,0,1:0:0:0:
256,192,34391,1,8,1:0:0:0:
253,187,34541,1,0,1:0:0:0:
249,189,34691,1,8,1:0:0:0:
253,187,34991,1,0,1:0:0:0:
249,189,35291,1,8,1:0:0:0:
256,192,35591,1,8,1:0:0:0:
256,192,35891,1,0,1:0:0:0:
256,192,36191,1,0,1:0:0:0:
256,192,36341,1,0,1:0:0:0:
256,192,36491,1,8,1:0:0:0:
256,192,36791,1,0,1:0:0:0:
256,192,37091,1,0,1:0:0:0:
256,192,37391,1,8,1:0:0:0:
253,187,37691,1,0,1:0:0:0:
249,189,37991,1,8,1:0:0:0:
249,189,38291,1,8,1:0:0:0:
253,187,38591,1,0,1:0:0:0:
256,192,38891,1,8,1:0:0:0:
256,192,39191,1,0,1:0:0:0:
256,192,39491,1,8,1:0:0:0:
249,189,39791,1,8,1:0:0:0:
253,187,40091,1,0,1:0:0:0:
256,192,40391,1,0,1:0:0:0:
256,192,40541,1,0,1:0:0:0:
256,192,40691,1,8,1:0:0:0:
256,192,40991,1,0,1:0:0:0:
256,192,41141,1,8,1:0:0:0:
256,192,41291,1,8,1:0:0:0:
256,192,41591,1,8,1:0:0:0:
253,187,41741,1,0,1:0:0:0:
256,192,42041,1,4,1:0:0:0:
256,192,42191,1,4,1:0:0:0:
256,192,42341,1,12,1:0:0:0:
253,187,42641,1,0,1:0:0:0:
249,189,42791,1,8,1:0:0:0:
249,189,42941,1,8,1:0:0:0:
253,187,43091,1,0,1:0:0:0:
253,187,43166,1,0,1:0:0:0:
249,189,43241,1,8,1:0:0:0:
249,189,43391,1,8,1:0:0:0:
253,192,43541,1,4,1:0:0:0:
253,187,43841,1,0,1:0:0:0:
249,189,43991,1,8,1:0:0:0:
253,187,44141,1,0,1:0:0:0:
253,187,44216,1,0,1:0:0:0:
253,187,44291,1,0,1:0:0:0:
249,189,44441,1,8,1:0:0:0:
253,187,44591,1,0,1:0:0:0:
251,194,44741,1,12,1:0:0:0:
253,187,45041,1,0,1:0:0:0:
249,189,45191,1,8,1:0:0:0:
253,187,45341,1,0,1:0:0:0:
249,189,45491,1,8,1:0:0:0:
253,187,45566,1,0,1:0:0:0:
249,189,45641,1,8,1:0:0:0:
249,189,45791,1,8,1:0:0:0:
256,192,45941,1,4,1:0:0:0:
253,187,46241,1,0,1:0:0:0:
253,187,46391,1,0,1:0:0:0:
251,194,46541,1,12,1:0:0:0:
249,189,46841,1,8,1:0:0:0:
249,189,46991,1,8,1:0:0:0:
256,192,47141,1,4,1:0:0:0:
253,187,47441,1,0,1:0:0:0:
249,189,47591,1,8,1:0:0:0:
253,187,47741,1,0,1:0:0:0:
249,189,47891,1,8,1:0:0:0:
249,189,47966,1,8,1:0:0:0:
253,187,48041,1,0,1:0:0:0:
253,187,48191,1,0,1:0:0:0:
251,194,48341,1,12,1:0:0:0:
253,187,48641,1,0,1:0:0:0:
249,189,48791,1,8,1:0:0:0:
253,187,48866,1,0,1:0:0:0:
249,189,48941,1,8,1:0:0:0:
253,187,49091,1,0,1:0:0:0:
249,189,49241,1,8,1:0:0:0:
249,189,49391,1,8,1:0:0:0:
256,192,49541,1,4,1:0:0:0:
253,187,49841,1,0,1:0:0:0:
249,189,49991,1,8,1:0:0:0:
253,187,50141,1,0,1:0:0:0:
253,187,50291,1,0,1:0:0:0:
249,189,50441,1,8,1:0:0:0:
249,189,50516,1,8,1:0:0:0:
249,189,50591,1,8,1:0:0:0:
253,187,50741,1,0,1:0:0:0:
249,189,50891,1,8,1:0:0:0:
249,189,51041,1,8,1:0:0:0:
253,187,51191,1,0,1:0:0:0:
249,189,51491,1,8,1:0:0:0:
253,187,51641,1,0,1:0:0:0:
249,189,51791,1,8,1:0:0:0:
249,189,51866,1,8,1:0:0:0:
253,187,51941,1,0,1:0:0:0:
249,189,52091,1,8,1:0:0:0:
249,189,52391,1,8,1:0:0:0:
249,189,52541,1,0,1:0:0:0:
253,187,52691,1,8,1:0:0:0:
253,187,52766,1,8,1:0:0:0:
249,189,52841,1,8,1:0:0:0:
253,187,52991,1,0,1:0:0:0:
249,189,53066,1,0,1:0:0:0:
253,187,53141,1,0,1:0:0:0:
251,194,53291,1,12,1:0:0:0:
251,194,54491,1,12,1:0:0:0:
253,187,54791,1,0,1:0:0:0:
253,187,54941,1,0,1:0:0:0:
249,189,55091,1,8,1:0:0:0:
253,187,55391,1,0,1:0:0:0:
253,187,55541,1,0,1:0:0:0:
249,189,55691,1,8,1:0:0:0:
253,187,55841,1,0,1:0:0:0:
249,189,55991,1,8,1:0:0:0:
249,189,56141,1,8,1:0:0:0:
253,187,56291,1,0,1:0:0:0:
249,189,56591,1,8,1:0:0:0:
249,189,56741,1,8,1:0:0:0:
253,187,56891,1,0,1:0:0:0:
253,187,57041,1,0,1:0:0:0:
249,189,57191,1,8,1:0:0:0:
249,189,57491,1,8,1:0:0:0:
253,187,57641,1,0,1:0:0:0:
253,187,57791,1,0,1:0:0:0:
249,189,58091,1,8,1:0:0:0:
253,187,58241,1,0,1:0:0:0:
249,189,58391,1,8,1:0:0:0:
253,187,58541,1,0,1:0:0:0:
249,189,58691,1,8,1:0:0:0:
249,189,58841,1,8,1:0:0:0:
253,187,58991,1,0,1:0:0:0:
249,189,59291,1,8,1:0:0:0:
253,187,59441,1,0,1:0:0:0:
253,187,59591,1,0,1:0:0:0:
249,189,59741,1,8,1:0:0:0:
253,187,59891,1,0,1:0:0:0:
253,187,60191,1,0,1:0:0:0:
253,187,60341,1,0,1:0:0:0:
249,189,60491,1,8,1:0:0:0:
253,187,60791,1,0,1:0:0:0:
249,189,60941,1,8,1:0:0:0:
253,187,61091,1,0,1:0:0:0:
253,187,61391,1,0,1:0:0:0:
249,189,61541,1,8,1:0:0:0:
249,189,61691,1,8,1:0:0:0:
253,187,61841,1,0,1:0:0:0:
249,189,61991,1,8,1:0:0:0:
249,189,62291,1,8,1:0:0:0:
253,187,62441,1,0,1:0:0:0:
249,189,62591,1,8,1:0:0:0:
253,187,62891,1,0,1:0:0:0:
249,189,63041,1,8,1:0:0:0:
249,189,63116,1,8,1:0:0:0:
253,187,63191,1,0,1:0:0:0:
249,189,63341,1,8,1:0:0:0:
253,187,63491,1,0,1:0:0:0:
249,189,63641,1,8,1:0:0:0:
253,187,63716,1,0,1:0:0:0:
249,189,63791,1,8,1:0:0:0:
249,189,63866,1,8,1:0:0:0:
253,187,63941,1,0,1:0:0:0:
251,194,64091,1,12,1:0:0:0:
249,189,64391,1,8,1:0:0:0:
253,187,64466,1,0,1:0:0:0:
249,189,64541,1,8,1:0:0:0:
253,187,64691,1,0,1:0:0:0:
253,187,64841,1,8,1:0:0:0:
253,187,64991,1,0,1:0:0:0:
249,189,65066,1,8,1:0:0:0:
253,187,65141,1,0,1:0:0:0:
249,189,65291,1,8,1:0:0:0:
253,187,65441,1,0,1:0:0:0:
249,189,65591,1,8,1:0:0:0:
249,189,65666,1,8,1:0:0:0:
253,187,65741,1,0,1:0:0:0:
249,189,65891,1,8,1:0:0:0:
253,187,66041,1,0,1:0:0:0:
253,187,66191,1,0,1:0:0:0:
253,187,66266,1,0,1:0:0:0:
249,189,66341,1,8,1:0:0:0:
253,187,66491,1,0,1:0:0:0:
253,187,66641,1,0,1:0:0:0:
249,189,66791,1,8,1:0:0:0:
253,187,66866,1,0,1:0:0:0:
253,187,66941,1,0,1:0:0:0:
249,189,67091,1,8,1:0:0:0:
253,187,67241,1,0,1:0:0:0:
249,189,67391,1,8,1:0:0:0:
253,187,67466,1,8,0:0:0:0:
253,187,67541,1,0,0:0:0:0:
253,187,67691,1,8,1:0:0:0:
249,189,67991,1,0,1:0:0:0:
253,187,68141,1,8,1:0:0:0:
253,187,68216,1,8,1:0:0:0:
249,189,68291,1,0,1:0:0:0:
253,187,68441,1,0,1:0:0:0:
249,189,68591,1,8,1:0:0:0:
253,187,68741,1,0,1:0:0:0:
251,194,68891,1,12,1:0:0:0:
249,189,69191,1,8,1:0:0:0:
253,187,69341,1,0,1:0:0:0:
253,187,69416,1,0,1:0:0:0:
249,189,69491,1,8,1:0:0:0:
253,187,69641,1,0,1:0:0:0:
249,189,69791,1,8,1:0:0:0:
253,187,69866,1,0,1:0:0:0:
253,187,69941,1,0,1:0:0:0:
253,187,70016,1,0,1:0:0:0:
249,189,70091,1,8,1:0:0:0:
253,187,70241,1,0,1:0:0:0:
249,189,70391,1,8,1:0:0:0:
253,187,70541,1,0,1:0:0:0:
249,189,70616,1,8,1:0:0:0:
253,187,70691,1,0,1:0:0:0:
253,187,70841,1,0,1:0:0:0:
249,189,70991,1,8,1:0:0:0:
253,187,71141,1,0,1:0:0:0:
251,194,71291,1,12,1:0:0:0:
249,189,71591,1,8,1:0:0:0:
249,189,71666,1,8,1:0:0:0:
253,187,71741,1,0,1:0:0:0:
249,189,71891,1,8,1:0:0:0:
253,187,72041,1,0,1:0:0:0:
249,189,72191,1,8,1:0:0:0:
253,187,72266,1,0,1:0:0:0:
253,187,72341,1,0,1:0:0:0:
256,192,72416,1,0,0:0:0:0:
249,189,72491,1,8,1:0:0:0:
256,192,72641,1,0,0:0:0:0:
249,189,72791,1,8,1:0:0:0:
253,187,73091,1,0,1:0:0:0:
253,187,73191,1,0,1:0:0:0:
249,189,73291,1,8,1:0:0:0:
253,187,73391,1,0,1:0:0:0:
251,194,73691,1,12,1:0:0:0:
249,189,73991,1,8,1:0:0:0:
253,187,74141,1,0,1:0:0:0:
249,189,74291,1,8,1:0:0:0:
249,189,74441,1,8,1:0:0:0:
253,187,74591,1,0,1:0:0:0:
249,189,74741,1,8,1:0:0:0:
253,187,75041,1,0,1:0:0:0:
249,189,75191,1,8,1:0:0:0:
253,187,75341,1,0,1:0:0:0:
249,189,75491,1,8,1:0:0:0:
249,189,75641,1,8,1:0:0:0:
253,187,75791,1,0,1:0:0:0:
249,189,75941,1,8,1:0:0:0:
249,189,76091,1,8,1:0:0:0:
253,187,76391,1,0,1:0:0:0:
249,189,76541,1,8,1:0:0:0:
249,189,76691,1,8,1:0:0:0:
253,187,76841,1,0,1:0:0:0:
253,187,76991,1,0,1:0:0:0:
249,189,77141,1,8,1:0:0:0:
249,189,77441,1,8,1:0:0:0:
249,189,77591,1,8,1:0:0:0:
253,187,77741,1,0,1:0:0:0:
253,187,78041,1,0,1:0:0:0:
249,189,78191,1,8,1:0:0:0:
249,189,78341,1,8,1:0:0:0:
253,187,78491,1,0,1:0:0:0:
249,189,78791,1,8,1:0:0:0:
253,187,78941,1,0,1:0:0:0:
249,189,79091,1,8,1:0:0:0:
249,189,79391,1,8,1:0:0:0:
253,187,79691,1,0,1:0:0:0:
249,189,79841,1,8,1:0:0:0:
253,187,79991,1,0,1:0:0:0:
249,189,80141,1,8,1:0:0:0:
253,187,80441,1,0,1:0:0:0:
249,189,80591,1,8,1:0:0:0:
253,187,80891,1,0,1:0:0:0:
253,187,81041,1,0,1:0:0:0:
249,189,81191,1,8,1:0:0:0:
253,187,81341,1,0,1:0:0:0:
251,194,81491,1,12,1:0:0:0:
251,194,81791,1,12,1:0:0:0:
249,189,82091,1,8,1:0:0:0:
249,189,82166,1,8,1:0:0:0:
253,187,82241,1,0,1:0:0:0:
253,187,82391,1,0,1:0:0:0:
249,189,82541,1,8,1:0:0:0:
253,187,82616,1,0,1:0:0:0:
253,187,82691,1,0,1:0:0:0:
253,187,82841,1,0,1:0:0:0:
249,189,82991,1,8,1:0:0:0:
249,189,83141,1,8,1:0:0:0:
253,192,83291,1,4,1:0:0:0:
249,189,83591,1,8,1:0:0:0:
253,187,83741,1,0,1:0:0:0:
253,187,84041,1,0,1:0:0:0:
249,189,84191,1,8,1:0:0:0:
253,187,84341,1,0,1:0:0:0:
253,187,84641,1,0,1:0:0:0:
249,189,84791,1,8,1:0:0:0:
253,187,84941,1,0,1:0:0:0:
249,189,85091,1,8,1:0:0:0:
253,187,85391,1,0,1:0:0:0:
249,189,85541,1,8,1:0:0:0:
249,189,85616,1,8,1:0:0:0:
253,187,85691,1,0,1:0:0:0:
249,189,85991,1,8,1:0:0:0:
249,189,86141,1,8,1:0:0:0:
249,189,86441,1,8,1:0:0:0:
253,187,86591,1,0,1:0:0:0:
249,189,86741,1,8,1:0:0:0:
253,187,87041,1,0,1:0:0:0:
249,189,87191,1,8,1:0:0:0:
253,187,87341,1,0,1:0:0:0:
249,189,87491,1,8,1:0:0:0:
249,189,87641,1,8,1:0:0:0:
253,187,87791,1,0,1:0:0:0:
253,192,88091,1,4,1:0:0:0:
249,189,88391,1,8,1:0:0:0:
249,189,88541,1,8,1:0:0:0:
249,189,88841,1,8,1:0:0:0:
253,187,88991,1,0,1:0:0:0:
249,189,89141,1,8,1:0:0:0:
253,187,89441,1,0,1:0:0:0:
249,189,89591,1,8,1:0:0:0:
253,187,89741,1,0,1:0:0:0:
249,189,89891,1,8,1:0:0:0:
249,189,90191,1,8,1:0:0:0:
249,189,90341,1,8,1:0:0:0:
253,187,90491,1,0,1:0:0:0:
249,189,90791,1,8,1:0:0:0:
253,187,90941,1,0,1:0:0:0:
249,189,91241,1,8,1:0:0:0:
253,187,91391,1,0,1:0:0:0:
251,194,91541,1,12,1:0:0:0:
251,194,91841,1,12,1:0:0:0:
251,194,92141,1,12,1:0:0:0:
251,194,92441,1,12,1:0:0:0:
249,189,92591,1,8,1:0:0:0:
249,189,92666,1,8,1:0:0:0:
249,189,92741,1,8,1:0:0:0:
253,192,92891,1,4,1:0:0:0:
253,187,93191,1,0,1:0:0:0:
249,189,93491,1,8,1:0:0:0:
253,187,93791,1,0,1:0:0:0:
249,189,93941,1,8,1:0:0:0:
253,192,94091,1,4,1:0:0:0:
253,187,94391,1,0,1:0:0:0:
249,189,94691,1,8,1:0:0:0:
253,187,94991,1,0,1:0:0:0:
253,192,95291,1,4,1:0:0:0:
253,187,95591,1,0,1:0:0:0:
249,189,95741,1,8,1:0:0:0:
249,189,95891,1,8,1:0:0:0:
249,189,96191,1,8,1:0:0:0:
253,192,96341,1,4,1:0:0:0:
249,189,96641,1,8,1:0:0:0:
249,189,96716,1,8,1:0:0:0:
253,187,96791,1,0,1:0:0:0:
253,187,96941,1,0,1:0:0:0:
249,189,97091,1,8,1:0:0:0:
253,187,97166,1,0,1:0:0:0:
249,189,97241,1,8,1:0:0:0:
249,189,97316,1,8,1:0:0:0:
253,187,97391,1,0,1:0:0:0:
249,189,97541,1,8,1:0:0:0:
253,192,97691,1,4,1:0:0:0:
249,189,97991,1,8,1:0:0:0:
253,187,98141,1,0,1:0:0:0:
253,187,98216,1,0,1:0:0:0:
249,189,98291,1,8,1:0:0:0:
253,187,98441,1,0,1:0:0:0:
249,189,98591,1,8,1:0:0:0:
253,187,98741,1,0,1:0:0:0:
249,189,98891,1,8,1:0:0:0:
253,187,99041,1,0,1:0:0:0:
249,189,99116,1,8,1:0:0:0:
253,187,99191,1,0,1:0:0:0:
253,187,99341,1,0,1:0:0:0:
249,189,99491,1,8,1:0:0:0:
253,187,99691,1,0,1:0:0:0:
249,189,99791,1,8,1:0:0:0:
251,194,100091,1,12,1:0:0:0:
249,189,101591,1,8,1:0:0:0:
249,189,101691,1,8,1:0:0:0:
249,189,101791,1,8,1:0:0:0:
253,187,101891,1,0,1:0:0:0:
251,194,102491,1,12,1:0:0:0:
249,189,102791,1,8,1:0:0:0:
249,189,102941,1,8,1:0:0:0:
253,187,103091,1,0,1:0:0:0:
249,189,103241,1,8,1:0:0:0:
253,187,103541,1,0,1:0:0:0:
249,189,103841,1,8,1:0:0:0:
253,187,103991,1,0,1:0:0:0:
249,189,104291,1,8,1:0:0:0:
253,187,104441,1,0,1:0:0:0:
249,189,104741,1,8,1:0:0:0:
253,187,105041,1,0,1:0:0:0:
249,189,105191,1,8,1:0:0:0:
253,187,105341,1,0,1:0:0:0:
249,189,105491,1,8,1:0:0:0:
249,189,105641,1,8,1:0:0:0:
249,189,105941,1,8,1:0:0:0:
253,187,106241,1,0,1:0:0:0:
249,189,106391,1,8,1:0:0:0:
249,189,106691,1,8,1:0:0:0:
249,189,106841,1,8,1:0:0:0:
251,194,107291,1,12,1:0:0:0:
249,189,107591,1,8,1:0:0:0:
249,189,107741,1,8,1:0:0:0:
253,187,107891,1,0,1:0:0:0:
249,189,108041,1,8,1:0:0:0:
253,187,108341,1,0,1:0:0:0:
249,189,108641,1,8,1:0:0:0:
253,187,108791,1,0,1:0:0:0:
249,189,109091,1,8,1:0:0:0:
253,187,109241,1,0,1:0:0:0:
249,189,109541,1,8,1:0:0:0:
253,187,109841,1,0,1:0:0:0:
253,187,109991,1,8,1:0:0:0:
253,187,110141,1,0,1:0:0:0:
249,189,110291,1,8,1:0:0:0:
249,189,110441,1,8,1:0:0:0:
249,189,110741,1,8,1:0:0:0:
253,187,111041,1,0,1:0:0:0:
249,189,111191,1,8,1:0:0:0:
249,189,111491,1,8,1:0:0:0:
249,189,111641,1,8,1:0:0:0:
253,192,112091,1,4,1:0:0:0:
249,189,113316,1,8,1:0:0:0:
253,187,113516,1,0,1:0:0:0:
253,187,113716,1,0,1:0:0:0:
249,189,113916,1,8,1:0:0:0:
249,189,114116,1,8,1:0:0:0:
253,187,114316,1,0,1:0:0:0:
251,194,114491,1,12,1:0:0:0:
253,187,114791,1,0,1:0:0:0:
253,187,114941,1,0,1:0:0:0:
249,189,115091,1,8,1:0:0:0:
253,187,115391,1,0,1:0:0:0:
253,187,115541,1,0,1:0:0:0:
249,189,115691,1,8,1:0:0:0:
253,187,115841,1,0,1:0:0:0:
249,189,115991,1,8,1:0:0:0:
249,189,116141,1,8,1:0:0:0:
253,187,116291,1,0,1:0:0:0:
249,189,116591,1,8,1:0:0:0:
249,189,116741,1,8,1:0:0:0:
253,187,116891,1,0,1:0:0:0:
253,187,117041,1,0,1:0:0:0:
249,189,117191,1,8,1:0:0:0:
249,189,117491,1,8,1:0:0:0:
253,187,117641,1,0,1:0:0:0:
253,187,117791,1,0,1:0:0:0:
249,189,118091,1,8,1:0:0:0:
253,187,118241,1,0,1:0:0:0:
249,189,118391,1,8,1:0:0:0:
253,187,118541,1,0,1:0:0:0:
249,189,118691,1,8,1:0:0:0:
249,189,118841,1,8,1:0:0:0:
253,187,118991,1,0,1:0:0:0:
249,189,119291,1,8,1:0:0:0:
253,187,119441,1,0,1:0:0:0:
253,187,119591,1,0,1:0:0:0:
249,189,119741,1,8,1:0:0:0:
253,187,119891,1,0,1:0:0:0:
253,187,120191,1,0,1:0:0:0:
253,187,120341,1,0,1:0:0:0:
249,189,120491,1,8,1:0:0:0:
253,187,120791,1,0,1:0:0:0:
249,189,120941,1,8,1:0:0:0:
253,187,121091,1,0,1:0:0:0:
253,187,121391,1,0,1:0:0:0:
249,189,121541,1,8,1:0:0:0:
249,189,121691,1,8,1:0:0:0:
253,187,121841,1,0,1:0:0:0:
249,189,121991,1,8,1:0:0:0:
249,189,122291,1,8,1:0:0:0:
253,187,122441,1,0,1:0:0:0:
249,189,122591,1,8,1:0:0:0:
253,187,122891,1,0,1:0:0:0:
249,189,123041,1,8,1:0:0:0:
249,189,123116,1,8,1:0:0:0:
253,187,123191,1,0,1:0:0:0:
249,189,123341,1,8,1:0:0:0:
253,187,123491,1,0,1:0:0:0:
249,189,123641,1,8,1:0:0:0:
253,187,123716,1,0,1:0:0:0:
249,189,123791,1,8,1:0:0:0:
249,189,123866,1,8,1:0:0:0:
253,187,123941,1,0,1:0:0:0:
251,194,124091,1,12,1:0:0:0:
249,189,124391,1,8,1:0:0:0:
253,187,124466,1,0,1:0:0:0:
249,189,124541,1,8,1:0:0:0:
253,187,124691,1,0,1:0:0:0:
253,187,124841,1,8,1:0:0:0:
253,187,124991,1,0,1:0:0:0:
249,189,125066,1,8,1:0:0:0:
253,187,125141,1,0,1:0:0:0:
249,189,125291,1,8,1:0:0:0:
253,187,125441,1,0,1:0:0:0:
249,189,125591,1,8,1:0:0:0:
249,189,125666,1,8,1:0:0:0:
253,187,125741,1,0,1:0:0:0:
249,189,125891,1,8,1:0:0:0:
253,187,126041,1,0,1:0:0:0:
253,187,126191,1,0,1:0:0:0:
253,187,126266,1,0,1:0:0:0:
249,189,126341,1,8,1:0:0:0:
253,187,126491,1,0,1:0:0:0:
253,187,126641,1,0,1:0:0:0:
249,189,126791,1,8,1:0:0:0:
253,187,126866,1,0,1:0:0:0:
253,187,126941,1,0,1:0:0:0:
249,189,127091,1,8,1:0:0:0:
253,187,127241,1,0,1:0:0:0:
249,189,127391,1,8,1:0:0:0:
256,192,127466,1,0,0:0:0:0:
256,192,127541,1,0,0:0:0:0:
253,187,127691,1,8,1:0:0:0:
249,189,127991,1,0,1:0:0:0:
253,187,128141,1,8,1:0:0:0:
253,187,128216,1,8,1:0:0:0:
249,189,128291,1,0,1:0:0:0:
253,187,128441,1,8,1:0:0:0:
249,189,128591,1,4,1:0:0:0:
249,189,128891,1,8,1:0:0:0:
249,189,129191,1,8,1:0:0:0:
253,187,129341,1,0,1:0:0:0:
253,187,129416,1,0,1:0:0:0:
249,189,129491,1,8,1:0:0:0:
253,187,129641,1,0,1:0:0:0:
249,189,129791,1,8,1:0:0:0:
253,187,129866,1,0,1:0:0:0:
253,187,129941,1,0,1:0:0:0:
253,187,130016,1,0,1:0:0:0:
249,189,130091,1,8,1:0:0:0:
253,187,130241,1,0,1:0:0:0:
249,189,130391,1,8,1:0:0:0:
253,187,130541,1,0,1:0:0:0:
249,189,130616,1,8,1:0:0:0:
253,187,130691,1,0,1:0:0:0:
253,187,130841,1,0,1:0:0:0:
249,189,130991,1,8,1:0:0:0:
253,187,131141,1,0,1:0:0:0:
249,189,131291,1,8,1:0:0:0:
249,189,131591,1,8,1:0:0:0:
249,189,131666,1,8,1:0:0:0:
253,187,131741,1,0,1:0:0:0:
249,189,131891,1,8,1:0:0:0:
253,187,132041,1,0,1:0:0:0:
249,189,132191,1,8,1:0:0:0:
253,187,132266,1,0,1:0:0:0:
253,187,132341,1,0,1:0:0:0:
249,189,132491,1,8,1:0:0:0:
253,187,132641,1,0,1:0:0:0:
249,189,132791,1,8,1:0:0:0:
253,187,133091,1,0,1:0:0:0:
249,189,133291,1,8,1:0:0:0:
253,187,133391,1,0,1:0:0:0:
251,194,133691,1,4,1:0:0:0:
253,187,135341,1,0,1:0:0:0:
253,187,135416,1,0,1:0:0:0:
249,189,135491,1,8,1:0:0:0:
251,194,136091,1,12,1:0:0:0:
253,187,136288,1,0,1:0:0:0:
253,187,136387,1,0,1:0:0:0:
249,189,136485,1,8,1:0:0:0:
253,187,136683,1,0,1:0:0:0:
253,187,136781,1,0,1:0:0:0:
249,189,136880,1,8,1:0:0:0:
249,189,136979,1,8,1:0:0:0:
253,187,137077,1,0,1:0:0:0:
249,189,137275,1,8,1:0:0:0:
253,187,137472,1,0,1:0:0:0:
251,194,137669,1,12,1:0:0:0:
253,187,137965,1,0,1:0:0:0:
249,189,138063,1,8,1:0:0:0:
253,187,138261,1,0,1:0:0:0:
249,189,138458,1,8,1:0:0:0:
249,189,138754,1,8,1:0:0:0:
253,187,138853,1,0,1:0:0:0:
249,189,139050,1,8,1:0:0:0:
253,187,139247,1,0,1:0:0:0:
249,189,139445,1,8,1:0:0:0:
253,187,139544,1,0,1:0:0:0:
249,189,139642,1,8,1:0:0:0:
253,187,139840,1,0,1:0:0:0:
249,189,140037,1,8,1:0:0:0:
249,189,140432,1,8,1:0:0:0:
253,187,140629,1,0,1:0:0:0:
249,189,140826,1,8,1:0:0:0:
253,187,140925,1,0,1:0:0:0:
253,187,141024,1,0,1:0:0:0:
249,189,141221,1,8,1:0:0:0:
253,187,141419,1,0,1:0:0:0:
249,189,141616,1,8,1:0:0:0:
253,187,141912,1,0,1:0:0:0:
249,189,142011,1,8,1:0:0:0:
253,187,142208,1,0,1:0:0:0:
249,189,142405,1,8,1:0:0:0:
253,187,142800,1,0,1:0:0:0:
249,189,142997,1,8,1:0:0:0:
253,187,143195,1,0,1:0:0:0:
249,189,143392,1,8,1:0:0:0:
249,189,143491,1,8,1:0:0:0:
253,187,143590,1,0,1:0:0:0:
249,189,143688,1,8,1:0:0:0:
253,187,143787,1,0,1:0:0:0:
249,189,143984,1,8,1:0:0:0:
253,187,144280,1,0,1:0:0:0:
249,189,144379,1,8,1:0:0:0:
249,189,144576,1,8,1:0:0:0:
249,189,144675,1,8,1:0:0:0:
253,187,144774,1,0,1:0:0:0:
249,189,144971,1,8,1:0:0:0:
249,189,145169,1,0,1:0:0:0:
249,189,145366,1,8,1:0:0:0:
253,187,145563,1,0,1:0:0:0:
253,187,145859,1,0,1:0:0:0:
249,189,145958,1,8,1:0:0:0:
253,187,146155,1,0,1:0:0:0:
249,189,146353,1,8,1:0:0:0:
253,187,146550,1,0,1:0:0:0:
253,187,146649,1,0,1:0:0:0:
249,189,146747,1,8,1:0:0:0:
253,187,146945,1,0,1:0:0:0:
249,189,147142,1,8,1:0:0:0:
253,187,147340,1,0,1:0:0:0:
253,187,147438,1,0,1:0:0:0:
249,189,147537,1,8,1:0:0:0:
249,189,147932,1,8,1:0:0:0:
249,189,148129,1,0,1:0:0:0:
246,188,148228,1,0,1:0:0:0:
253,187,148326,1,0,1:0:0:0:
249,189,148524,1,8,1:0:0:0:
253,187,148721,1,0,1:0:0:0:
249,189,148919,1,8,1:0:0:0:
249,189,149017,1,8,1:0:0:0:
253,187,149116,1,0,1:0:0:0:
253,187,149313,1,0,1:0:0:0:
253,187,149511,1,0,1:0:0:0:
249,189,149609,1,8,1:0:0:0:
253,187,149708,1,0,1:0:0:0:
253,187,149807,1,0,1:0:0:0:
249,189,149905,1,8,1:0:0:0:
253,187,150103,1,0,1:0:0:0:
249,189,150300,1,8,1:0:0:0:
253,187,150695,1,0,1:0:0:0:
249,189,150892,1,8,1:0:0:0:
249,189,151090,1,8,1:0:0:0:
253,187,151386,1,0,1:0:0:0:
249,189,151484,1,8,1:0:0:0:
253,187,151682,1,0,1:0:0:0:
249,189,151879,1,8,1:0:0:0:
253,187,151978,1,0,1:0:0:0:
249,189,152076,1,8,1:0:0:0:
249,189,152274,1,8,1:0:0:0:
253,187,152471,1,0,1:0:0:0:
253,187,152570,1,0,1:0:0:0:
249,189,152669,1,8,1:0:0:0:
249,189,152866,1,8,1:0:0:0:
253,187,152965,1,0,1:0:0:0:
249,189,153063,1,8,1:0:0:0:
253,187,153261,1,0,1:0:0:0:
249,189,153458,1,8,1:0:0:0:
249,189,153853,1,8,1:0:0:0:
249,189,154050,1,8,1:0:0:0:
253,187,154247,1,0,1:0:0:0:
253,187,154544,1,0,1:0:0:0:
249,189,154642,1,8,1:0:0:0:
253,187,154840,1,0,1:0:0:0:
253,187,154938,1,0,1:0:0:0:
249,189,155037,1,8,1:0:0:0:
253,187,155234,1,0,1:0:0:0:
249,189,155432,1,8,1:0:0:0:
253,187,155629,1,0,1:0:0:0:
249,189,155826,1,8,1:0:0:0:
253,187,156024,1,0,1:0:0:0:
249,189,156122,1,8,1:0:0:0:
253,187,156221,1,0,1:0:0:0:
249,189,156419,1,8,1:0:0:0:
253,187,156616,1,0,1:0:0:0:
249,189,156912,1,8,1:0:0:0:
253,187,157011,1,0,1:0:0:0:
249,189,157208,1,8,1:0:0:0:
253,187,157405,1,0,1:0:0:0:
249,189,157603,1,8,1:0:0:0:
249,189,157701,1,8,1:0:0:0:
249,189,157800,1,8,1:0:0:0:
249,189,157997,1,8,1:0:0:0:
253,187,158195,1,0,1:0:0:0:
253,187,158491,1,0,1:0:0:0:
249,189,158590,1,8,1:0:0:0:
253,187,158787,1,0,1:0:0:0:
253,187,159182,1,0,1:0:0:0:
249,189,159280,1,8,1:0:0:0:
253,187,159379,1,0,1:0:0:0:
249,189,159576,1,8,1:0:0:0:
253,187,159774,1,0,1:0:0:0:
249,172,159971,1,0,1:0:0:0:
249,189,160169,1,8,1:0:0:0:
249,189,160267,1,0,1:0:0:0:
253,187,160366,1,8,1:0:0:0:
253,187,160465,1,8,1:0:0:0:
249,189,160563,1,0,1:0:0:0:
253,187,160761,1,0,1:0:0:0:
249,189,160958,1,8,1:0:0:0:
249,189,161155,1,8,1:0:0:0:
249,189,161254,1,8,1:0:0:0:
253,187,161353,1,0,1:0:0:0:
249,172,161550,1,0,1:0:0:0:
249,189,161747,1,8,1:0:0:0:
249,189,161846,1,8,1:0:0:0:
253,187,161945,1,0,1:0:0:0:
249,189,162142,1,8,1:0:0:0:
253,187,162241,1,0,0:0:0:0:
251,189,162438,1,0,0:0:0:0:
249,189,162537,1,8,1:0:0:0:
247,182,162734,1,8,0:0:0:0:
256,190,162932,1,4,0:0:0:0:
256,192,163228,1,12,1:0:0:0:
256,192,163524,1,4,1:0:0:0:
256,192,163820,1,12,1:0:0:0:
249,189,164116,1,8,1:0:0:0:
253,187,164215,1,0,1:0:0:0:
249,189,164313,1,8,1:0:0:0:
253,187,164511,1,4,1:0:0:0:
249,189,165300,1,8,1:0:0:0:
249,189,165399,1,8,1:0:0:0:
253,187,165497,1,0,1:0:0:0:
253,187,165596,1,0,1:0:0:0:
249,189,165695,1,8,1:0:0:0:
249,189,165892,1,8,1:0:0:0:
253,192,166090,1,4,1:0:0:0:
253,187,166484,1,0,1:0:0:0:
253,187,166583,1,0,1:0:0:0:
249,189,166682,1,8,1:0:0:0:
249,189,166879,1,8,1:0:0:0:
249,189,166978,1,8,1:0:0:0:
253,187,167076,1,0,1:0:0:0:
253,187,167175,1,0,1:0:0:0:
249,189,167274,1,8,1:0:0:0:
249,189,167471,1,8,1:0:0:0:
253,187,167668,1,0,1:0:0:0:
249,189,167866,1,8,1:0:0:0:
253,187,168063,1,0,1:0:0:0:
249,189,168162,1,8,1:0:0:0:
253,187,168261,1,0,1:0:0:0:
249,189,168458,1,8,1:0:0:0:
253,187,168557,1,0,1:0:0:0:
249,189,168655,1,8,1:0:0:0:
249,189,168754,1,8,1:0:0:0:
253,187,168853,1,0,1:0:0:0:
249,189,169050,1,8,1:0:0:0:
253,187,169247,1,0,1:0:0:0:
253,187,169445,1,0,1:0:0:0:
249,189,169642,1,8,1:0:0:0:
249,189,169741,1,8,1:0:0:0:
253,187,169840,1,0,1:0:0:0:
249,189,170037,1,8,1:0:0:0:
253,187,170136,1,0,1:0:0:0:
249,189,170234,1,8,1:0:0:0:
253,187,170333,1,0,1:0:0:0:
249,189,170432,1,8,1:0:0:0:
253,187,170629,1,0,1:0:0:0:
249,189,170826,1,8,1:0:0:0:
253,187,171024,1,0,1:0:0:0:
249,189,171221,1,8,1:0:0:0:
249,189,171320,1,8,1:0:0:0:
253,187,171418,1,0,1:0:0:0:
249,189,171616,1,8,1:0:0:0:
253,187,171715,1,0,1:0:0:0:
249,189,171813,1,8,1:0:0:0:
249,189,171912,1,8,1:0:0:0:
253,187,172011,1,0,1:0:0:0:
249,189,172208,1,8,1:0:0:0:
253,192,172405,1,4,1:0:0:0:
249,189,172800,1,8,1:0:0:0:
249,189,172899,1,8,1:0:0:0:
253,187,172997,1,0,1:0:0:0:
249,189,173195,1,8,1:0:0:0:
249,189,173293,1,8,1:0:0:0:
253,187,173392,1,0,1:0:0:0:
249,189,173491,1,8,1:0:0:0:
253,187,173590,1,0,1:0:0:0:
249,189,173787,1,8,1:0:0:0:
253,187,173984,1,0,1:0:0:0:
253,187,174182,1,0,1:0:0:0:
249,189,174379,1,8,1:0:0:0:
249,189,174478,1,8,1:0:0:0:
253,187,174576,1,0,1:0:0:0:
249,189,174774,1,8,1:0:0:0:
249,189,174872,1,8,1:0:0:0:
253,187,174971,1,0,1:0:0:0:
253,187,175070,1,0,1:0:0:0:
249,189,175168,1,8,1:0:0:0:
249,189,175366,1,8,1:0:0:0:
253,187,175563,1,0,1:0:0:0:
253,187,175761,1,0,1:0:0:0:
249,189,175958,1,8,1:0:0:0:
253,187,176057,1,0,1:0:0:0:
253,187,176155,1,0,1:0:0:0:
249,189,176353,1,8,1:0:0:0:
249,189,176451,1,8,1:0:0:0:
253,187,176550,1,0,1:0:0:0:
253,187,176649,1,0,1:0:0:0:
249,189,176747,1,8,1:0:0:0:
253,187,176945,1,0,1:0:0:0:
249,189,177142,1,8,1:0:0:0:
253,187,177340,1,0,1:0:0:0:
249,189,177537,1,8,1:0:0:0:
253,187,177734,1,0,1:0:0:0:
253,187,177833,1,0,1:0:0:0:
249,189,177932,1,8,1:0:0:0:
249,189,178030,1,8,1:0:0:0:
253,187,178129,1,0,1:0:0:0:
249,189,178326,1,8,1:0:0:0:
249,189,178425,1,8,1:0:0:0:
249,189,178524,1,8,1:0:0:0:
253,192,178721,1,4,1:0:0:0:
253,187,179116,1,0,1:0:0:0:
251,194,179313,1,12,1:0:0:0:
249,189,179708,1,8,1:0:0:0:
253,192,179905,1,4,1:0:0:0:
253,187,180300,1,0,1:0:0:0:
251,194,180497,1,12,1:0:0:0:
256,192,181089,1,4,1:0:0:0:
256,192,181689,1,8,1:0:0:0:
256,192,182289,1,0,1:0:0:0:
256,192,182589,1,0,0:0:0:0:
256,192,182889,1,8,1:0:0:0:
256,192,183489,1,0,1:0:0:0:
256,192,184089,1,8,1:0:0:0:
256,192,184689,1,0,1:0:0:0:
251,194,185889,1,12,1:0:0:0:
253,187,186189,1,0,1:0:0:0:
253,187,186489,1,0,1:0:0:0:
249,189,186789,1,8,1:0:0:0:
253,187,187089,1,0,1:0:0:0:
249,189,187239,1,0,1:0:0:0:
249,189,187389,1,8,1:0:0:0:
253,187,187689,1,0,1:0:0:0:
249,189,187989,1,8,1:0:0:0:
253,187,188589,1,0,1:0:0:0:
249,189,188889,1,8,1:0:0:0:
253,187,189189,1,0,1:0:0:0:
249,189,189339,1,0,1:0:0:0:
249,189,189489,1,8,1:0:0:0:
249,189,189639,1,8,0:0:0:0:
253,187,189789,1,0,1:0:0:0:
249,189,190089,1,8,1:0:0:0:
249,189,190389,1,8,1:0:0:0:
244,191,190539,1,8,0:0:0:0:
253,187,190689,1,0,1:0:0:0:
249,189,191289,1,8,1:0:0:0:
253,187,191589,1,0,1:0:0:0:
255,193,191739,1,0,0:0:0:0:
249,189,191889,1,8,1:0:0:0:
255,193,192039,1,0,0:0:0:0:
249,189,192189,1,8,1:0:0:0:
253,187,192489,1,0,1:0:0:0:
253,187,192789,1,0,1:0:0:0:
249,189,192939,1,8,1:0:0:0:
249,189,193089,1,8,1:0:0:0:
253,187,193389,1,0,1:0:0:0:
249,189,193689,1,8,1:0:0:0:
253,187,193989,1,0,1:0:0:0:
249,189,194589,1,8,1:0:0:0:
253,187,194889,1,0,1:0:0:0:
249,189,195039,1,8,1:0:0:0:
253,187,195189,1,0,1:0:0:0:
253,187,195339,1,0,1:0:0:0:
251,194,195489,1,12,1:0:0:0:
253,187,196089,1,0,1:0:0:0:
249,189,196389,1,8,1:0:0:0:
253,187,196539,1,0,1:0:0:0:
249,189,196839,1,0,1:0:0:0:
249,189,196989,1,8,1:0:0:0:
253,187,197289,1,0,1:0:0:0:
249,189,197589,1,8,1:0:0:0:
249,189,197739,1,8,1:0:0:0:
253,187,197889,1,0,1:0:0:0:
249,189,198489,1,8,1:0:0:0:
253,187,198789,1,0,1:0:0:0:
249,189,198939,1,8,1:0:0:0:
253,187,199239,1,8,1:0:0:0:
253,187,199389,1,0,1:0:0:0:
249,189,199689,1,8,1:0:0:0:
249,189,199989,1,0,1:0:0:0:
253,187,200289,1,8,1:0:0:0:
249,189,200889,1,8,1:0:0:0:
253,187,201189,1,0,1:0:0:0:
253,187,201339,1,0,1:0:0:0:
249,189,201639,1,8,1:0:0:0:
249,189,201789,1,8,1:0:0:0:
253,187,202089,1,0,1:0:0:0:
253,187,202389,1,0,1:0:0:0:
249,189,202689,1,8,1:0:0:0:
249,189,203289,1,8,1:0:0:0:
253,187,203589,1,0,1:0:0:0:
249,189,203739,1,0,1:0:0:0:
249,189,204039,1,8,1:0:0:0:
253,187,204189,1,8,1:0:0:0:
249,189,204489,1,0,1:0:0:0:
249,189,204789,1,8,1:0:0:0:
249,189,204939,1,8,1:0:0:0:
253,187,205089,1,0,1:0:0:0:
253,187,205389,1,0,1:0:0:0:
249,189,205689,1,8,1:0:0:0:
253,187,205989,1,0,1:0:0:0:
253,187,206139,1,0,1:0:0:0:
249,189,206289,1,8,1:0:0:0:
249,189,206439,1,8,1:0:0:0:
253,187,206589,1,0,1:0:0:0:
253,187,206664,1,0,1:0:0:0:
253,187,206739,1,0,1:0:0:0:
253,187,206814,1,0,1:0:0:0:
249,189,207189,1,8,1:0:0:0:
249,189,207264,1,8,1:0:0:0:
249,189,207339,1,8,1:0:0:0:
253,192,207489,1,4,1:0:0:0:
253,187,207789,1,0,1:0:0:0:
249,189,208089,1,8,1:0:0:0:
253,187,208239,1,0,1:0:0:0:
251,194,208689,1,12,1:0:0:0:
249,189,208989,1,8,1:0:0:0:
249,189,209139,1,0,1:0:0:0:
256,192,209289,1,8,1:0:0:0:
256,192,209364,1,8,1:0:0:0:
256,192,209439,1,0,1:0:0:0:
256,192,209589,1,8,1:0:0:0:
249,189,209739,1,0,1:0:0:0:
249,189,209889,1,8,1:0:0:0:
249,189,209964,1,8,1:0:0:0:
249,189,210039,1,0,1:0:0:0:
256,192,210189,1,8,0:0:0:0:
256,192,210339,1,0,0:0:0:0:
256,192,210489,1,8,0:0:0:0:
256,192,210564,1,0,0:0:0:0:
249,189,210639,1,0,0:0:0:0:
249,189,210714,1,0,0:0:0:0:
249,189,210789,1,8,0:0:0:0:
249,189,210939,1,0,0:0:0:0:
249,189,211089,1,8,0:0:0:0:
256,192,211389,1,8,0:0:0:0:
256,192,211539,1,0,0:0:0:0:
249,189,211689,1,8,0:0:0:0:
249,189,211764,1,0,0:0:0:0:
249,189,211839,1,0,0:0:0:0:
249,189,211989,1,8,0:0:0:0:
249,189,212139,1,0,0:0:0:0:
256,192,212289,1,8,0:0:0:0:
256,192,212364,1,8,0:0:0:0:
256,192,212439,1,0,0:0:0:0:
256,192,212514,1,0,0:0:0:0:
249,189,212589,1,8,0:0:0:0:
249,189,212739,1,8,0:0:0:0:
249,189,212889,1,0,0:0:0:0:
249,189,212964,1,0,0:0:0:0:
249,189,213039,1,0,0:0:0:0:
256,192,213189,1,8,0:0:0:0:
256,192,213339,1,0,0:0:0:0:
256,192,213489,1,12,0:0:0:0:
249,189,213789,1,8,1:0:0:0:
253,187,213939,1,0,1:0:0:0:
249,189,214089,1,8,1:0:0:0:
253,187,214164,1,0,1:0:0:0:
253,187,214239,1,0,1:0:0:0:
249,189,214389,1,8,1:0:0:0:
249,189,214464,1,8,1:0:0:0:
253,187,214539,1,0,1:0:0:0:
253,187,214614,1,0,1:0:0:0:
249,189,214689,1,8,1:0:0:0:
253,187,214839,1,0,1:0:0:0:
249,189,214989,1,8,1:0:0:0:
253,187,215064,1,0,1:0:0:0:
249,189,215139,1,8,1:0:0:0:
253,187,215289,1,0,1:0:0:0:
249,189,215439,1,8,1:0:0:0:
253,187,215589,1,0,1:0:0:0:
249,189,215664,1,8,1:0:0:0:
253,187,215739,1,0,1:0:0:0:
249,189,215889,1,8,1:0:0:0:
253,187,216039,1,0,1:0:0:0:
253,187,216114,1,0,1:0:0:0:
249,189,216189,1,8,1:0:0:0:
253,187,216264,1,0,1:0:0:0:
249,189,216339,1,8,1:0:0:0:
253,187,216489,1,0,1:0:0:0:
249,189,216639,1,8,1:0:0:0:
253,187,216714,1,0,1:0:0:0:
249,189,216789,1,8,1:0:0:0:
253,187,216939,1,0,1:0:0:0:
249,189,217089,1,8,1:0:0:0:
249,189,217389,1,8,1:0:0:0:
253,187,217539,1,0,1:0:0:0:
253,187,217614,1,0,1:0:0:0:
249,189,217689,1,8,1:0:0:0:
249,189,217764,1,8,1:0:0:0:
253,187,217839,1,0,1:0:0:0:
249,189,217989,1,8,1:0:0:0:
249,189,218064,1,8,1:0:0:0:
253,187,218139,1,0,1:0:0:0:
251,194,218289,1,12,1:0:0:0:
256,192,218589,1,0,1:0:0:0:
256,192,218889,1,8,1:0:0:0:
256,192,219189,1,0,1:0:0:0:
256,192,219489,1,0,1:0:0:0:
256,192,219789,1,0,1:0:0:0:
256,192,220089,1,8,1:0:0:0:
256,192,220389,1,0,1:0:0:0:
256,192,220689,1,0,1:0:0:0:
256,192,220989,1,0,1:0:0:0:
256,192,221289,1,8,1:0:0:0:
256,192,221589,1,0,1:0:0:0:
256,192,221889,1,0,1:0:0:0:
256,192,222189,1,0,1:0:0:0:
256,192,222339,1,0,1:0:0:0:
256,192,222489,1,12,1:0:0:0:
256,192,222789,1,12,1:0:0:0:
253,192,223089,1,4,1:0:0:0:
253,187,223389,1,0,1:0:0:0:
249,189,223689,1,8,1:0:0:0:
253,187,223989,1,0,1:0:0:0:
249,189,224289,1,8,1:0:0:0:
253,187,224439,1,0,1:0:0:0:
249,189,224589,1,8,1:0:0:0:
249,189,224739,1,8,1:0:0:0:
253,187,224889,1,0,1:0:0:0:
249,189,225089,1,8,1:0:0:0:
253,187,225189,1,8,1:0:0:0:
253,187,225289,1,0,1:0:0:0:
253,187,225389,1,8,1:0:0:0:
256,192,225489,1,0,0:0:0:0:
253,187,226539,1,0,1:0:0:0:
253,187,226614,1,0,1:0:0:0:
249,189,226689,1,8,1:0:0:0:
253,187,226839,1,0,1:0:0:0:
253,187,226989,1,0,1:0:0:0:
249,189,227139,1,8,1:0:0:0:
253,187,227214,1,0,1:0:0:0:
249,189,227289,1,8,1:0:0:0:
249,189,227364,1,8,1:0:0:0:
253,187,227439,1,0,1:0:0:0:
249,189,227589,1,8,1:0:0:0:
251,194,227889,1,12,1:0:0:0:
249,189,228189,1,8,1:0:0:0:
253,187,228339,1,0,1:0:0:0:
249,189,228489,1,8,1:0:0:0:
249,189,228639,1,8,1:0:0:0:
253,187,228789,1,0,1:0:0:0:
249,189,228939,1,8,1:0:0:0:
253,187,229239,1,0,1:0:0:0:
249,189,229389,1,8,1:0:0:0:
253,187,229539,1,0,1:0:0:0:
249,189,229689,1,8,1:0:0:0:
249,189,229839,1,8,1:0:0:0:
253,187,229989,1,0,1:0:0:0:
249,189,230139,1,8,1:0:0:0:
249,189,230289,1,8,1:0:0:0:
253,187,230589,1,0,1:0:0:0:
249,189,230739,1,8,1:0:0:0:
249,189,230889,1,8,1:0:0:0:
253,187,231039,1,0,1:0:0:0:
253,187,231189,1,0,1:0:0:0:
249,189,231339,1,8,1:0:0:0:
249,189,231639,1,8,1:0:0:0:
249,189,231789,1,8,1:0:0:0:
253,187,231939,1,0,1:0:0:0:
253,187,232239,1,0,1:0:0:0:
249,189,232389,1,8,1:0:0:0:
249,189,232539,1,8,1:0:0:0:
253,187,232689,1,0,1:0:0:0:
249,189,232989,1,8,1:0:0:0:
253,187,233139,1,0,1:0:0:0:
249,189,233289,1,8,1:0:0:0:
249,189,233589,1,8,1:0:0:0:
253,187,233889,1,0,1:0:0:0:
249,189,234039,1,8,1:0:0:0:
253,187,234189,1,0,1:0:0:0:
249,189,234339,1,8,1:0:0:0:
253,187,234639,1,0,1:0:0:0:
249,189,234789,1,8,1:0:0:0:
253,187,235089,1,0,1:0:0:0:
253,187,235239,1,0,1:0:0:0:
249,189,235389,1,8,1:0:0:0:
253,187,235539,1,0,1:0:0:0:
249,189,235689,1,8,1:0:0:0:
253,187,235839,1,0,1:0:0:0:
253,187,236139,1,0,1:0:0:0:
251,194,236289,1,12,1:0:0:0:
251,194,236589,1,12,1:0:0:0:
253,187,236889,1,0,1:0:0:0:
253,187,236964,1,0,1:0:0:0:
253,187,237039,1,0,1:0:0:0:
241,186,237114,1,0,0:0:0:0:
249,189,237189,1,8,1:0:0:0:
249,189,237339,1,8,1:0:0:0:
253,187,237489,1,0,1:0:0:0:
249,189,237789,1,8,1:0:0:0:
253,187,237939,1,0,1:0:0:0:
249,189,238089,1,8,1:0:0:0:
253,187,238164,1,0,1:0:0:0:
249,189,238239,1,8,1:0:0:0:
253,187,238389,1,0,1:0:0:0:
253,187,238539,1,0,1:0:0:0:
249,189,238689,1,8,1:0:0:0:
249,189,238764,1,8,1:0:0:0:
249,189,238839,1,8,1:0:0:0:
253,187,238989,1,0,1:0:0:0:
253,187,239064,1,0,1:0:0:0:
249,189,239139,1,8,1:0:0:0:
249,189,239214,1,8,1:0:0:0:
253,187,239289,1,0,1:0:0:0:
251,194,239439,1,12,1:0:0:0:
253,192,240189,1,4,1:0:0:0:
256,192,240339,8,0,245589,1:0:0:0:
