osu file format v14

[General]
AudioFilename: audio.mp3
AudioLeadIn: 0
PreviewTime: 208541
Countdown: 0
SampleSet: Normal
StackLeniency: 0.7
Mode: 1
LetterboxInBreaks: 0
WidescreenStoryboard: 0

[Editor]
DistanceSpacing: 2.7
BeatDivisor: 3
GridSize: 32
TimelineZoom: 2.499999

[Metadata]
Title:ATLAS
TitleUnicode:ATLAS
Artist:PassCode
ArtistUnicode:PassCode
Creator:_HeLLFly_
Version:Inner Oni
Source:
Tags:female vocals idol metalcore kawaii metal jmetal j-metal j-rock jrock rock japanese 高嶋楓 takashima kaede 南菜生 minami nao 今田夢菜 imada yuna 大上陽奈子 oogami hinako STRIVE REVERBERATE ep. hellfly
BeatmapID:4415175
BeatmapSetID:2104268

[Difficulty]
HPDrainRate:5.5
CircleSize:5
OverallDifficulty:6.5
ApproachRate:5
SliderMultiplier:1.4
SliderTickRate:1

[Events]
//Background and Video events
0,0,"bg.jpg",0,-80
//Break Periods
//Storyboard Layer 0 (Background)
//Storyboard Layer 1 (Fail)
//Storyboard Layer 2 (Pass)
//Storyboard Layer 3 (Foreground)
//Storyboard Layer 4 (Overlay)
//Storyboard Sound Samples

[TimingPoints]
491,300,4,1,0,45,1,0
491,-100,4,1,0,45,0,0
1686,-100,4,1,0,70,0,0
1831,-102.564102564103,4,1,0,70,0,0
1906,-103.896103896104,4,1,0,70,0,0
1981,-105.263157894737,4,1,0,70,0,0
2131,-108.108108108108,4,1,0,70,0,0
2281,-111.111111111111,4,1,0,70,0,0
2431,-114.285714285714,4,1,0,70,0,0
2581,-117.647058823529,4,1,0,70,0,0
2731,-121.212121212121,4,1,0,70,0,0
2891,300,4,1,0,75,1,0
2891,-125,4,1,0,75,0,0
9856,-123.456790123456,4,1,0,75,0,0
9931,-121.951219512195,4,1,0,75,0,0
10081,-119.047619047619,4,1,0,80,0,0
10231,-116.279069767441,4,1,0,80,0,0
10381,-113.636363636363,4,1,0,80,0,0
10531,-111.111111111111,4,1,0,80,0,0
10681,-108.695652173913,4,1,0,80,0,0
10831,-106.382978723404,4,1,0,80,0,0
10981,-104.166666666666,4,1,0,80,0,0
11131,-102.04081632653,4,1,0,80,0,0
11281,-100,4,1,0,80,0,0
20891,-111.111111111111,4,1,0,80,0,0
22081,-133.333333333333,4,1,0,70,0,0
23291,300,4,1,0,60,1,0
23291,-125,4,1,0,60,0,0
42026,-100,4,1,0,80,0,0
51856,-99.0099009900987,4,1,0,80,0,0
51931,-98.0392156862742,4,1,0,80,0,0
52006,-97.0873786407764,4,1,0,80,0,0
52081,-96.1538461538458,4,1,0,80,0,0
52231,-94.3396226415091,4,1,0,80,0,0
52381,-92.5925925925923,4,1,0,80,0,0
52531,-90.9090909090906,4,1,0,80,0,0
52681,-89.285714285714,4,1,0,80,0,0
52756,-88.4955752212386,4,1,0,80,0,0
52831,-87.7192982456137,4,1,0,80,0,0
52906,-86.9565217391301,4,1,0,80,0,0
52981,-86.2068965517238,4,1,0,80,0,0
53056,-85.4700854700852,4,1,0,80,0,0
53131,-84.7457627118641,4,1,0,80,0,0
53206,-84.0336134453779,4,1,0,80,0,0
53281,-83.333333333333,4,1,0,80,0,0
54491,300,4,1,0,90,1,1
54491,-76.9230769230769,4,1,0,90,0,1
54631,-77.3480662983425,4,1,0,90,0,1
54781,-77.7777777777778,4,1,0,90,0,1
54931,-78.2122905027933,4,1,0,90,0,1
55081,-78.6516853932584,4,1,0,90,0,1
55231,-79.0960451977401,4,1,0,90,0,1
55381,-79.5454545454545,4,1,0,90,0,1
55531,-80,4,1,0,90,0,1
55681,-80.4597701149425,4,1,0,90,0,1
55831,-80.9248554913295,4,1,0,90,0,1
55981,-81.3953488372093,4,1,0,90,0,1
56131,-81.8713450292398,4,1,0,90,0,1
56281,-82.3529411764706,4,1,0,90,0,1
56431,-82.8402366863905,4,1,0,90,0,1
56581,-83.3333333333333,4,1,0,90,0,1
56731,-83.8323353293413,4,1,0,90,0,1
56881,-84.3373493975904,4,1,0,90,0,1
57031,-84.8484848484848,4,1,0,90,0,1
57181,-85.3658536585366,4,1,0,90,0,1
57331,-85.8895705521472,4,1,0,90,0,1
57481,-86.4197530864197,4,1,0,90,0,1
57631,-86.9565217391304,4,1,0,90,0,1
57781,-87.5,4,1,0,90,0,1
57931,-88.0503144654088,4,1,0,90,0,1
58081,-88.6075949367089,4,1,0,90,0,1
58231,-89.171974522293,4,1,0,90,0,1
58381,-89.7435897435897,4,1,0,90,0,1
58531,-90.3225806451613,4,1,0,90,0,1
58681,-90.9090909090909,4,1,0,90,0,1
58831,-91.5032679738562,4,1,0,90,0,1
58981,-92.1052631578947,4,1,0,90,0,1
59131,-92.7152317880795,4,1,0,90,0,1
59281,-93.3333333333333,4,1,0,90,0,1
59431,-93.9597315436242,4,1,0,90,0,1
59581,-94.5945945945946,4,1,0,90,0,1
59731,-95.2380952380952,4,1,0,90,0,1
59881,-95.8904109589041,4,1,0,90,0,1
60031,-96.551724137931,4,1,0,90,0,1
60181,-97.2222222222222,4,1,0,90,0,1
60331,-97.9020979020979,4,1,0,90,0,1
60481,-98.5915492957747,4,1,0,90,0,1
60631,-99.290780141844,4,1,0,90,0,1
60781,-100,4,1,0,90,0,1
60931,-100.719424460432,4,1,0,90,0,1
61081,-101.449275362319,4,1,0,90,0,1
61231,-102.189781021898,4,1,0,90,0,1
61381,-102.941176470588,4,1,0,90,0,1
61531,-103.703703703704,4,1,0,90,0,1
61681,-104.477611940299,4,1,0,90,0,1
61831,-105.263157894737,4,1,0,90,0,1
61981,-106.060606060606,4,1,0,90,0,1
62131,-106.870229007634,4,1,0,90,0,1
62281,-107.692307692308,4,1,0,90,0,1
62431,-108.527131782946,4,1,0,90,0,1
62581,-109.375,4,1,0,90,0,1
62731,-110.236220472441,4,1,0,90,0,1
62891,-111.111111111111,4,1,0,85,0,0
62961,-109.58904109589,4,1,0,85,0,0
63036,-108.108108108108,4,1,0,85,0,0
63111,-106.666666666666,4,1,0,85,0,0
63186,-105.263157894736,4,1,0,85,0,0
63261,-103.896103896104,4,1,0,85,0,0
63336,-102.564102564102,4,1,0,85,0,0
63411,-101.26582278481,4,1,0,85,0,0
63486,-99.9999999999996,4,1,0,85,0,0
63561,-98.7654320987651,4,1,0,85,0,0
63636,-97.5609756097557,4,1,0,85,0,0
63711,-96.3855421686744,4,1,0,85,0,0
63786,-95.2380952380949,4,1,0,85,0,0
63861,-94.1176470588232,4,1,0,85,0,0
63936,-93.0232558139531,4,1,0,85,0,0
64011,-91.9540229885054,4,1,0,85,0,0
64091,-90.9090909090906,4,1,0,92,0,1
71431,-92.7536231884055,4,1,0,92,0,1
71581,-94.6745562130174,4,1,0,92,0,1
71656,-95.6651718983554,4,1,0,92,0,1
71731,-96.6767371601205,4,1,0,92,0,1
71881,-98.7654320987651,4,1,0,92,0,1
72031,-100.946372239747,4,1,0,92,0,1
72181,-103.225806451613,4,1,0,92,0,1
72256,-104.404567699836,4,1,0,92,0,1
72331,-105.610561056105,4,1,0,92,0,1
72406,-106.844741235392,4,1,0,92,0,1
72481,-108.108108108108,4,1,0,92,0,1
72556,-109.401709401709,4,1,0,92,0,1
72631,-110.726643598616,4,1,0,92,0,1
72706,-112.084063047285,4,1,0,92,0,1
72781,-113.475177304964,4,1,0,92,0,1
72931,-116.363636363636,4,1,0,92,0,1
73091,-119.402985074626,4,1,0,85,0,0
73181,-121.518987341772,4,1,0,85,0,0
73281,-123.711340206185,4,1,0,85,0,0
73381,-125.984251968504,4,1,0,85,0,0
73481,-128.342245989304,4,1,0,85,0,0
73581,-130.790190735694,4,1,0,85,0,0
73691,-133.333333333333,4,1,0,80,0,1
82161,-131.687242798353,4,1,0,80,0,1
82236,-130.081300813008,4,1,0,80,0,1
82311,-128.514056224899,4,1,0,80,0,1
82386,-126.984126984127,4,1,0,80,0,1
82461,-125.490196078431,4,1,0,80,0,1
82536,-124.031007751938,4,1,0,80,0,1
82611,-122.605363984674,4,1,0,80,0,1
82686,-121.212121212121,4,1,0,80,0,1
82761,-119.850187265917,4,1,0,80,0,1
82836,-118.518518518518,4,1,0,80,0,1
82911,-117.216117216117,4,1,0,80,0,1
82986,-115.942028985507,4,1,0,80,0,1
83136,-113.475177304964,4,1,0,80,0,1
83291,-111.111111111111,4,1,0,70,0,0
91681,-113.207547169811,4,1,0,70,0,0
91831,-115.384615384615,4,1,0,70,0,0
92131,-120,4,1,0,70,0,0
92431,-125,4,1,0,70,0,0
92581,-127.659574468085,4,1,0,70,0,0
92656,-129.032258064516,4,1,0,70,0,0
92731,-130.434782608695,4,1,0,70,0,0
92806,-131.868131868131,4,1,0,70,0,0
92881,-133.333333333333,4,1,0,65,0,0
96706,-131.455399061032,4,1,0,65,0,0
96781,-129.629629629629,4,1,0,65,0,0
96931,-126.126126126126,4,1,0,65,0,0
97081,-122.807017543859,4,1,0,65,0,0
97156,-121.212121212121,4,1,0,65,0,0
97231,-119.658119658119,4,1,0,65,0,0
97306,-118.143459915611,4,1,0,65,0,0
97381,-116.666666666666,4,1,0,65,0,0
97456,-115.226337448559,4,1,0,65,0,0
97531,-113.821138211382,4,1,0,65,0,0
97681,-111.111111111111,4,1,0,70,0,0
101291,-133.333333333333,4,1,0,70,0,0
102491,-133.333333333333,4,1,0,85,0,1
106841,-133.333333333333,4,1,0,85,0,0
107291,-133.333333333333,4,1,0,85,0,1
111641,-133.333333333333,4,1,0,85,0,0
112116,300,4,1,0,85,1,8
113131,-99.9999999999996,4,1,0,85,0,0
113206,-101.123595505618,4,1,0,85,0,0
113281,-102.272727272727,4,1,0,85,0,0
113481,-105.46875,4,1,0,85,0,0
113681,-108.870967741935,4,1,0,85,0,0
113881,-112.5,4,1,0,85,0,0
114081,-116.379310344827,4,1,0,85,0,0
114281,-120.535714285714,4,1,0,85,0,0
114491,300,4,1,0,90,1,1
114491,-76.9230769230769,4,1,0,90,0,1
114631,-77.3480662983425,4,1,0,90,0,1
114781,-77.7777777777778,4,1,0,90,0,1
114931,-78.2122905027933,4,1,0,90,0,1
115081,-78.6516853932584,4,1,0,90,0,1
115231,-79.0960451977401,4,1,0,90,0,1
115381,-79.5454545454545,4,1,0,90,0,1
115531,-80,4,1,0,90,0,1
115681,-80.4597701149425,4,1,0,90,0,1
115831,-80.9248554913295,4,1,0,90,0,1
115981,-81.3953488372093,4,1,0,90,0,1
116131,-81.8713450292398,4,1,0,90,0,1
116281,-82.3529411764706,4,1,0,90,0,1
116431,-82.8402366863905,4,1,0,90,0,1
116581,-83.3333333333333,4,1,0,90,0,1
116731,-83.8323353293413,4,1,0,90,0,1
116881,-84.3373493975904,4,1,0,90,0,1
117031,-84.8484848484848,4,1,0,90,0,1
117181,-85.3658536585366,4,1,0,90,0,1
117331,-85.8895705521472,4,1,0,90,0,1
117481,-86.4197530864197,4,1,0,90,0,1
117631,-86.9565217391304,4,1,0,90,0,1
117781,-87.5,4,1,0,90,0,1
117931,-88.0503144654088,4,1,0,90,0,1
118081,-88.6075949367089,4,1,0,90,0,1
118231,-89.171974522293,4,1,0,90,0,1
118381,-89.7435897435897,4,1,0,90,0,1
118531,-90.3225806451613,4,1,0,90,0,1
118681,-90.9090909090909,4,1,0,90,0,1
118831,-91.5032679738562,4,1,0,90,0,1
118981,-92.1052631578947,4,1,0,90,0,1
119131,-92.7152317880795,4,1,0,90,0,1
119281,-93.3333333333333,4,1,0,90,0,1
119431,-93.9597315436242,4,1,0,90,0,1
119581,-94.5945945945946,4,1,0,90,0,1
119731,-95.2380952380952,4,1,0,90,0,1
119881,-95.8904109589041,4,1,0,90,0,1
120031,-96.551724137931,4,1,0,90,0,1
120181,-97.2222222222222,4,1,0,90,0,1
120331,-97.9020979020979,4,1,0,90,0,1
120481,-98.5915492957747,4,1,0,90,0,1
120631,-99.290780141844,4,1,0,90,0,1
120781,-100,4,1,0,90,0,1
120931,-100.719424460432,4,1,0,90,0,1
121081,-101.449275362319,4,1,0,90,0,1
121231,-102.189781021898,4,1,0,90,0,1
121381,-102.941176470588,4,1,0,90,0,1
121531,-103.703703703704,4,1,0,90,0,1
121681,-104.477611940299,4,1,0,90,0,1
121831,-105.263157894737,4,1,0,90,0,1
121981,-106.060606060606,4,1,0,90,0,1
122131,-106.870229007634,4,1,0,90,0,1
122281,-107.692307692308,4,1,0,90,0,1
122431,-108.527131782946,4,1,0,90,0,1
122581,-109.375,4,1,0,90,0,1
122731,-110.236220472441,4,1,0,90,0,1
122891,-111.111111111111,4,1,0,85,0,0
122956,-109.58904109589,4,1,0,85,0,0
123031,-108.108108108108,4,1,0,85,0,0
123106,-106.666666666666,4,1,0,85,0,0
123181,-105.263157894736,4,1,0,85,0,0
123256,-103.896103896104,4,1,0,85,0,0
123331,-102.564102564102,4,1,0,85,0,0
123406,-101.26582278481,4,1,0,85,0,0
123481,-99.9999999999996,4,1,0,85,0,0
123556,-98.7654320987651,4,1,0,85,0,0
123631,-97.5609756097557,4,1,0,85,0,0
123706,-96.3855421686744,4,1,0,85,0,0
123781,-95.2380952380949,4,1,0,85,0,0
123856,-94.1176470588232,4,1,0,85,0,0
123931,-93.0232558139531,4,1,0,85,0,0
124006,-91.9540229885054,4,1,0,85,0,0
124091,-90.9090909090906,4,1,0,92,0,1
131281,-90.9090909090906,4,1,0,92,0,1
131431,-92.7536231884055,4,1,0,92,0,1
131581,-94.6745562130174,4,1,0,92,0,1
131656,-95.6651718983554,4,1,0,92,0,1
131731,-96.6767371601205,4,1,0,92,0,1
131881,-98.7654320987651,4,1,0,92,0,1
132031,-100.946372239747,4,1,0,92,0,1
132181,-103.225806451613,4,1,0,92,0,1
132256,-104.404567699836,4,1,0,92,0,1
132331,-105.610561056105,4,1,0,92,0,1
132406,-106.844741235392,4,1,0,92,0,1
132481,-108.108108108108,4,1,0,92,0,1
132556,-109.401709401709,4,1,0,92,0,1
132631,-110.726643598616,4,1,0,92,0,1
132706,-112.084063047285,4,1,0,92,0,1
132781,-113.475177304964,4,1,0,92,0,1
132931,-116.363636363636,4,1,0,92,0,1
133081,-119.402985074626,4,1,0,92,0,1
133281,-123.711340206185,4,1,0,92,0,1
133381,-125.984251968504,4,1,0,92,0,1
133691,-133.333333333333,4,1,0,80,0,0
136091,394.736842105263,4,1,0,75,1,0
136091,-99.9999999999995,4,1,0,75,0,0
136278,-96.9734214164998,4,1,0,75,0,0
136377,-95.520581113801,4,1,0,75,0,0
136475,-94.1246644795701,4,1,0,75,0,0
136574,-92.7553269654661,4,1,0,75,0,0
136673,-91.4252607184237,4,1,0,75,0,0
136771,-90.1456726649525,4,1,0,75,0,0
136870,-88.8888888888885,4,1,0,75,0,0
136969,-87.6666666666663,4,1,0,75,0,0
137067,-86.4894491641542,4,1,0,75,0,0
137166,-85.3318913072863,4,1,0,75,0,0
137265,-84.2049092849516,4,1,0,75,0,0
137363,-83.1182512509872,4,1,0,75,0,0
137462,-82.0486156245934,4,1,0,75,0,0
137561,-81.0061601642707,4,1,0,75,0,0
137669,394.736842105263,4,1,0,85,1,0
137669,-79.9999999999996,4,1,0,85,0,0
162882,-79.9999999999996,4,1,0,80,0,0
163218,-81.8410345453128,4,1,0,80,0,0
163514,-83.7688002334276,4,1,0,80,0,0
163810,-85.78957376871,4,1,0,80,0,0
164106,-87.9102524844803,4,1,0,80,0,0
164205,-88.6431258069945,4,1,0,80,0,0
164303,-89.3807313483524,4,1,0,80,0,0
164402,-90.1384329955754,4,1,0,80,0,0
164501,-90.9090909090905,4,1,0,80,0,0
165290,-86.95652173913,4,1,0,80,0,0
165389,-86.0191637630658,4,1,0,80,0,0
165487,-85.1109674639082,4,1,0,80,0,0
165586,-84.2127704935504,4,1,0,80,0,0
165685,-83.3333333333329,4,1,0,80,0,0
165784,-82.4720743292615,4,1,0,80,0,0
165882,-81.6368709310733,4,1,0,80,0,0
165981,-80.8101472995086,4,1,0,80,0,0
166090,394.736842105263,4,1,0,85,1,0
166090,-79.9999999999996,4,1,0,85,0,0
177231,-79.4025947903044,4,1,0,85,0,0
177329,-78.8199470873056,4,1,0,85,0,0
177428,-78.2399722518144,4,1,0,85,0,0
177527,-77.6684702410228,4,1,0,85,0,0
177626,-77.1052567326705,4,1,0,85,0,0
177724,-76.5557198613363,4,1,0,85,0,0
177823,-76.008472128622,4,1,0,85,0,0
177922,-75.4689927111957,4,1,0,85,0,0
178020,-74.9424523600462,4,1,0,85,0,0
178119,-74.4179470261096,4,1,0,85,0,0
178217,-73.9059208986657,4,1,0,85,0,0
178316,-73.3957747460893,4,1,0,85,0,0
178382,-73.0595720069401,4,1,0,85,0,0
178448,-72.726435299265,4,1,0,85,0,0
178514,-72.3963228720109,4,1,0,85,0,0
178580,-72.0691937287475,4,1,0,85,0,0
178645,-71.7498977598034,4,1,0,85,0,0
178711,-71.4285714285711,4,1,0,75,0,0
178913,-100,4,1,0,75,0,0
179703,-112.359550561798,4,1,0,75,0,0
180300,394.736842105263,4,1,0,75,1,8
180300,-128.205128205128,4,1,0,75,0,8
181089,600,4,1,0,65,1,0
181089,-100,4,1,0,65,0,0
185889,600,4,1,0,55,1,0
185889,-100,4,1,0,55,0,0
205079,-99.9999999999993,4,1,0,70,0,0
205379,-91.9999999999994,4,1,0,70,0,0
205679,-85.1851851851846,4,1,0,70,0,0
205979,-79.3103448275857,4,1,0,70,0,0
206129,-76.6666666666662,4,1,0,70,0,0
206279,-74.1935483870963,4,1,0,70,0,0
206429,-71.8749999999995,4,1,0,70,0,0
206579,-69.6969696969692,4,1,0,70,0,0
206654,-68.65671641791,4,1,0,70,0,0
206729,-67.647058823529,4,1,0,70,0,0
206804,-66.6666666666667,4,1,0,70,0,0
206884,-54.054054054054,4,1,0,80,0,0
208689,300,4,1,0,95,1,1
208689,-90.9090909090909,4,1,0,95,0,1
217089,-90.9090909090909,4,1,0,85,0,0
217229,-94.1176470588235,4,1,0,85,0,0
217379,-97.5609756097561,4,1,0,85,0,0
217454,-99.3788819875776,4,1,0,85,0,0
217529,-101.26582278481,4,1,0,85,0,0
217604,-103.225806451613,4,1,0,85,0,0
217679,-105.263157894737,4,1,0,85,0,0
217754,-107.38255033557,4,1,0,85,0,0
217829,-109.58904109589,4,1,0,85,0,0
217904,-111.888111888112,4,1,0,85,0,0
217979,-114.285714285714,4,1,0,85,0,0
218054,-116.788321167883,4,1,0,85,0,0
218129,-119.402985074627,4,1,0,85,0,0
218204,-122.137404580153,4,1,0,85,0,0
218289,-125,4,1,0,80,0,1
224429,-121.212121212121,4,1,0,80,0,1
224579,-117.647058823529,4,1,0,80,0,1
224729,-114.285714285714,4,1,0,80,0,1
224879,-111.111111111111,4,1,0,80,0,1
224979,-109.090909090909,4,1,0,80,0,1
225079,-107.142857142857,4,1,0,80,0,1
225179,-105.263157894737,4,1,0,80,0,1
225279,-103.448275862069,4,1,0,80,0,1
225379,-101.694915254237,4,1,0,80,0,1
225489,-100,4,1,0,75,0,0
226529,-133.333333333333,4,1,0,75,0,0
226604,-131.455399061033,4,1,0,75,0,0
226679,-129.62962962963,4,1,0,85,0,0
226829,-126.126126126126,4,1,0,85,0,0
226904,-124.444444444444,4,1,0,85,0,0
226979,-122.80701754386,4,1,0,85,0,0
227054,-121.212121212121,4,1,0,85,0,0
227129,-119.65811965812,4,1,0,85,0,0
227204,-118.143459915612,4,1,0,85,0,0
227279,-116.666666666667,4,1,0,85,0,0
227354,-115.22633744856,4,1,0,85,0,0
227429,-113.821138211382,4,1,0,85,0,0
227504,-112.449799196787,4,1,0,85,0,0
227579,-111.111111111111,4,1,0,85,0,0
227889,-125,4,1,0,85,0,1
236429,-122.100122100122,4,1,0,85,0,1
236579,-119.331742243437,4,1,0,85,0,1
236729,-116.686114352392,4,1,0,85,0,1
236879,-114.155251141553,4,1,0,85,0,1
236954,-112.930547713156,4,1,0,85,0,1
237029,-111.731843575419,4,1,0,85,0,1
237104,-110.558319513543,4,1,0,85,0,1
237179,-109.409190371991,4,1,0,85,0,1
237254,-108.283703302653,4,1,0,85,0,1
237329,-107.181136120043,4,1,0,85,0,1
237404,-106.100795755968,4,1,0,85,0,1
237489,-105.042016806723,4,1,0,80,0,0
237629,-102.986611740474,4,1,0,80,0,0
237779,-101.010101010101,4,1,0,80,0,0
237854,-100.050025012506,4,1,0,80,0,0
237929,-99.1080277502478,4,1,0,80,0,0
238079,-97.2762645914397,4,1,0,80,0,0
238154,-96.3855421686747,4,1,0,80,0,0
238229,-95.5109837631328,4,1,0,80,0,0
238304,-94.6521533364884,4,1,0,80,0,0
238379,-93.8086303939963,4,1,0,80,0,0
238529,-92.1658986175115,4,1,0,80,0,0
238679,-90.5797101449275,4,1,0,80,0,0
238754,-89.8069151324652,4,1,0,80,0,0
238829,-89.0471950133571,4,1,0,80,0,0
238979,-87.5656742556918,4,1,0,80,0,0
239054,-86.8432479374729,4,1,0,80,0,0
239129,-86.1326442721791,4,1,0,80,0,0
239204,-85.4335753951303,4,1,0,80,0,0
239279,-84.7457627118644,4,1,0,80,0,0
239429,-76.9230769230769,4,1,0,85,0,0
239884,-100,4,1,0,85,0,0
240184,-76.9230769230769,4,1,0,100,0,0
240484,-100,4,1,0,55,0,0
245289,-100,4,1,0,30,0,0

[HitObjects]
256,192,491,8,0,1541,1:0:0:0:
256,192,1691,5,0,1:0:0:0:
256,192,1841,1,8,1:0:0:0:
256,192,1916,1,8,1:0:0:0:
256,192,1991,1,8,1:0:0:0:
256,192,2141,1,8,1:0:0:0:
256,192,2291,1,0,1:0:0:0:
256,192,2441,1,0,1:0:0:0:
256,192,2591,1,0,1:0:0:0:
256,192,2741,1,8,1:0:0:0:
256,192,2891,1,4,1:0:0:0:
256,192,3491,1,8,1:0:0:0:
256,192,3791,1,0,1:0:0:0:
256,192,3941,1,8,1:0:0:0:
256,192,4391,1,0,1:0:0:0:
256,192,4691,1,8,1:0:0:0:
256,192,4991,1,8,1:0:0:0:
256,192,5291,1,4,1:0:0:0:
256,192,5891,1,8,1:0:0:0:
256,192,6191,1,0,1:0:0:0:
256,192,6341,1,8,1:0:0:0:
256,192,6791,1,0,1:0:0:0:
256,192,7091,1,8,1:0:0:0:
256,192,7391,1,0,1:0:0:0:
256,192,7691,1,12,1:0:0:0:
249,189,8291,1,8,1:0:0:0:
256,192,8591,1,0,1:0:0:0:
256,192,8741,1,8,1:0:0:0:
256,192,9191,1,0,1:0:0:0:
256,192,9491,1,8,1:0:0:0:
256,192,9791,1,0,1:0:0:0:
256,192,9866,1,0,1:0:0:0:
256,192,9941,1,0,1:0:0:0:
256,192,10091,1,12,1:0:0:0:
256,192,10241,1,0,1:0:0:0:
256,192,10391,1,0,1:0:0:0:
256,192,10541,1,12,1:0:0:0:
256,192,10691,1,0,1:0:0:0:
256,192,10841,1,0,1:0:0:0:
256,192,10991,1,12,1:0:0:0:
256,192,11141,1,8,1:0:0:0:
256,192,11291,1,4,1:0:0:0:
256,192,11441,1,4,1:0:0:0:
256,192,11591,1,4,1:0:0:0:
256,192,11741,1,12,1:0:0:0:
256,192,12491,1,12,1:0:0:0:
256,192,12791,1,0,1:0:0:0:
256,192,12941,1,8,1:0:0:0:
256,192,13016,1,0,1:0:0:0:
256,192,13091,1,8,1:0:0:0:
256,192,13241,1,0,1:0:0:0:
256,192,13391,1,8,1:0:0:0:
256,192,13466,1,0,1:0:0:0:
256,192,13541,1,8,1:0:0:0:
256,192,13616,1,8,1:0:0:0:
256,192,13691,1,0,1:0:0:0:
256,192,13841,1,0,1:0:0:0:
256,192,13991,1,8,1:0:0:0:
256,192,14066,1,8,1:0:0:0:
256,192,14141,1,0,1:0:0:0:
256,192,14291,1,8,1:0:0:0:
256,192,14366,1,0,1:0:0:0:
256,192,14441,1,8,1:0:0:0:
256,192,14516,1,0,1:0:0:0:
256,192,14591,1,8,1:0:0:0:
256,192,14741,1,0,1:0:0:0:
256,192,14816,1,8,1:0:0:0:
256,192,14891,1,0,1:0:0:0:
256,192,15041,1,0,1:0:0:0:
256,192,15191,1,8,1:0:0:0:
256,192,15341,1,0,1:0:0:0:
256,192,15416,1,0,1:0:0:0:
256,192,15491,1,8,1:0:0:0:
256,192,15566,1,8,1:0:0:0:
256,192,15641,1,0,1:0:0:0:
256,192,15791,1,8,1:0:0:0:
256,192,15866,1,0,1:0:0:0:
256,192,15941,1,8,1:0:0:0:
256,192,16091,1,0,1:0:0:0:
256,192,16241,1,0,1:0:0:0:
256,192,16316,1,0,1:0:0:0:
256,192,16391,1,8,1:0:0:0:
256,192,16541,1,8,1:0:0:0:
256,192,16691,1,0,1:0:0:0:
256,192,16841,1,8,1:0:0:0:
256,192,16916,1,0,1:0:0:0:
256,192,16991,1,8,1:0:0:0:
256,192,17066,1,8,1:0:0:0:
256,192,17141,1,8,1:0:0:0:
256,192,17216,1,8,1:0:0:0:
256,192,17291,1,0,1:0:0:0:
256,192,17441,1,0,1:0:0:0:
256,192,17591,1,8,1:0:0:0:
256,192,17666,1,8,1:0:0:0:
256,192,17741,1,0,1:0:0:0:
256,192,17891,1,8,1:0:0:0:
256,192,18041,1,0,1:0:0:0:
256,192,18191,1,8,1:0:0:0:
256,192,18266,1,0,1:0:0:0:
256,192,18341,1,8,1:0:0:0:
256,192,18491,1,0,1:0:0:0:
256,192,18566,1,0,1:0:0:0:
256,192,18641,1,8,1:0:0:0:
256,192,18716,1,8,1:0:0:0:
256,192,18791,1,0,1:0:0:0:
256,192,18941,1,8,1:0:0:0:
256,192,19091,1,0,1:0:0:0:
256,192,19241,1,0,1:0:0:0:
256,192,19391,1,8,1:0:0:0:
256,192,19466,1,0,1:0:0:0:
256,192,19541,1,0,1:0:0:0:
256,192,19691,1,8,1:0:0:0:
256,192,19766,1,0,1:0:0:0:
256,192,19841,1,8,1:0:0:0:
256,192,19916,1,8,1:0:0:0:
256,192,19991,1,0,1:0:0:0:
256,192,20141,1,0,1:0:0:0:
256,192,20291,1,0,1:0:0:0:
256,192,20366,1,0,1:0:0:0:
256,192,20441,1,8,1:0:0:0:
256,192,20516,1,8,1:0:0:0:
256,192,20591,1,0,1:0:0:0:
256,192,20741,1,12,1:0:0:0:
256,192,22091,1,4,1:0:0:0:
256,192,23291,1,12,1:0:0:0:
256,192,23591,1,0,1:0:0:0:
256,192,23741,1,8,1:0:0:0:
256,192,24041,1,8,1:0:0:0:
256,192,24191,1,0,1:0:0:0:
256,192,24491,1,0,1:0:0:0:
256,192,24791,1,0,1:0:0:0:
256,192,25091,1,8,1:0:0:0:
256,192,25241,1,0,1:0:0:0:
256,192,25391,1,8,1:0:0:0:
256,192,25541,1,8,1:0:0:0:
253,187,25691,1,0,0:0:0:0:
256,192,25991,1,8,1:0:0:0:
249,189,26141,1,8,1:0:0:0:
256,192,26441,1,0,1:0:0:0:
256,192,26591,1,8,1:0:0:0:
256,192,26741,1,8,1:0:0:0:
256,192,26891,1,0,1:0:0:0:
256,192,27191,1,0,1:0:0:0:
256,192,27491,1,0,1:0:0:0:
256,192,27791,1,0,1:0:0:0:
256,192,27941,1,8,1:0:0:0:
253,187,28091,1,0,1:0:0:0:
256,192,28391,1,0,1:0:0:0:
256,192,28541,1,8,1:0:0:0:
256,192,28841,1,8,1:0:0:0:
256,192,28991,1,0,1:0:0:0:
256,192,29291,1,0,1:0:0:0:
256,192,29591,1,0,1:0:0:0:
256,192,29891,1,8,1:0:0:0:
256,192,30041,1,0,1:0:0:0:
256,192,30191,1,8,1:0:0:0:
256,192,30491,1,0,1:0:0:0:
256,192,30791,1,0,1:0:0:0:
256,192,30941,1,8,1:0:0:0:
256,192,31091,1,8,1:0:0:0:
256,192,31391,1,0,1:0:0:0:
256,192,31541,1,0,1:0:0:0:
256,192,31691,1,8,1:0:0:0:
256,192,31841,1,0,1:0:0:0:
256,192,31991,1,8,1:0:0:0:
256,192,32141,1,8,1:0:0:0:
256,192,32291,1,0,1:0:0:0:
256,192,32591,1,0,1:0:0:0:
256,192,32741,1,8,1:0:0:0:
256,192,32891,1,0,1:0:0:0:
256,192,33191,1,8,1:0:0:0:
256,192,33341,1,0,1:0:0:0:
256,192,33641,1,0,1:0:0:0:
256,192,33791,1,8,1:0:0:0:
256,192,34091,1,0,1:0:0:0:
256,192,34391,1,8,1:0:0:0:
253,187,34541,1,0,1:0:0:0:
249,189,34691,1,8,1:0:0:0:
249,189,34841,1,8,1:0:0:0:
253,187,34991,1,0,1:0:0:0:
249,189,35291,1,8,1:0:0:0:
256,192,35591,1,8,1:0:0:0:
256,192,35741,1,8,1:0:0:0:
256,192,35891,1,0,1:0:0:0:
256,192,36191,1,0,1:0:0:0:
256,192,36341,1,0,1:0:0:0:
256,192,36491,1,8,1:0:0:0:
256,192,36641,1,8,1:0:0:0:
256,192,36791,1,0,1:0:0:0:
256,192,37091,1,0,1:0:0:0:
256,192,37391,1,8,1:0:0:0:
249,189,37541,1,8,1:0:0:0:
253,187,37691,1,0,1:0:0:0:
249,189,37991,1,8,1:0:0:0:
253,187,38141,1,0,1:0:0:0:
249,189,38291,1,8,1:0:0:0:
253,187,38591,1,0,1:0:0:0:
256,192,38741,1,0,1:0:0:0:
256,192,38891,1,8,1:0:0:0:
256,192,39041,1,8,1:0:0:0:
256,192,39191,1,0,1:0:0:0:
256,192,39491,1,8,1:0:0:0:
249,189,39791,1,8,1:0:0:0:
256,192,40091,1,0,1:0:0:0:
256,192,40241,1,8,1:0:0:0:
256,192,40391,1,0,1:0:0:0:
256,192,40541,1,0,1:0:0:0:
256,192,40691,1,8,1:0:0:0:
256,192,40991,1,0,1:0:0:0:
256,192,41141,1,8,1:0:0:0:
256,192,41291,1,8,1:0:0:0:
256,192,41441,1,0,1:0:0:0:
256,192,41591,1,8,1:0:0:0:
253,187,41741,1,0,1:0:0:0:
256,192,42041,1,4,1:0:0:0:
256,192,42191,1,4,1:0:0:0:
256,192,42341,1,12,1:0:0:0:
256,192,42641,1,0,1:0:0:0:
256,192,42791,1,8,1:0:0:0:
256,192,42866,1,0,1:0:0:0:
256,192,42941,1,8,1:0:0:0:
256,192,43091,1,0,1:0:0:0:
256,192,43166,1,8,1:0:0:0:
256,192,43241,1,0,1:0:0:0:
256,192,43316,1,0,1:0:0:0:
256,192,43391,1,8,1:0:0:0:
256,192,43541,1,4,1:0:0:0:
256,192,43841,1,0,1:0:0:0:
256,192,43991,1,8,1:0:0:0:
256,192,44141,1,0,1:0:0:0:
256,192,44216,1,0,1:0:0:0:
256,192,44291,1,8,1:0:0:0:
256,192,44366,1,8,1:0:0:0:
256,192,44441,1,0,1:0:0:0:
256,192,44516,1,8,1:0:0:0:
256,192,44591,1,0,1:0:0:0:
256,192,44741,1,12,1:0:0:0:
256,192,45041,1,0,1:0:0:0:
256,192,45191,1,8,1:0:0:0:
256,192,45266,1,8,1:0:0:0:
256,192,45341,1,0,1:0:0:0:
256,192,45491,1,0,1:0:0:0:
256,192,45566,1,0,1:0:0:0:
256,192,45641,1,8,1:0:0:0:
256,192,45716,1,0,1:0:0:0:
256,192,45791,1,8,1:0:0:0:
256,192,45941,1,4,1:0:0:0:
256,192,46241,1,0,1:0:0:0:
256,192,46391,1,0,1:0:0:0:
256,192,46541,1,12,1:0:0:0:
256,192,46841,1,8,1:0:0:0:
256,192,46991,1,8,1:0:0:0:
256,192,47141,1,4,1:0:0:0:
256,192,47441,1,0,1:0:0:0:
256,192,47591,1,8,1:0:0:0:
256,192,47666,1,0,1:0:0:0:
256,192,47741,1,8,1:0:0:0:
256,192,47891,1,0,1:0:0:0:
256,192,47966,1,8,1:0:0:0:
256,192,48041,1,8,1:0:0:0:
256,192,48116,1,8,1:0:0:0:
256,192,48191,1,0,1:0:0:0:
256,192,48341,1,12,1:0:0:0:
256,192,48641,1,0,1:0:0:0:
256,192,48791,1,8,1:0:0:0:
256,192,48866,1,0,1:0:0:0:
256,192,48941,1,8,1:0:0:0:
256,192,49016,1,8,1:0:0:0:
256,192,49091,1,0,1:0:0:0:
256,192,49241,1,0,1:0:0:0:
256,192,49316,1,0,1:0:0:0:
256,192,49391,1,8,1:0:0:0:
256,192,49541,1,4,1:0:0:0:
256,192,49841,1,0,1:0:0:0:
256,192,49991,1,8,1:0:0:0:
256,192,50141,1,0,1:0:0:0:
256,192,50216,1,8,1:0:0:0:
256,192,50291,1,0,1:0:0:0:
256,192,50441,1,8,1:0:0:0:
256,192,50516,1,0,1:0:0:0:
256,192,50591,1,8,1:0:0:0:
256,192,50666,1,8,1:0:0:0:
256,192,50741,1,0,1:0:0:0:
256,192,50891,1,8,1:0:0:0:
256,192,51041,1,0,1:0:0:0:
256,192,51116,1,0,1:0:0:0:
256,192,51191,1,8,1:0:0:0:
256,192,51341,1,0,1:0:0:0:
256,192,51491,1,8,1:0:0:0:
256,192,51641,1,0,1:0:0:0:
256,192,51791,1,8,1:0:0:0:
256,192,51866,1,8,1:0:0:0:
256,192,51941,1,0,1:0:0:0:
256,192,52016,1,0,1:0:0:0:
256,192,52091,1,8,1:0:0:0:
256,192,52241,1,0,1:0:0:0:
256,192,52391,1,8,1:0:0:0:
249,189,52541,1,8,1:0:0:0:
256,192,52691,1,0,1:0:0:0:
256,192,52766,1,0,1:0:0:0:
256,192,52841,1,8,1:0:0:0:
256,192,52916,1,8,1:0:0:0:
256,192,52991,1,0,1:0:0:0:
256,192,53066,1,0,1:0:0:0:
256,192,53141,1,0,1:0:0:0:
256,192,53216,1,0,1:0:0:0:
256,192,53291,1,12,1:0:0:0:
256,192,54491,1,12,1:0:0:0:
256,192,54641,1,0,1:0:0:0:
256,192,54791,1,8,1:0:0:0:
256,192,54941,1,0,1:0:0:0:
256,192,55091,1,8,1:0:0:0:
256,192,55241,1,8,1:0:0:0:
256,192,55391,1,0,1:0:0:0:
256,192,55541,1,8,1:0:0:0:
256,192,55691,1,0,1:0:0:0:
256,192,55841,1,0,1:0:0:0:
256,192,55991,1,8,1:0:0:0:
256,192,56141,1,0,1:0:0:0:
256,192,56291,1,8,1:0:0:0:
256,192,56441,1,0,1:0:0:0:
256,192,56591,1,0,1:0:0:0:
256,192,56741,1,0,1:0:0:0:
256,192,56891,1,8,1:0:0:0:
256,192,57041,1,0,1:0:0:0:
256,192,57191,1,8,1:0:0:0:
256,192,57341,1,0,1:0:0:0:
256,192,57491,1,8,1:0:0:0:
256,192,57641,1,8,1:0:0:0:
256,192,57791,1,0,1:0:0:0:
256,192,57941,1,8,1:0:0:0:
256,192,58091,1,0,1:0:0:0:
256,192,58241,1,0,1:0:0:0:
256,192,58391,1,8,1:0:0:0:
256,192,58541,1,0,1:0:0:0:
256,192,58691,1,8,1:0:0:0:
256,192,58841,1,8,1:0:0:0:
256,192,58991,1,0,1:0:0:0:
256,192,59141,1,0,1:0:0:0:
256,192,59291,1,8,1:0:0:0:
256,192,59441,1,0,1:0:0:0:
256,192,59591,1,0,1:0:0:0:
256,192,59741,1,0,1:0:0:0:
256,192,59891,1,8,1:0:0:0:
256,192,60041,1,0,1:0:0:0:
256,192,60191,1,8,1:0:0:0:
256,192,60341,1,0,1:0:0:0:
256,192,60491,1,8,1:0:0:0:
256,192,60641,1,8,1:0:0:0:
256,192,60791,1,0,1:0:0:0:
256,192,60941,1,0,1:0:0:0:
256,192,61091,1,8,1:0:0:0:
256,192,61241,1,0,1:0:0:0:
256,192,61391,1,0,1:0:0:0:
256,192,61541,1,8,1:0:0:0:
256,192,61691,1,8,1:0:0:0:
256,192,61841,1,0,1:0:0:0:
256,192,61991,1,8,1:0:0:0:
256,192,62141,1,0,1:0:0:0:
256,192,62291,1,8,1:0:0:0:
256,192,62441,1,0,1:0:0:0:
256,192,62591,1,8,1:0:0:0:
256,192,62741,1,0,1:0:0:0:
256,192,62891,1,8,1:0:0:0:
256,192,62966,1,8,1:0:0:0:
256,192,63041,1,0,1:0:0:0:
256,192,63116,1,8,1:0:0:0:
256,192,63191,1,0,1:0:0:0:
256,192,63266,1,0,1:0:0:0:
256,192,63341,1,8,1:0:0:0:
256,192,63416,1,0,1:0:0:0:
256,192,63491,1,0,1:0:0:0:
256,192,63566,1,0,1:0:0:0:
256,192,63641,1,8,1:0:0:0:
256,192,63716,1,0,1:0:0:0:
256,192,63791,1,8,1:0:0:0:
256,192,63866,1,8,1:0:0:0:
256,192,63941,1,0,1:0:0:0:
256,192,64016,1,0,1:0:0:0:
256,192,64091,1,12,1:0:0:0:
256,192,64241,1,0,1:0:0:0:
256,192,64391,1,8,1:0:0:0:
256,192,64466,1,0,1:0:0:0:
256,192,64541,1,8,1:0:0:0:
256,192,64616,1,8,1:0:0:0:
256,192,64691,1,0,1:0:0:0:
256,192,64841,1,0,1:0:0:0:
256,192,64991,1,0,1:0:0:0:
256,192,65066,1,8,1:0:0:0:
256,192,65141,1,0,1:0:0:0:
256,192,65216,1,0,1:0:0:0:
256,192,65291,1,8,1:0:0:0:
256,192,65441,1,0,1:0:0:0:
256,192,65591,1,8,1:0:0:0:
256,192,65666,1,8,1:0:0:0:
256,192,65741,1,0,1:0:0:0:
256,192,65816,1,0,1:0:0:0:
256,192,65891,1,8,1:0:0:0:
256,192,66041,1,0,1:0:0:0:
256,192,66191,1,0,1:0:0:0:
256,192,66266,1,0,1:0:0:0:
256,192,66341,1,8,1:0:0:0:
256,192,66416,1,8,1:0:0:0:
256,192,66491,1,0,1:0:0:0:
256,192,66641,1,0,1:0:0:0:
256,192,66791,1,8,1:0:0:0:
256,192,66941,1,0,1:0:0:0:
256,192,67016,1,8,1:0:0:0:
256,192,67091,1,0,1:0:0:0:
256,192,67241,1,0,1:0:0:0:
256,192,67391,1,8,1:0:0:0:
256,192,67466,1,8,1:0:0:0:
256,192,67541,1,0,1:0:0:0:
256,192,67691,1,8,1:0:0:0:
256,192,67766,1,0,1:0:0:0:
256,192,67841,1,0,1:0:0:0:
256,192,67916,1,0,1:0:0:0:
256,192,67991,1,8,1:0:0:0:
256,192,68141,1,0,1:0:0:0:
256,192,68216,1,0,1:0:0:0:
256,192,68291,1,8,1:0:0:0:
256,192,68441,1,0,1:0:0:0:
256,192,68591,1,8,1:0:0:0:
256,192,68666,1,8,1:0:0:0:
256,192,68741,1,0,1:0:0:0:
251,194,68891,1,12,1:0:0:0:
256,192,69041,1,0,1:0:0:0:
256,192,69116,1,0,1:0:0:0:
256,192,69191,1,8,1:0:0:0:
256,192,69341,1,0,1:0:0:0:
256,192,69491,1,8,1:0:0:0:
256,192,69566,1,0,1:0:0:0:
256,192,69641,1,0,1:0:0:0:
256,192,69791,1,8,1:0:0:0:
256,192,69866,1,8,1:0:0:0:
256,192,69941,1,0,1:0:0:0:
256,192,70016,1,0,1:0:0:0:
256,192,70091,1,8,1:0:0:0:
256,192,70166,1,0,1:0:0:0:
256,192,70241,1,0,1:0:0:0:
256,192,70391,1,8,1:0:0:0:
256,192,70541,1,0,1:0:0:0:
256,192,70616,1,8,1:0:0:0:
256,192,70691,1,0,1:0:0:0:
256,192,70841,1,0,1:0:0:0:
256,192,70991,1,8,1:0:0:0:
256,192,71141,1,0,1:0:0:0:
256,192,71216,1,0,1:0:0:0:
251,194,71291,1,12,1:0:0:0:
256,192,71441,1,0,1:0:0:0:
256,192,71591,1,8,1:0:0:0:
256,192,71666,1,8,1:0:0:0:
256,192,71741,1,0,1:0:0:0:
256,192,71891,1,8,1:0:0:0:
256,192,72041,1,0,1:0:0:0:
256,192,72191,1,8,1:0:0:0:
256,192,72266,1,8,1:0:0:0:
256,192,72341,1,0,1:0:0:0:
256,192,72416,1,0,1:0:0:0:
256,192,72491,1,8,1:0:0:0:
256,192,72566,1,0,1:0:0:0:
256,192,72641,1,8,1:0:0:0:
256,192,72716,1,8,1:0:0:0:
256,192,72791,1,0,1:0:0:0:
256,192,72941,1,8,1:0:0:0:
256,192,73091,1,0,1:0:0:0:
256,192,73191,1,0,1:0:0:0:
256,192,73291,1,8,1:0:0:0:
256,192,73391,1,0,1:0:0:0:
256,192,73491,1,0,1:0:0:0:
256,192,73591,1,0,1:0:0:0:
256,192,73691,1,12,1:0:0:0:
256,192,73841,1,0,1:0:0:0:
256,192,73991,1,8,1:0:0:0:
256,192,74141,1,0,1:0:0:0:
256,192,74291,1,8,1:0:0:0:
256,192,74441,1,8,1:0:0:0:
256,192,74591,1,0,1:0:0:0:
256,192,74741,1,8,1:0:0:0:
256,192,74891,1,0,1:0:0:0:
256,192,75041,1,0,1:0:0:0:
256,192,75191,1,8,1:0:0:0:
256,192,75341,1,0,1:0:0:0:
256,192,75491,1,8,1:0:0:0:
256,192,75641,1,8,1:0:0:0:
256,192,75791,1,0,1:0:0:0:
256,192,75941,1,8,1:0:0:0:
256,192,76091,1,8,1:0:0:0:
256,192,76241,1,0,1:0:0:0:
256,192,76391,1,0,1:0:0:0:
256,192,76541,1,8,1:0:0:0:
256,192,76691,1,8,1:0:0:0:
256,192,76841,1,0,1:0:0:0:
256,192,76991,1,0,1:0:0:0:
256,192,77141,1,8,1:0:0:0:
256,192,77291,1,0,1:0:0:0:
256,192,77441,1,8,1:0:0:0:
256,192,77591,1,8,1:0:0:0:
256,192,77741,1,0,1:0:0:0:
256,192,77891,1,8,1:0:0:0:
256,192,78041,1,0,1:0:0:0:
256,192,78191,1,8,1:0:0:0:
256,192,78341,1,8,1:0:0:0:
256,192,78491,1,0,1:0:0:0:
256,192,78641,1,0,1:0:0:0:
256,192,78791,1,8,1:0:0:0:
256,192,78941,1,0,1:0:0:0:
256,192,79091,1,8,1:0:0:0:
256,192,79241,1,0,1:0:0:0:
256,192,79391,1,8,1:0:0:0:
256,192,79541,1,0,1:0:0:0:
256,192,79691,1,0,1:0:0:0:
256,192,79841,1,8,1:0:0:0:
256,192,79991,1,0,1:0:0:0:
256,192,80141,1,8,1:0:0:0:
256,192,80291,1,8,1:0:0:0:
256,192,80441,1,0,1:0:0:0:
256,192,80591,1,8,1:0:0:0:
256,192,80741,1,8,1:0:0:0:
256,192,80891,1,0,1:0:0:0:
256,192,81041,1,0,1:0:0:0:
256,192,81191,1,8,1:0:0:0:
256,192,81341,1,0,1:0:0:0:
256,192,81491,1,12,1:0:0:0:
256,192,81641,1,0,1:0:0:0:
256,192,81791,1,12,1:0:0:0:
256,192,81941,1,0,1:0:0:0:
256,192,82091,1,8,1:0:0:0:
256,192,82166,1,0,1:0:0:0:
256,192,82241,1,8,1:0:0:0:
256,192,82316,1,8,1:0:0:0:
256,192,82391,1,0,1:0:0:0:
256,192,82466,1,0,1:0:0:0:
256,192,82541,1,8,1:0:0:0:
256,192,82616,1,0,1:0:0:0:
256,192,82691,1,0,1:0:0:0:
256,192,82766,1,0,1:0:0:0:
256,192,82841,1,8,1:0:0:0:
256,192,82916,1,0,1:0:0:0:
256,192,82991,1,8,1:0:0:0:
256,192,83141,1,8,1:0:0:0:
256,192,83291,1,4,1:0:0:0:
256,192,83591,1,8,1:0:0:0:
256,192,83741,1,8,1:0:0:0:
256,192,83891,1,0,1:0:0:0:
256,192,84041,1,8,1:0:0:0:
256,192,84191,1,0,1:0:0:0:
256,192,84341,1,8,1:0:0:0:
256,192,84641,1,0,1:0:0:0:
256,192,84791,1,8,1:0:0:0:
256,192,84941,1,0,1:0:0:0:
256,192,85091,1,8,1:0:0:0:
256,192,85241,1,8,1:0:0:0:
256,192,85391,1,0,1:0:0:0:
256,192,85541,1,8,1:0:0:0:
256,192,85616,1,8,1:0:0:0:
256,192,85691,1,0,1:0:0:0:
256,192,85991,1,8,1:0:0:0:
256,192,86141,1,8,1:0:0:0:
256,192,86291,1,0,1:0:0:0:
256,192,86441,1,8,1:0:0:0:
256,192,86591,1,0,1:0:0:0:
256,192,86741,1,8,1:0:0:0:
256,192,87041,1,0,1:0:0:0:
256,192,87191,1,8,1:0:0:0:
256,192,87341,1,0,1:0:0:0:
256,192,87491,1,8,1:0:0:0:
256,192,87641,1,8,1:0:0:0:
256,192,87791,1,0,1:0:0:0:
256,192,87941,1,8,1:0:0:0:
256,192,88091,1,4,1:0:0:0:
256,192,88391,1,8,1:0:0:0:
256,192,88541,1,8,1:0:0:0:
256,192,88691,1,0,1:0:0:0:
256,192,88841,1,8,1:0:0:0:
256,192,88991,1,0,1:0:0:0:
256,192,89141,1,8,1:0:0:0:
256,192,89441,1,0,1:0:0:0:
256,192,89591,1,8,1:0:0:0:
256,192,89741,1,0,1:0:0:0:
256,192,89891,1,8,1:0:0:0:
256,192,90041,1,0,1:0:0:0:
256,192,90191,1,8,1:0:0:0:
256,192,90341,1,8,1:0:0:0:
256,192,90491,1,0,1:0:0:0:
256,192,90791,1,8,1:0:0:0:
256,192,90941,1,0,1:0:0:0:
256,192,91091,1,8,1:0:0:0:
256,192,91241,1,8,1:0:0:0:
256,192,91391,1,0,1:0:0:0:
256,192,91541,1,12,1:0:0:0:
256,192,91841,1,12,1:0:0:0:
256,192,92141,1,12,1:0:0:0:
256,192,92441,1,12,1:0:0:0:
256,192,92591,1,8,1:0:0:0:
256,192,92666,1,8,1:0:0:0:
256,192,92741,1,8,1:0:0:0:
256,192,92816,1,8,1:0:0:0:
256,192,92891,1,4,1:0:0:0:
256,192,93191,1,0,1:0:0:0:
256,192,93341,1,8,1:0:0:0:
256,192,93491,1,8,1:0:0:0:
256,192,93791,1,8,1:0:0:0:
256,192,93941,1,8,1:0:0:0:
256,192,94091,1,4,1:0:0:0:
256,192,94391,1,0,1:0:0:0:
256,192,94691,1,8,1:0:0:0:
256,192,94841,1,0,1:0:0:0:
256,192,94991,1,8,1:0:0:0:
256,192,95291,1,4,1:0:0:0:
256,192,95591,1,0,1:0:0:0:
256,192,95741,1,8,1:0:0:0:
256,192,95891,1,8,1:0:0:0:
256,192,96041,1,0,1:0:0:0:
256,192,96191,1,8,1:0:0:0:
256,192,96341,1,4,1:0:0:0:
256,192,96641,1,8,1:0:0:0:
256,192,96716,1,8,1:0:0:0:
256,192,96791,1,0,1:0:0:0:
256,192,96941,1,0,1:0:0:0:
256,192,97091,1,8,1:0:0:0:
256,192,97166,1,8,1:0:0:0:
256,192,97241,1,0,1:0:0:0:
256,192,97316,1,0,1:0:0:0:
256,192,97391,1,8,1:0:0:0:
256,192,97466,1,0,1:0:0:0:
256,192,97541,1,8,1:0:0:0:
256,192,97691,1,4,1:0:0:0:
256,192,97991,1,8,1:0:0:0:
256,192,98141,1,0,1:0:0:0:
256,192,98216,1,0,1:0:0:0:
256,192,98291,1,8,1:0:0:0:
256,192,98441,1,0,1:0:0:0:
256,192,98591,1,8,1:0:0:0:
256,192,98666,1,0,1:0:0:0:
256,192,98741,1,0,1:0:0:0:
256,192,98891,1,8,1:0:0:0:
256,192,99041,1,0,1:0:0:0:
256,192,99116,1,8,1:0:0:0:
256,192,99191,1,0,1:0:0:0:
256,192,99341,1,0,1:0:0:0:
256,192,99491,1,8,1:0:0:0:
256,192,99691,1,0,1:0:0:0:
256,192,99791,1,8,1:0:0:0:
256,192,100091,1,12,1:0:0:0:
256,192,101591,1,8,1:0:0:0:
256,192,101691,1,8,1:0:0:0:
256,192,101791,1,8,1:0:0:0:
256,192,101891,1,0,1:0:0:0:
256,192,102491,1,12,1:0:0:0:
256,192,102641,1,0,1:0:0:0:
256,192,102791,1,8,1:0:0:0:
256,192,102941,1,8,1:0:0:0:
256,192,103091,1,0,1:0:0:0:
256,192,103241,1,8,1:0:0:0:
256,192,103541,1,0,1:0:0:0:
256,192,103841,1,8,1:0:0:0:
256,192,103991,1,0,1:0:0:0:
256,192,104141,1,0,1:0:0:0:
256,192,104291,1,8,1:0:0:0:
256,192,104441,1,0,1:0:0:0:
256,192,104741,1,8,1:0:0:0:
256,192,105041,1,0,1:0:0:0:
256,192,105191,1,8,1:0:0:0:
256,192,105341,1,8,1:0:0:0:
256,192,105491,1,0,1:0:0:0:
256,192,105641,1,8,1:0:0:0:
256,192,105941,1,0,1:0:0:0:
256,192,106241,1,8,1:0:0:0:
256,192,106391,1,0,1:0:0:0:
256,192,106541,1,0,1:0:0:0:
256,192,106691,1,8,1:0:0:0:
256,192,106841,1,8,1:0:0:0:
256,192,107291,1,12,1:0:0:0:
256,192,107441,1,0,1:0:0:0:
256,192,107591,1,8,1:0:0:0:
256,192,107741,1,8,1:0:0:0:
256,192,107891,1,0,1:0:0:0:
256,192,108041,1,8,1:0:0:0:
256,192,108341,1,0,1:0:0:0:
256,192,108641,1,8,1:0:0:0:
256,192,108791,1,0,1:0:0:0:
256,192,108941,1,8,1:0:0:0:
256,192,109091,1,8,1:0:0:0:
256,192,109241,1,0,1:0:0:0:
256,192,109541,1,0,1:0:0:0:
256,192,109841,1,0,1:0:0:0:
256,192,109991,1,8,1:0:0:0:
256,192,110141,1,0,1:0:0:0:
256,192,110291,1,8,1:0:0:0:
256,192,110441,1,0,1:0:0:0:
256,192,110741,1,0,1:0:0:0:
256,192,111041,1,0,1:0:0:0:
256,192,111191,1,8,1:0:0:0:
256,192,111341,1,0,1:0:0:0:
256,192,111491,1,8,1:0:0:0:
256,192,111641,1,8,1:0:0:0:
256,192,112091,1,4,1:0:0:0:
256,192,113166,1,0,1:0:0:0:
256,192,113241,1,0,1:0:0:0:
256,192,113316,1,8,1:0:0:0:
256,192,113516,1,0,1:0:0:0:
256,192,113716,1,0,1:0:0:0:
256,192,113916,1,8,1:0:0:0:
256,192,114116,1,8,1:0:0:0:
256,192,114316,1,0,1:0:0:0:
256,192,114491,1,12,1:0:0:0:
256,192,114641,1,0,1:0:0:0:
256,192,114791,1,8,1:0:0:0:
256,192,114941,1,0,1:0:0:0:
256,192,115091,1,8,1:0:0:0:
256,192,115241,1,8,1:0:0:0:
256,192,115391,1,0,1:0:0:0:
256,192,115541,1,8,1:0:0:0:
256,192,115691,1,0,1:0:0:0:
256,192,115841,1,0,1:0:0:0:
256,192,115991,1,8,1:0:0:0:
256,192,116141,1,0,1:0:0:0:
256,192,116291,1,8,1:0:0:0:
256,192,116441,1,0,1:0:0:0:
256,192,116591,1,0,1:0:0:0:
256,192,116741,1,0,1:0:0:0:
256,192,116891,1,8,1:0:0:0:
256,192,117041,1,0,1:0:0:0:
256,192,117191,1,8,1:0:0:0:
256,192,117341,1,0,1:0:0:0:
256,192,117491,1,8,1:0:0:0:
256,192,117641,1,8,1:0:0:0:
256,192,117791,1,0,1:0:0:0:
256,192,117941,1,8,1:0:0:0:
256,192,118091,1,0,1:0:0:0:
256,192,118241,1,0,1:0:0:0:
256,192,118391,1,8,1:0:0:0:
256,192,118541,1,0,1:0:0:0:
256,192,118691,1,8,1:0:0:0:
256,192,118841,1,8,1:0:0:0:
256,192,118991,1,0,1:0:0:0:
256,192,119141,1,0,1:0:0:0:
256,192,119291,1,8,1:0:0:0:
256,192,119441,1,0,1:0:0:0:
256,192,119591,1,0,1:0:0:0:
256,192,119741,1,0,1:0:0:0:
256,192,119891,1,8,1:0:0:0:
256,192,120041,1,0,1:0:0:0:
256,192,120191,1,8,1:0:0:0:
256,192,120341,1,0,1:0:0:0:
256,192,120491,1,8,1:0:0:0:
256,192,120641,1,8,1:0:0:0:
256,192,120791,1,0,1:0:0:0:
256,192,120941,1,0,1:0:0:0:
256,192,121091,1,8,1:0:0:0:
256,192,121241,1,0,1:0:0:0:
256,192,121391,1,0,1:0:0:0:
256,192,121541,1,8,1:0:0:0:
256,192,121691,1,8,1:0:0:0:
256,192,121841,1,0,1:0:0:0:
256,192,121991,1,8,1:0:0:0:
256,192,122141,1,0,1:0:0:0:
256,192,122291,1,8,1:0:0:0:
256,192,122441,1,0,1:0:0:0:
256,192,122591,1,8,1:0:0:0:
256,192,122741,1,0,1:0:0:0:
256,192,122891,1,8,1:0:0:0:
249,189,122966,1,8,1:0:0:0:
253,187,123041,1,0,1:0:0:0:
253,187,123116,1,0,1:0:0:0:
249,189,123191,1,8,1:0:0:0:
253,187,123266,1,0,1:0:0:0:
256,192,123341,1,0,1:0:0:0:
256,192,123416,1,0,1:0:0:0:
256,192,123491,1,8,1:0:0:0:
253,187,123566,1,0,1:0:0:0:
249,189,123641,1,8,1:0:0:0:
249,189,123716,1,8,1:0:0:0:
253,187,123791,1,0,1:0:0:0:
253,187,123866,1,0,1:0:0:0:
249,189,123941,1,8,1:0:0:0:
253,187,124016,1,0,1:0:0:0:
251,194,124091,1,12,1:0:0:0:
256,192,124241,1,0,1:0:0:0:
256,192,124391,1,8,1:0:0:0:
256,192,124466,1,0,1:0:0:0:
256,192,124541,1,8,1:0:0:0:
256,192,124616,1,8,1:0:0:0:
256,192,124691,1,0,1:0:0:0:
256,192,124841,1,0,1:0:0:0:
256,192,124991,1,0,1:0:0:0:
256,192,125066,1,8,1:0:0:0:
256,192,125141,1,0,1:0:0:0:
256,192,125216,1,0,1:0:0:0:
256,192,125291,1,8,1:0:0:0:
256,192,125441,1,0,1:0:0:0:
256,192,125591,1,8,1:0:0:0:
256,192,125666,1,8,1:0:0:0:
256,192,125741,1,0,1:0:0:0:
256,192,125816,1,0,1:0:0:0:
256,192,125891,1,8,1:0:0:0:
256,192,126041,1,0,1:0:0:0:
256,192,126191,1,0,1:0:0:0:
256,192,126266,1,0,1:0:0:0:
256,192,126341,1,8,1:0:0:0:
256,192,126416,1,8,1:0:0:0:
256,192,126491,1,0,1:0:0:0:
256,192,126641,1,0,1:0:0:0:
256,192,126791,1,8,1:0:0:0:
256,192,126866,1,0,1:0:0:0:
256,192,126941,1,0,1:0:0:0:
256,192,127016,1,8,1:0:0:0:
256,192,127091,1,0,1:0:0:0:
256,192,127241,1,0,1:0:0:0:
256,192,127391,1,8,1:0:0:0:
256,192,127466,1,8,1:0:0:0:
256,192,127541,1,0,1:0:0:0:
256,192,127691,1,8,1:0:0:0:
256,192,127766,1,0,1:0:0:0:
256,192,127841,1,0,1:0:0:0:
256,192,127916,1,0,1:0:0:0:
256,192,127991,1,8,1:0:0:0:
256,192,128141,1,0,1:0:0:0:
256,192,128216,1,0,1:0:0:0:
256,192,128291,1,8,1:0:0:0:
256,192,128441,1,8,1:0:0:0:
256,192,128591,1,4,1:0:0:0:
256,192,128741,1,0,0:0:0:0:
256,192,128891,1,8,1:0:0:0:
256,192,129041,1,0,1:0:0:0:
256,192,129116,1,0,1:0:0:0:
256,192,129191,1,8,1:0:0:0:
256,192,129341,1,0,1:0:0:0:
256,192,129491,1,8,1:0:0:0:
256,192,129566,1,0,1:0:0:0:
256,192,129641,1,0,1:0:0:0:
256,192,129791,1,8,1:0:0:0:
256,192,129866,1,8,1:0:0:0:
256,192,129941,1,0,1:0:0:0:
256,192,130016,1,0,1:0:0:0:
256,192,130091,1,8,1:0:0:0:
256,192,130166,1,0,1:0:0:0:
256,192,130241,1,0,1:0:0:0:
256,192,130391,1,8,1:0:0:0:
256,192,130541,1,0,1:0:0:0:
256,192,130616,1,8,1:0:0:0:
256,192,130691,1,0,1:0:0:0:
256,192,130841,1,0,1:0:0:0:
256,192,130991,1,8,1:0:0:0:
256,192,131141,1,0,1:0:0:0:
256,192,131216,1,0,1:0:0:0:
256,192,131291,1,8,1:0:0:0:
256,192,131441,1,0,1:0:0:0:
256,192,131591,1,8,1:0:0:0:
256,192,131666,1,8,1:0:0:0:
256,192,131741,1,0,1:0:0:0:
256,192,131891,1,8,1:0:0:0:
256,192,132041,1,0,1:0:0:0:
256,192,132191,1,8,1:0:0:0:
256,192,132266,1,8,1:0:0:0:
256,192,132341,1,0,1:0:0:0:
256,192,132416,1,0,1:0:0:0:
256,192,132491,1,8,1:0:0:0:
256,192,132566,1,0,1:0:0:0:
256,192,132641,1,8,1:0:0:0:
256,192,132716,1,8,1:0:0:0:
256,192,132791,1,0,1:0:0:0:
256,192,132941,1,0,1:0:0:0:
256,192,133091,1,8,1:0:0:0:
256,192,133291,1,8,1:0:0:0:
256,192,133391,1,0,1:0:0:0:
256,192,133691,1,4,1:0:0:0:
256,192,135341,1,0,1:0:0:0:
256,192,135391,1,0,1:0:0:0:
256,192,135441,1,0,1:0:0:0:
256,192,135491,1,8,1:0:0:0:
256,192,136091,1,12,1:0:0:0:
256,192,136288,1,8,1:0:0:0:
256,192,136387,1,0,1:0:0:0:
256,192,136485,1,8,1:0:0:0:
256,192,136584,1,0,1:0:0:0:
256,192,136683,1,8,1:0:0:0:
256,192,136781,1,8,1:0:0:0:
256,192,136880,1,0,1:0:0:0:
256,192,136979,1,8,1:0:0:0:
256,192,137077,1,8,1:0:0:0:
256,192,137176,1,8,1:0:0:0:
256,192,137275,1,0,1:0:0:0:
256,192,137373,1,0,1:0:0:0:
256,192,137472,1,8,1:0:0:0:
256,192,137571,1,0,1:0:0:0:
256,192,137669,1,8,1:0:0:0:
256,192,137767,1,0,1:0:0:0:
256,192,137965,1,8,1:0:0:0:
256,192,138063,1,0,1:0:0:0:
256,192,138261,1,8,1:0:0:0:
256,192,138458,1,8,1:0:0:0:
256,192,138557,1,0,1:0:0:0:
256,192,138754,1,8,1:0:0:0:
256,192,138853,1,0,1:0:0:0:
256,192,139050,1,8,1:0:0:0:
256,192,139247,1,0,1:0:0:0:
256,192,139346,1,0,1:0:0:0:
256,192,139445,1,8,1:0:0:0:
256,192,139544,1,0,1:0:0:0:
256,192,139642,1,8,1:0:0:0:
256,192,139741,1,8,1:0:0:0:
256,192,139840,1,0,1:0:0:0:
256,192,139938,1,8,1:0:0:0:
256,192,140037,1,0,1:0:0:0:
256,192,140234,1,8,1:0:0:0:
256,192,140333,1,8,1:0:0:0:
256,192,140432,1,0,1:0:0:0:
256,192,140629,1,8,1:0:0:0:
256,192,140826,1,0,1:0:0:0:
256,192,140925,1,8,1:0:0:0:
256,192,141024,1,0,1:0:0:0:
256,192,141122,1,0,1:0:0:0:
256,192,141221,1,8,1:0:0:0:
256,192,141419,1,0,1:0:0:0:
256,192,141616,1,8,1:0:0:0:
256,192,141715,1,0,1:0:0:0:
256,192,141912,1,0,1:0:0:0:
256,192,142011,1,8,1:0:0:0:
256,192,142208,1,0,1:0:0:0:
256,192,142307,1,0,1:0:0:0:
256,192,142405,1,8,1:0:0:0:
256,192,142504,1,0,1:0:0:0:
256,192,142603,1,8,1:0:0:0:
256,192,142701,1,8,1:0:0:0:
256,192,142800,1,0,1:0:0:0:
256,192,142997,1,8,1:0:0:0:
256,192,143195,1,0,1:0:0:0:
256,192,143294,1,0,1:0:0:0:
256,192,143392,1,8,1:0:0:0:
256,192,143491,1,8,1:0:0:0:
256,192,143590,1,0,1:0:0:0:
256,192,143688,1,0,1:0:0:0:
256,192,143787,1,8,1:0:0:0:
256,192,143886,1,8,1:0:0:0:
256,192,143984,1,8,1:0:0:0:
256,192,144083,1,0,1:0:0:0:
256,192,144280,1,0,1:0:0:0:
256,192,144379,1,8,1:0:0:0:
256,192,144576,1,8,1:0:0:0:
256,192,144675,1,8,1:0:0:0:
256,192,144774,1,0,1:0:0:0:
256,192,144971,1,8,1:0:0:0:
256,192,145070,1,0,1:0:0:0:
256,192,145169,1,8,1:0:0:0:
256,192,145267,1,8,1:0:0:0:
256,192,145366,1,0,1:0:0:0:
256,192,145465,1,8,1:0:0:0:
256,192,145563,1,8,1:0:0:0:
256,192,145662,1,0,1:0:0:0:
256,192,145859,1,0,1:0:0:0:
256,192,145958,1,8,1:0:0:0:
256,192,146155,1,0,1:0:0:0:
256,192,146254,1,8,1:0:0:0:
256,192,146353,1,0,1:0:0:0:
256,192,146451,1,0,1:0:0:0:
256,192,146550,1,8,1:0:0:0:
256,192,146649,1,0,1:0:0:0:
256,192,146747,1,8,1:0:0:0:
256,192,146846,1,8,1:0:0:0:
256,192,146945,1,0,1:0:0:0:
256,192,147142,1,8,1:0:0:0:
256,192,147241,1,0,1:0:0:0:
256,192,147340,1,8,1:0:0:0:
256,192,147438,1,0,1:0:0:0:
256,192,147537,1,8,1:0:0:0:
256,192,147636,1,8,1:0:0:0:
256,192,147734,1,0,1:0:0:0:
256,192,147833,1,8,1:0:0:0:
256,192,147932,1,0,1:0:0:0:
256,192,148129,1,0,1:0:0:0:
256,192,148228,1,8,1:0:0:0:
256,192,148326,1,0,1:0:0:0:
256,192,148524,1,8,1:0:0:0:
256,192,148721,1,8,1:0:0:0:
256,192,148820,1,0,1:0:0:0:
256,192,148919,1,8,1:0:0:0:
256,192,149017,1,0,1:0:0:0:
256,192,149116,1,8,1:0:0:0:
256,192,149215,1,8,1:0:0:0:
256,192,149313,1,0,1:0:0:0:
256,192,149511,1,0,1:0:0:0:
256,192,149609,1,8,1:0:0:0:
256,192,149708,1,0,1:0:0:0:
256,192,149807,1,8,1:0:0:0:
256,192,149905,1,8,1:0:0:0:
256,192,150004,1,0,1:0:0:0:
256,192,150103,1,8,1:0:0:0:
256,192,150201,1,8,1:0:0:0:
256,192,150300,1,0,1:0:0:0:
256,192,150497,1,0,1:0:0:0:
256,192,150596,1,8,1:0:0:0:
256,192,150695,1,8,1:0:0:0:
256,192,150892,1,0,1:0:0:0:
256,192,151090,1,8,1:0:0:0:
256,192,151188,1,0,1:0:0:0:
256,192,151386,1,0,1:0:0:0:
256,192,151484,1,8,1:0:0:0:
256,192,151682,1,0,1:0:0:0:
256,192,151879,1,8,1:0:0:0:
256,192,151978,1,0,1:0:0:0:
256,192,152076,1,8,1:0:0:0:
256,192,152175,1,0,1:0:0:0:
256,192,152274,1,8,1:0:0:0:
256,192,152372,1,8,1:0:0:0:
256,192,152471,1,8,1:0:0:0:
256,192,152570,1,0,1:0:0:0:
256,192,152669,1,0,1:0:0:0:
256,192,152866,1,0,1:0:0:0:
256,192,152965,1,8,1:0:0:0:
256,192,153063,1,0,1:0:0:0:
256,192,153261,1,8,1:0:0:0:
256,192,153458,1,0,1:0:0:0:
256,192,153557,1,8,1:0:0:0:
256,192,153655,1,0,1:0:0:0:
256,192,153754,1,0,1:0:0:0:
256,192,153853,1,8,1:0:0:0:
224,192,153951,1,8,1:0:0:0:
256,192,154050,1,0,1:0:0:0:
224,192,154149,1,0,1:0:0:0:
256,192,154247,1,8,1:0:0:0:
256,192,154346,1,0,1:0:0:0:
256,192,154544,1,0,1:0:0:0:
256,192,154642,1,8,1:0:0:0:
256,192,154840,1,0,1:0:0:0:
256,192,154938,1,0,1:0:0:0:
256,192,155037,1,8,1:0:0:0:
256,192,155136,1,8,1:0:0:0:
256,192,155234,1,0,1:0:0:0:
256,192,155333,1,8,1:0:0:0:
256,192,155432,1,0,1:0:0:0:
256,192,155629,1,8,1:0:0:0:
256,192,155826,1,0,1:0:0:0:
256,192,155925,1,8,1:0:0:0:
256,192,156024,1,0,1:0:0:0:
256,192,156122,1,0,1:0:0:0:
256,192,156221,1,8,1:0:0:0:
256,192,156320,1,8,1:0:0:0:
256,192,156419,1,0,1:0:0:0:
256,192,156517,1,8,1:0:0:0:
256,192,156616,1,0,1:0:0:0:
256,192,156715,1,8,1:0:0:0:
256,192,156912,1,0,1:0:0:0:
256,192,157011,1,8,1:0:0:0:
256,192,157208,1,8,1:0:0:0:
256,192,157307,1,0,1:0:0:0:
256,192,157405,1,8,1:0:0:0:
256,192,157603,1,0,1:0:0:0:
256,192,157701,1,0,1:0:0:0:
256,192,157800,1,8,1:0:0:0:
256,192,157899,1,8,1:0:0:0:
256,192,157997,1,0,1:0:0:0:
256,192,158096,1,8,1:0:0:0:
256,192,158195,1,0,1:0:0:0:
256,192,158294,1,8,1:0:0:0:
256,192,158491,1,0,1:0:0:0:
256,192,158590,1,8,1:0:0:0:
256,192,158787,1,8,1:0:0:0:
256,192,158886,1,0,1:0:0:0:
256,192,158984,1,0,1:0:0:0:
256,192,159083,1,0,1:0:0:0:
256,192,159182,1,8,1:0:0:0:
256,192,159280,1,0,1:0:0:0:
256,192,159379,1,8,1:0:0:0:
256,192,159478,1,8,1:0:0:0:
256,192,159576,1,0,1:0:0:0:
256,192,159774,1,8,1:0:0:0:
256,192,159872,1,0,1:0:0:0:
256,192,159971,1,8,1:0:0:0:
256,192,160070,1,0,1:0:0:0:
256,192,160169,1,8,1:0:0:0:
256,192,160267,1,8,1:0:0:0:
256,192,160366,1,0,1:0:0:0:
256,192,160465,1,8,1:0:0:0:
256,192,160563,1,8,1:0:0:0:
256,192,160761,1,0,1:0:0:0:
256,192,160859,1,8,1:0:0:0:
256,192,160958,1,0,1:0:0:0:
256,192,161155,1,8,1:0:0:0:
256,192,161353,1,0,1:0:0:0:
256,192,161451,1,0,1:0:0:0:
256,192,161550,1,8,1:0:0:0:
256,192,161649,1,8,1:0:0:0:
256,192,161747,1,0,1:0:0:0:
256,192,161846,1,0,1:0:0:0:
256,192,161945,1,8,1:0:0:0:
256,192,162142,1,0,1:0:0:0:
256,192,162241,1,8,1:0:0:0:
256,192,162340,1,8,1:0:0:0:
256,192,162438,1,0,1:0:0:0:
256,192,162537,1,8,1:0:0:0:
256,192,162636,1,0,1:0:0:0:
256,192,162734,1,8,1:0:0:0:
256,192,162833,1,8,1:0:0:0:
256,192,162932,1,4,1:0:0:0:
256,192,163228,1,12,1:0:0:0:
256,192,163524,1,4,1:0:0:0:
256,192,163820,1,12,1:0:0:0:
256,192,164116,1,8,1:0:0:0:
256,192,164215,1,0,1:0:0:0:
256,192,164313,1,8,1:0:0:0:
256,192,164412,1,8,1:0:0:0:
256,192,164511,1,4,1:0:0:0:
256,192,165300,1,8,1:0:0:0:
256,192,165399,1,8,1:0:0:0:
256,192,165497,1,0,1:0:0:0:
256,192,165596,1,8,1:0:0:0:
256,192,165695,1,0,1:0:0:0:
256,192,165794,1,8,1:0:0:0:
256,192,165892,1,8,1:0:0:0:
256,192,165991,1,8,1:0:0:0:
256,192,166090,1,4,1:0:0:0:
256,192,166287,1,8,1:0:0:0:
256,192,166386,1,8,1:0:0:0:
256,192,166484,1,0,1:0:0:0:
256,192,166583,1,0,1:0:0:0:
256,192,166682,1,8,1:0:0:0:
256,192,166780,1,0,1:0:0:0:
256,192,166879,1,8,1:0:0:0:
256,192,166978,1,8,1:0:0:0:
256,192,167076,1,0,1:0:0:0:
256,192,167175,1,0,1:0:0:0:
256,192,167274,1,8,1:0:0:0:
256,192,167372,1,0,1:0:0:0:
256,192,167471,1,8,1:0:0:0:
256,192,167570,1,8,1:0:0:0:
256,192,167668,1,0,1:0:0:0:
256,192,167767,1,8,1:0:0:0:
256,192,167866,1,8,1:0:0:0:
256,192,167965,1,8,1:0:0:0:
256,192,168063,1,0,1:0:0:0:
256,192,168162,1,0,1:0:0:0:
256,192,168261,1,8,1:0:0:0:
256,192,168359,1,0,1:0:0:0:
256,192,168458,1,8,1:0:0:0:
256,192,168557,1,0,1:0:0:0:
256,192,168655,1,8,1:0:0:0:
256,192,168754,1,8,1:0:0:0:
256,192,168853,1,0,1:0:0:0:
256,192,168951,1,8,1:0:0:0:
256,192,169050,1,0,1:0:0:0:
256,192,169149,1,0,1:0:0:0:
256,192,169247,1,8,1:0:0:0:
256,192,169346,1,8,1:0:0:0:
256,192,169445,1,8,1:0:0:0:
256,192,169543,1,0,1:0:0:0:
256,192,169642,1,8,1:0:0:0:
256,192,169741,1,0,1:0:0:0:
256,192,169840,1,8,1:0:0:0:
256,192,169938,1,8,1:0:0:0:
256,192,170037,1,0,1:0:0:0:
256,192,170136,1,0,1:0:0:0:
256,192,170234,1,8,1:0:0:0:
256,192,170333,1,0,1:0:0:0:
256,192,170432,1,8,1:0:0:0:
256,192,170530,1,8,1:0:0:0:
256,192,170629,1,0,1:0:0:0:
256,192,170728,1,0,1:0:0:0:
256,192,170826,1,8,1:0:0:0:
256,192,170925,1,0,1:0:0:0:
256,192,171024,1,8,1:0:0:0:
256,192,171122,1,8,1:0:0:0:
256,192,171221,1,0,1:0:0:0:
256,192,171320,1,8,1:0:0:0:
256,192,171418,1,0,1:0:0:0:
256,192,171517,1,0,1:0:0:0:
256,192,171616,1,8,1:0:0:0:
256,192,171715,1,8,1:0:0:0:
256,192,171813,1,8,1:0:0:0:
256,192,171912,1,0,1:0:0:0:
256,192,172011,1,8,1:0:0:0:
256,192,172109,1,0,1:0:0:0:
256,192,172208,1,8,1:0:0:0:
256,192,172307,1,8,1:0:0:0:
256,192,172405,1,4,1:0:0:0:
256,192,172603,1,8,1:0:0:0:
256,192,172701,1,0,1:0:0:0:
256,192,172800,1,8,1:0:0:0:
256,192,172899,1,8,1:0:0:0:
256,192,172997,1,0,1:0:0:0:
256,192,173096,1,0,1:0:0:0:
256,192,173195,1,8,1:0:0:0:
256,192,173293,1,8,1:0:0:0:
256,192,173392,1,8,1:0:0:0:
256,192,173491,1,0,1:0:0:0:
256,192,173590,1,8,1:0:0:0:
256,192,173688,1,0,1:0:0:0:
256,192,173787,1,8,1:0:0:0:
256,192,173886,1,8,1:0:0:0:
256,192,173984,1,0,1:0:0:0:
256,192,174083,1,8,1:0:0:0:
256,192,174182,1,0,1:0:0:0:
256,192,174280,1,0,1:0:0:0:
256,192,174379,1,8,1:0:0:0:
256,192,174478,1,0,1:0:0:0:
256,192,174576,1,8,1:0:0:0:
256,192,174675,1,8,1:0:0:0:
256,192,174774,1,0,1:0:0:0:
256,192,174872,1,0,1:0:0:0:
256,192,174971,1,8,1:0:0:0:
256,192,175070,1,0,1:0:0:0:
256,192,175168,1,8,1:0:0:0:
256,192,175267,1,0,1:0:0:0:
256,192,175366,1,0,1:0:0:0:
256,192,175465,1,0,1:0:0:0:
256,192,175563,1,8,1:0:0:0:
256,192,175662,1,0,1:0:0:0:
256,192,175761,1,8,1:0:0:0:
256,192,175859,1,8,1:0:0:0:
256,192,175958,1,0,1:0:0:0:
256,192,176057,1,8,1:0:0:0:
256,192,176155,1,8,1:0:0:0:
256,192,176254,1,8,1:0:0:0:
256,192,176353,1,0,1:0:0:0:
256,192,176451,1,8,1:0:0:0:
256,192,176550,1,0,1:0:0:0:
256,192,176649,1,0,1:0:0:0:
256,192,176747,1,8,1:0:0:0:
256,192,176846,1,0,1:0:0:0:
256,192,176945,1,8,1:0:0:0:
256,192,177043,1,8,1:0:0:0:
256,192,177142,1,8,1:0:0:0:
256,192,177241,1,0,1:0:0:0:
256,192,177340,1,8,1:0:0:0:
256,192,177438,1,0,1:0:0:0:
256,192,177537,1,8,1:0:0:0:
256,192,177636,1,0,1:0:0:0:
256,192,177734,1,8,1:0:0:0:
256,192,177833,1,8,1:0:0:0:
256,192,177932,1,0,1:0:0:0:
256,192,178030,1,0,1:0:0:0:
256,192,178129,1,8,1:0:0:0:
249,189,178228,1,8,1:0:0:0:
253,187,178326,1,0,1:0:0:0:
253,187,178392,1,0,1:0:0:0:
253,187,178458,1,0,1:0:0:0:
249,189,178524,1,8,1:0:0:0:
249,189,178590,1,8,1:0:0:0:
249,189,178655,1,8,1:0:0:0:
253,192,178721,1,4,1:0:0:0:
256,192,179116,1,0,1:0:0:0:
256,192,179313,1,12,1:0:0:0:
256,192,179708,1,8,1:0:0:0:
256,192,179905,1,4,1:0:0:0:
256,192,180300,1,0,1:0:0:0:
256,192,180497,1,12,1:0:0:0:
256,192,181089,1,4,1:0:0:0:
256,192,181689,1,8,1:0:0:0:
256,192,182289,1,0,1:0:0:0:
256,192,182589,1,0,0:0:0:0:
256,192,182889,1,8,1:0:0:0:
256,192,183489,1,0,1:0:0:0:
256,192,184089,1,8,1:0:0:0:
256,192,184689,1,0,1:0:0:0:
256,192,185889,1,12,1:0:0:0:
256,192,186189,1,0,1:0:0:0:
256,192,186339,1,8,1:0:0:0:
256,192,186489,1,8,1:0:0:0:
256,192,186789,1,8,1:0:0:0:
256,192,186939,1,0,1:0:0:0:
256,192,187089,1,8,1:0:0:0:
256,192,187239,1,8,1:0:0:0:
256,192,187389,1,0,1:0:0:0:
256,192,187689,1,8,1:0:0:0:
256,192,187989,1,0,1:0:0:0:
256,192,188139,1,8,1:0:0:0:
256,192,188289,1,0,1:0:0:0:
256,192,188589,1,8,1:0:0:0:
256,192,188739,1,0,1:0:0:0:
256,192,188889,1,8,1:0:0:0:
256,192,189189,1,0,1:0:0:0:
256,192,189339,1,8,1:0:0:0:
256,192,189489,1,0,1:0:0:0:
256,192,189639,1,0,1:0:0:0:
256,192,189789,1,8,1:0:0:0:
256,192,190089,1,0,1:0:0:0:
256,192,190389,1,8,1:0:0:0:
256,192,190539,1,8,1:0:0:0:
256,192,190689,1,0,1:0:0:0:
256,192,190989,1,0,1:0:0:0:
256,192,191139,1,8,1:0:0:0:
256,192,191289,1,8,1:0:0:0:
256,192,191589,1,0,1:0:0:0:
256,192,191889,1,8,1:0:0:0:
256,192,192039,1,0,1:0:0:0:
256,192,192189,1,8,1:0:0:0:
256,192,192339,1,8,1:0:0:0:
256,192,192489,1,0,1:0:0:0:
256,192,192789,1,8,1:0:0:0:
256,192,192939,1,8,1:0:0:0:
256,192,193089,1,0,1:0:0:0:
256,192,193389,1,0,1:0:0:0:
256,192,193539,1,8,1:0:0:0:
256,192,193689,1,0,1:0:0:0:
256,192,193839,1,8,1:0:0:0:
256,192,193989,1,0,1:0:0:0:
256,192,194589,1,8,1:0:0:0:
256,192,194689,1,8,1:0:0:0:
256,192,194789,1,8,1:0:0:0:
256,192,194889,1,0,1:0:0:0:
256,192,195039,1,8,1:0:0:0:
256,192,195189,1,0,1:0:0:0:
256,192,195339,1,0,1:0:0:0:
256,192,195489,1,12,1:0:0:0:
256,192,195789,1,0,1:0:0:0:
256,192,195939,1,0,1:0:0:0:
256,192,196089,1,8,1:0:0:0:
256,192,196389,1,8,1:0:0:0:
256,192,196539,1,0,1:0:0:0:
256,192,196839,1,8,1:0:0:0:
256,192,196989,1,0,1:0:0:0:
256,192,197289,1,8,1:0:0:0:
256,192,197589,1,0,1:0:0:0:
256,192,197739,1,8,1:0:0:0:
256,192,197889,1,0,1:0:0:0:
256,192,198189,1,0,1:0:0:0:
256,192,198489,1,8,1:0:0:0:
256,192,198639,1,0,1:0:0:0:
256,192,198939,1,8,1:0:0:0:
256,192,199089,1,0,1:0:0:0:
256,192,199239,1,0,1:0:0:0:
256,192,199389,1,8,1:0:0:0:
256,192,199689,1,0,1:0:0:0:
256,192,199989,1,8,1:0:0:0:
256,192,200139,1,8,1:0:0:0:
256,192,200289,1,0,1:0:0:0:
256,192,200589,1,0,1:0:0:0:
256,192,200739,1,8,1:0:0:0:
256,192,200889,1,8,1:0:0:0:
256,192,201189,1,0,1:0:0:0:
256,192,201339,1,8,1:0:0:0:
256,192,201639,1,0,1:0:0:0:
256,192,201789,1,8,1:0:0:0:
256,192,201939,1,8,1:0:0:0:
256,192,202089,1,0,1:0:0:0:
256,192,202389,1,8,1:0:0:0:
256,192,202539,1,8,1:0:0:0:
256,192,202689,1,0,1:0:0:0:
256,192,203289,1,0,1:0:0:0:
256,192,203439,1,8,1:0:0:0:
256,192,203589,1,8,1:0:0:0:
256,192,203739,1,0,1:0:0:0:
256,192,204039,1,8,1:0:0:0:
256,192,204189,1,0,1:0:0:0:
256,192,204339,1,0,1:0:0:0:
256,192,204489,1,8,1:0:0:0:
256,192,204789,1,8,1:0:0:0:
256,192,205089,1,0,1:0:0:0:
256,192,205389,1,8,1:0:0:0:
256,192,205689,1,0,1:0:0:0:
256,192,205989,1,8,1:0:0:0:
256,192,206139,1,0,1:0:0:0:
256,192,206289,1,8,1:0:0:0:
256,192,206439,1,8,1:0:0:0:
256,192,206589,1,0,1:0:0:0:
256,192,206664,1,0,1:0:0:0:
256,192,206739,1,0,1:0:0:0:
256,192,206814,1,0,1:0:0:0:
256,192,207189,1,8,1:0:0:0:
256,192,207264,1,8,1:0:0:0:
256,192,207339,1,8,1:0:0:0:
256,192,207414,1,8,1:0:0:0:
256,192,207489,1,4,1:0:0:0:
256,192,207789,1,0,1:0:0:0:
256,192,208089,1,8,1:0:0:0:
256,192,208239,1,0,1:0:0:0:
256,192,208689,1,12,1:0:0:0:
256,192,208839,1,0,1:0:0:0:
256,192,208989,1,8,1:0:0:0:
256,192,209064,1,0,1:0:0:0:
256,192,209139,1,8,1:0:0:0:
256,192,209214,1,8,1:0:0:0:
256,192,209289,1,0,1:0:0:0:
256,192,209439,1,8,1:0:0:0:
256,192,209589,1,8,1:0:0:0:
256,192,209664,1,8,1:0:0:0:
256,192,209739,1,0,1:0:0:0:
256,192,209814,1,0,1:0:0:0:
256,192,209889,1,8,1:0:0:0:
256,192,210039,1,0,1:0:0:0:
256,192,210189,1,8,1:0:0:0:
256,192,210264,1,0,1:0:0:0:
256,192,210339,1,0,1:0:0:0:
256,192,210414,1,8,1:0:0:0:
256,192,210489,1,0,1:0:0:0:
256,192,210639,1,8,1:0:0:0:
256,192,210789,1,8,1:0:0:0:
256,192,210864,1,8,1:0:0:0:
256,192,210939,1,0,1:0:0:0:
256,192,211089,1,8,1:0:0:0:
256,192,211239,1,0,1:0:0:0:
256,192,211314,1,0,1:0:0:0:
256,192,211389,1,8,1:0:0:0:
256,192,211539,1,0,1:0:0:0:
256,192,211689,1,8,1:0:0:0:
256,192,211764,1,0,1:0:0:0:
256,192,211839,1,0,1:0:0:0:
256,192,211914,1,0,1:0:0:0:
256,192,211989,1,8,1:0:0:0:
256,192,212139,1,0,1:0:0:0:
256,192,212289,1,8,1:0:0:0:
256,192,212364,1,0,1:0:0:0:
256,192,212439,1,0,1:0:0:0:
256,192,212514,1,0,1:0:0:0:
256,192,212589,1,8,1:0:0:0:
256,192,212664,1,8,1:0:0:0:
256,192,212739,1,0,1:0:0:0:
256,192,212814,1,8,1:0:0:0:
256,192,212889,1,0,1:0:0:0:
256,192,213039,1,0,1:0:0:0:
256,192,213189,1,8,1:0:0:0:
256,192,213264,1,8,1:0:0:0:
256,192,213339,1,0,1:0:0:0:
256,192,213489,1,12,1:0:0:0:
256,192,213639,1,0,1:0:0:0:
256,192,213714,1,0,1:0:0:0:
256,192,213789,1,8,1:0:0:0:
256,192,213939,1,0,1:0:0:0:
256,192,214089,1,8,1:0:0:0:
256,192,214164,1,0,1:0:0:0:
256,192,214239,1,0,1:0:0:0:
256,192,214389,1,8,1:0:0:0:
256,192,214464,1,8,1:0:0:0:
256,192,214539,1,8,1:0:0:0:
256,192,214614,1,0,1:0:0:0:
256,192,214689,1,8,1:0:0:0:
256,192,214764,1,8,1:0:0:0:
256,192,214839,1,0,1:0:0:0:
256,192,214989,1,8,1:0:0:0:
256,192,215064,1,0,1:0:0:0:
256,192,215139,1,8,1:0:0:0:
256,192,215214,1,8,1:0:0:0:
256,192,215289,1,0,1:0:0:0:
256,192,215439,1,8,1:0:0:0:
256,192,215589,1,0,1:0:0:0:
256,192,215664,1,8,1:0:0:0:
256,192,215739,1,0,1:0:0:0:
256,192,215814,1,0,1:0:0:0:
256,192,215889,1,8,1:0:0:0:
256,192,215964,1,8,1:0:0:0:
256,192,216039,1,0,1:0:0:0:
256,192,216114,1,0,1:0:0:0:
256,192,216189,1,8,1:0:0:0:
256,192,216264,1,0,1:0:0:0:
256,192,216339,1,8,1:0:0:0:
256,192,216414,1,8,1:0:0:0:
256,192,216489,1,0,1:0:0:0:
256,192,216564,1,0,1:0:0:0:
256,192,216639,1,8,1:0:0:0:
256,192,216714,1,0,1:0:0:0:
256,192,216789,1,8,1:0:0:0:
256,192,216864,1,8,1:0:0:0:
256,192,216939,1,0,1:0:0:0:
256,192,217014,1,0,1:0:0:0:
256,192,217089,1,8,1:0:0:0:
256,192,217239,1,0,1:0:0:0:
256,192,217389,1,8,1:0:0:0:
256,192,217464,1,8,1:0:0:0:
256,192,217539,1,8,1:0:0:0:
256,192,217614,1,0,1:0:0:0:
256,192,217689,1,8,1:0:0:0:
256,192,217764,1,8,1:0:0:0:
256,192,217839,1,0,1:0:0:0:
256,192,217914,1,0,1:0:0:0:
256,192,217989,1,8,1:0:0:0:
256,192,218064,1,8,1:0:0:0:
256,192,218139,1,0,1:0:0:0:
256,192,218214,1,0,1:0:0:0:
256,192,218289,1,12,1:0:0:0:
256,192,218589,1,0,1:0:0:0:
256,192,218889,1,8,1:0:0:0:
256,192,219189,1,0,1:0:0:0:
256,192,219489,1,0,1:0:0:0:
256,192,219789,1,0,1:0:0:0:
256,192,220089,1,8,1:0:0:0:
256,192,220389,1,0,1:0:0:0:
256,192,220689,1,0,1:0:0:0:
256,192,220989,1,0,1:0:0:0:
256,192,221289,1,8,1:0:0:0:
256,192,221589,1,0,1:0:0:0:
256,192,221889,1,0,1:0:0:0:
256,192,222189,1,0,1:0:0:0:
256,192,222339,1,0,1:0:0:0:
256,192,222489,1,12,1:0:0:0:
256,192,222639,1,0,1:0:0:0:
256,192,222789,1,12,1:0:0:0:
253,192,223089,1,4,1:0:0:0:
256,192,223389,1,0,1:0:0:0:
256,192,223689,1,8,1:0:0:0:
256,192,223989,1,8,1:0:0:0:
256,192,224139,1,0,1:0:0:0:
256,192,224289,1,8,1:0:0:0:
256,192,224439,1,0,1:0:0:0:
256,192,224589,1,8,1:0:0:0:
256,192,224739,1,0,1:0:0:0:
256,192,224889,1,8,1:0:0:0:
256,192,224989,1,0,1:0:0:0:
256,192,225089,1,8,0:0:0:0:
256,192,225189,1,8,1:0:0:0:
256,192,225289,1,0,0:0:0:0:
256,192,225389,1,8,0:0:0:0:
256,192,225489,1,0,1:0:0:0:
256,192,226539,1,0,1:0:0:0:
256,192,226614,1,0,1:0:0:0:
256,192,226689,1,8,1:0:0:0:
256,192,226839,1,0,1:0:0:0:
256,192,226914,1,8,1:0:0:0:
256,192,226989,1,0,1:0:0:0:
256,192,227064,1,0,1:0:0:0:
256,192,227139,1,8,1:0:0:0:
256,192,227214,1,8,1:0:0:0:
256,192,227289,1,0,1:0:0:0:
256,192,227364,1,0,1:0:0:0:
256,192,227439,1,8,1:0:0:0:
256,192,227514,1,0,1:0:0:0:
256,192,227589,1,8,1:0:0:0:
256,192,227889,1,12,1:0:0:0:
256,192,228039,1,0,1:0:0:0:
256,192,228189,1,0,1:0:0:0:
256,192,228339,1,0,1:0:0:0:
256,192,228489,1,8,1:0:0:0:
256,192,228639,1,8,1:0:0:0:
256,192,228789,1,0,1:0:0:0:
256,192,228939,1,8,1:0:0:0:
256,192,229089,1,0,1:0:0:0:
256,192,229239,1,0,1:0:0:0:
256,192,229389,1,8,1:0:0:0:
256,192,229539,1,0,1:0:0:0:
256,192,229689,1,8,1:0:0:0:
256,192,229839,1,8,1:0:0:0:
256,192,229989,1,0,1:0:0:0:
256,192,230139,1,8,1:0:0:0:
256,192,230289,1,8,1:0:0:0:
256,192,230439,1,0,1:0:0:0:
256,192,230589,1,0,1:0:0:0:
256,192,230739,1,8,1:0:0:0:
256,192,230889,1,8,1:0:0:0:
256,192,231039,1,0,1:0:0:0:
256,192,231189,1,0,1:0:0:0:
256,192,231339,1,8,1:0:0:0:
256,192,231489,1,0,1:0:0:0:
256,192,231639,1,0,1:0:0:0:
256,192,231789,1,8,1:0:0:0:
256,192,231939,1,8,1:0:0:0:
256,192,232089,1,0,1:0:0:0:
256,192,232239,1,0,1:0:0:0:
256,192,232389,1,8,1:0:0:0:
256,192,232539,1,0,1:0:0:0:
256,192,232689,1,8,1:0:0:0:
256,192,232839,1,0,1:0:0:0:
256,192,232989,1,8,1:0:0:0:
256,192,233139,1,8,1:0:0:0:
256,192,233289,1,0,1:0:0:0:
256,192,233439,1,8,1:0:0:0:
256,192,233589,1,0,1:0:0:0:
256,192,233739,1,0,1:0:0:0:
256,192,233889,1,8,1:0:0:0:
256,192,234039,1,0,1:0:0:0:
256,192,234189,1,8,1:0:0:0:
256,192,234339,1,8,1:0:0:0:
256,192,234489,1,0,1:0:0:0:
256,192,234639,1,8,1:0:0:0:
256,192,234789,1,8,1:0:0:0:
256,192,234939,1,8,1:0:0:0:
256,192,235089,1,0,1:0:0:0:
256,192,235239,1,0,1:0:0:0:
256,192,235389,1,8,1:0:0:0:
256,192,235539,1,0,1:0:0:0:
256,192,235689,1,8,1:0:0:0:
256,192,235839,1,8,1:0:0:0:
256,192,235989,1,0,1:0:0:0:
256,192,236139,1,0,1:0:0:0:
251,194,236289,1,12,1:0:0:0:
256,192,236439,1,0,1:0:0:0:
251,194,236589,1,12,1:0:0:0:
256,192,236739,1,0,1:0:0:0:
256,192,236889,1,8,1:0:0:0:
256,192,236964,1,8,1:0:0:0:
256,192,237039,1,0,1:0:0:0:
256,192,237114,1,8,1:0:0:0:
256,192,237189,1,0,1:0:0:0:
256,192,237264,1,0,1:0:0:0:
256,192,237339,1,8,1:0:0:0:
256,192,237414,1,8,1:0:0:0:
256,192,237489,1,0,1:0:0:0:
256,192,237639,1,0,1:0:0:0:
256,192,237789,1,8,1:0:0:0:
256,192,237864,1,8,1:0:0:0:
256,192,237939,1,0,1:0:0:0:
256,192,238089,1,8,1:0:0:0:
256,192,238164,1,0,1:0:0:0:
256,192,238239,1,8,1:0:0:0:
256,192,238314,1,8,1:0:0:0:
256,192,238389,1,0,1:0:0:0:
256,192,238539,1,0,1:0:0:0:
256,192,238689,1,8,1:0:0:0:
256,192,238764,1,8,1:0:0:0:
256,192,238839,1,8,1:0:0:0:
256,192,238989,1,0,1:0:0:0:
256,192,239064,1,0,1:0:0:0:
256,192,239139,1,8,1:0:0:0:
256,192,239214,1,8,1:0:0:0:
256,192,239289,1,0,1:0:0:0:
256,192,239439,1,12,1:0:0:0:
256,192,240189,1,4,1:0:0:0:
256,192,240339,8,0,245589,1:0:0:0:
