osu file format v14

[General]
AudioFilename: audio.mp3
AudioLeadIn: 0
PreviewTime: 56190
Countdown: 0
SampleSet: Soft
StackLeniency: 0.7
Mode: 0
LetterboxInBreaks: 0
WidescreenStoryboard: 1

[Editor]
Bookmarks: 25190,43940,65990,85190,104425,126025,152233,180654,210654,229854,247554
DistanceSpacing: 1.1
BeatDivisor: 4
GridSize: 32
TimelineZoom: 2

[Metadata]
Title:ATLAS
TitleUnicode:ATLAS
Artist:PassCode
ArtistUnicode:PassCode
Creator:Nao Tomori
Version:Normal
Source:
Tags:japanese rock pop single akitoshi corinn -laura- keevy shiino kowari
BeatmapID:2861783
BeatmapSetID:1385282

[Difficulty]
HPDrainRate:3.5
CircleSize:3
OverallDifficulty:4
ApproachRate:5
SliderMultiplier:0.949999999999999
SliderTickRate:1

[Events]
//Background and Video events
0,0,"genshin bg.jpg",0,0
//Break Periods
2,188003,195604
2,197603,205804
//Storyboard Layer 0 (Background)
//Storyboard Layer 1 (Fail)
//Storyboard Layer 2 (Pass)
//Storyboard Layer 3 (Foreground)
//Storyboard Layer 4 (Overlay)
//Storyboard Sound Samples

[TimingPoints]
-10,300,4,2,0,40,1,0
1490,-100,4,2,0,40,0,0
1640,-100,4,2,5,40,0,0
3590,-100,4,2,5,70,0,0
4790,-100,4,2,5,60,0,0
11990,-100,4,2,5,80,0,0
25190,-114.942528735632,4,2,5,50,0,0
39815,-114.942528735632,4,2,5,5,0,0
39890,-114.942528735632,4,2,5,50,0,0
43790,-114.942528735632,4,2,5,20,0,0
43940,-100,4,2,5,80,0,0
44240,-100,4,2,5,70,0,0
56390,-90.9090909090909,4,2,5,85,0,1
66215,-90.9090909090909,4,2,5,5,0,1
66290,-90.9090909090909,4,2,5,85,0,1
67415,-90.9090909090909,4,2,5,5,0,1
67490,-90.9090909090909,4,2,5,85,0,1
68615,-90.9090909090909,4,2,5,5,0,1
68690,-90.9090909090909,4,2,5,85,0,1
70715,-90.9090909090909,4,2,5,5,0,1
70790,-90.9090909090909,4,2,5,85,0,1
71015,-90.9090909090909,4,2,5,5,0,1
71090,-90.9090909090909,4,2,5,85,0,1
71315,-90.9090909090909,4,2,5,5,0,1
71390,-90.9090909090909,4,2,5,85,0,1
71615,-90.9090909090909,4,2,5,5,0,1
71690,-90.9090909090909,4,2,5,85,0,1
71915,-90.9090909090909,4,2,5,5,0,1
71990,-90.9090909090909,4,2,5,85,0,1
73415,-90.9090909090909,4,2,5,5,0,1
73490,-90.9090909090909,4,2,5,85,0,1
85115,-90.9090909090909,4,2,5,5,0,1
85190,-100,4,2,5,68,0,0
94790,-100,4,2,5,60,0,0
99590,-100,4,2,5,68,0,0
102090,-100,4,2,0,45,0,0
103490,-100,4,2,5,68,0,0
115290,-100,4,2,5,8,0,0
115390,-100,4,2,5,68,0,0
115490,-100,4,2,5,8,0,0
115590,-100,4,2,5,68,0,0
115690,-100,4,2,5,8,0,0
115790,-100,4,2,5,68,0,0
115890,-100,4,2,5,8,0,0
115990,-100,4,2,5,68,0,0
116090,-100,4,2,5,8,0,0
116190,-100,4,2,5,68,0,0
116290,-100,4,2,5,8,0,0
116390,-90.9090909090909,4,2,5,85,0,1
131015,-90.9090909090909,4,2,5,5,0,1
131090,-90.9090909090909,4,2,5,85,0,1
131315,-90.9090909090909,4,2,5,5,0,1
131390,-90.9090909090909,4,2,5,85,0,1
131615,-90.9090909090909,4,2,5,5,0,1
131690,-90.9090909090909,4,2,5,85,0,1
131915,-90.9090909090909,4,2,5,5,0,1
131990,-90.9090909090909,4,2,5,85,0,1
135590,-90.9090909090909,4,2,5,85,0,0
137988,394.736842105263,4,2,5,80,1,0
137988,-74.0740740740741,4,2,5,80,0,0
165027,-74.0740740740741,4,2,5,5,0,0
165126,-74.0740740740741,4,2,5,80,0,0
165323,-74.0740740740741,4,2,5,5,0,0
165422,-74.0740740740741,4,2,5,80,0,0
165619,-74.0740740740741,4,2,5,5,0,0
165718,-74.0740740740741,4,2,5,80,0,0
180619,600,4,2,5,75,1,0
180619,-50,4,2,5,75,0,0
183004,600,4,2,5,50,1,0
183004,-66.6666666666667,4,2,5,50,0,0
183104,-66.6666666666667,4,2,5,40,0,0
207004,-66.6666666666667,4,2,5,60,0,0
208654,-50,4,2,5,60,0,0
209404,300,4,2,5,75,1,0
209404,-100,4,2,5,75,0,0
210604,300,4,2,5,85,1,1
210604,-90.9090909090909,4,2,5,85,0,1
220429,-90.9090909090909,4,2,5,5,0,1
220504,-90.9090909090909,4,2,5,85,0,1
220729,-90.9090909090909,4,2,5,5,0,1
220804,-90.9090909090909,4,2,5,85,0,1
221029,-90.9090909090909,4,2,5,5,0,1
221104,-90.9090909090909,4,2,5,85,0,1
221329,-90.9090909090909,4,2,5,5,0,1
221404,-90.9090909090909,4,2,5,85,0,1
221629,-90.9090909090909,4,2,5,5,0,1
221704,-90.9090909090909,4,2,5,85,0,1
221929,-90.9090909090909,4,2,5,5,0,1
222004,-90.9090909090909,4,2,5,85,0,1
222229,-90.9090909090909,4,2,5,5,0,1
222304,-90.9090909090909,4,2,5,85,0,1
222529,-90.9090909090909,4,2,5,5,0,1
222604,-90.9090909090909,4,2,5,85,0,1
222829,-90.9090909090909,4,2,5,5,0,1
222904,-90.9090909090909,4,2,5,85,0,1
223429,-90.9090909090909,4,2,5,5,0,1
223504,-90.9090909090909,4,2,5,85,0,1
223729,-90.9090909090909,4,2,5,5,0,1
223804,-90.9090909090909,4,2,5,85,0,1
224029,-90.9090909090909,4,2,5,5,0,1
224104,-90.9090909090909,4,2,5,85,0,1
224929,-90.9090909090909,4,2,5,5,0,1
225004,-90.9090909090909,4,2,5,85,0,1
225229,-90.9090909090909,4,2,5,5,0,1
225304,-90.9090909090909,4,2,5,85,0,1
225529,-90.9090909090909,4,2,5,5,0,1
225604,-90.9090909090909,4,2,5,85,0,1
225829,-90.9090909090909,4,2,5,5,0,1
225904,-90.9090909090909,4,2,5,85,0,1
226129,-90.9090909090909,4,2,5,5,0,1
226204,-90.9090909090909,4,2,5,85,0,1
229729,-90.9090909090909,4,2,5,5,0,1
229804,-90.9090909090909,4,2,5,85,0,1
241354,-102.040816326531,4,2,5,85,0,1
241804,300,4,2,5,85,1,0
241804,-100,4,2,5,85,0,0
242104,300,4,2,5,85,1,0
242104,-100,4,2,5,85,0,0
242254,-100,4,2,2,26,0,0

[Colours]
Combo1 : 242,123,123
Combo2 : 185,164,240
Combo3 : 136,227,247
Combo4 : 242,194,96
Combo5 : 220,175,206
Combo6 : 158,243,180

[HitObjects]
425,8,3590,6,0,P|409:61|400:112,1,94.9999999999999,2|8,3:2|0:0,0:0:0:0:
310,151,4190,2,0,P|326:204|335:255,1,94.9999999999999,4|4,2:3|2:3,0:0:0:0:
417,304,4790,6,0,B|314:233|199:305|280:321|171:405|60:334,1,380,6|2,3:2|2:0,0:0:0:0:
5,256,6290,1,0,3:0:0:0:
79,183,6590,2,0,B|106:172|106:172|171:198,1,94.9999999999999,10|0,0:0|0:0,0:0:0:0:
244,126,7190,6,0,P|326:147|398:73,2,190,6|10|2,3:2|0:0|0:0,0:0:0:0:
180,43,8690,1,0,3:0:0:0:
180,43,8990,1,10,2:0:0:0:
8,161,9590,5,6,3:2:0:0:
149,315,10190,2,0,B|196:325|196:325|215:343|215:343|296:357,2,142.5,10|8|0,0:2|0:0|3:3,0:0:0:0:
113,216,11390,2,0,P|148:204|216:230,1,94.9999999999999,10|2,0:0|3:2,0:0:0:0:
280,148,11990,5,14,0:0:0:0:
387,262,12440,1,14,0:0:0:0:
456,120,12890,1,8,2:0:0:0:
366,174,13190,2,0,B|288:196|332:231|255:263,1,142.5,10|10,2:0|0:0,0:0:0:0:
259,261,14390,5,6,3:2:0:0:
162,300,14690,1,10,0:0:0:0:
71,247,14990,2,0,B|50:217|50:217|56:183|76:144,1,94.9999999999999,0|8,3:0|0:0,0:0:0:0:
157,107,15590,2,0,P|206:148|331:125,1,190,2|2,0:0|3:2,0:0:0:0:
383,45,16490,1,8,0:0:0:0:
462,112,16790,6,0,L|494:307,1,190,2|2,3:2|3:2,0:0:0:0:
412,366,17690,1,8,2:0:0:0:
329,302,17990,2,0,P|279:289|225:315,1,94.9999999999999,0|8,3:0|0:0,0:0:0:0:
153,361,18590,2,0,P|103:374|49:348,1,94.9999999999999,0|8,3:0|0:0,0:0:0:0:
7,271,19190,5,6,3:2:0:0:
74,191,19490,1,10,0:0:0:0:
6,111,19790,2,0,B|-12:67|-12:67|3:22,1,94.9999999999999,2|10,3:2|0:0,0:0:0:0:
99,63,20390,2,0,B|143:44|183:64|183:64|193:83|193:83|232:109|282:91,1,190,2|0,3:2|3:0,0:0:0:0:
363,45,21290,6,0,P|419:36|470:56,2,94.9999999999999,10|2|10,0:0|3:2|0:0,0:0:0:0:
400,142,22190,1,0,3:0:0:0:
331,283,22640,2,0,B|309:320|309:320|301:264|258:221,1,142.5,6|2,3:2|0:0,0:0:0:0:
182,292,23390,2,0,B|71:297|112:352|-13:351,1,190,2|2,0:0|3:3,0:0:0:0:
5,350,25190,5,6,3:2:0:0:
48,220,25640,1,2,0:0:0:0:
16,87,26090,2,0,P|42:107|163:86,1,165.300001387253,0|0,3:0|3:0,0:0:0:0:
228,22,26990,1,0,3:0:0:0:
359,147,27590,2,0,P|388:164|451:170,1,82.6500006936263,0|0,3:0|3:0,0:0:0:0:
461,259,28190,2,0,P|427:283|406:318,1,82.6500006936263,0|0,3:0|3:0,0:0:0:0:
330,268,28790,2,0,B|302:232|302:232|244:213|168:246,1,165.300001387253,2|0,3:2|3:0,0:0:0:0:
184,239,29990,5,0,3:2:0:0:
253,356,30440,1,2,0:0:0:0:
362,274,30890,2,0,L|340:104,1,165.300001387253,0|0,3:0|3:0,0:0:0:0:
299,29,31790,2,0,B|271:19|249:23|249:23|212:53,1,82.6500006936263,0|0,3:0|3:0,0:0:0:0:
148,91,32390,2,0,P|115:106|61:100,1,82.6500006936263,0|0,3:0|3:0,0:0:0:0:
17,28,32990,2,0,P|32:112|41:196,2,165.300001387253,0|0|0,3:0|3:0|3:0,0:0:0:0:
17,28,34790,5,6,3:2:0:0:
132,100,35240,1,2,0:0:0:0:
248,29,35690,2,0,B|299:84|365:59|365:59|392:21,1,165.300001387253,0|0,3:0|3:0,0:0:0:0:
475,46,36590,2,0,P|493:82|493:123,1,82.6500006936263,0|0,3:0|3:0,0:0:0:0:
438,196,37190,2,0,B|392:201|368:239|368:239|331:257|279:219,1,165.300001387253,0|0,3:0|3:0,0:0:0:0:
156,110,38390,2,0,L|142:281,1,165.300001387253,0|0,3:0|3:0,0:0:0:0:
172,360,39290,1,0,3:0:0:0:
253,319,39590,6,0,P|291:335|339:324,1,82.6500006936263,4|0,3:2|3:0,0:0:0:0:
391,260,40190,2,0,L|374:165,1,82.6500006936263,0|0,3:0|3:0,0:0:0:0:
444,117,40790,1,0,3:0:0:0:
298,8,41390,2,0,P|289:49|246:70,1,82.6500006936263,0|0,3:0|3:0,0:0:0:0:
165,61,41990,2,0,B|109:13|50:47|50:47|41:69|32:91,2,165.300001387253,0|0|0,3:0|3:0|3:0,0:0:0:0:
165,61,43940,5,8,0:0:0:0:
106,147,44240,2,0,B|83:191|83:191|87:243|120:291,2,142.5,6|8|2,3:2|0:0|3:2,0:0:0:0:
208,171,45440,1,2,3:2:0:0:
287,102,45740,1,2,3:2:0:0:
238,9,46040,1,2,3:2:0:0:
442,49,46640,6,0,B|430:97|430:97|443:125|443:125|425:202,1,142.5,6|10,3:2|0:0,0:0:0:0:
492,269,47390,2,0,P|466:317|376:321,1,142.5,2|2,3:2|3:2,0:0:0:0:
290,279,48140,1,2,3:2:0:0:
218,355,48440,2,0,B|172:370|134:331|134:331|96:294|35:314,1,190,2|6,3:2|3:2,0:0:0:0:
7,158,49490,6,0,P|-5:127|30:60,1,94.9999999999999,10|2,0:0|3:2,0:0:0:0:
157,5,50240,2,0,L|297:47,1,142.5,6|8,3:2|0:0,0:0:0:0:
390,5,50990,1,0,3:2:0:0:
493,129,51440,6,0,B|532:181|526:242|483:273|483:273|450:254|412:251,1,237.5,6|0,3:2|3:0,0:0:0:0:
332,182,52490,1,8,2:0:0:0:
256,254,52790,2,0,P|244:300|234:346,2,94.9999999999999,0|8|0,3:2|0:0|3:0,0:0:0:0:
307,51,53990,5,2,3:2:0:0:
207,19,54290,1,10,2:2:0:0:
155,109,54590,2,0,P|97:114|29:231,1,190,8|6,2:3|3:2,0:0:0:0:
27,215,56390,6,0,P|43:271|50:328,1,104.500003189087,6|0,3:2|3:2,0:0:0:0:
159,350,56990,2,0,P|166:298|181:248,1,104.500003189087,10|0,2:2|3:2,0:0:0:0:
256,161,57590,1,2,3:2:0:0:
256,161,57890,1,0,3:2:0:0:
348,229,58190,2,0,P|406:238|451:214,1,104.500003189087,10|0,2:2|3:2,0:0:0:0:
463,105,58790,6,0,L|356:84,1,104.500003189087,6|0,3:2|3:2,0:0:0:0:
256,134,59390,1,10,0:0:0:0:
164,64,59690,2,0,B|116:46|116:46|58:80,2,104.500003189087,0|2|2,3:2|3:2|3:2,0:0:0:0:
256,134,60590,1,10,2:0:0:0:
172,348,61190,6,0,B|153:365|112:373|112:373|79:352,1,104.500003189087,6|2,3:2|3:2,0:0:0:0:
2,266,61790,1,10,2:2:0:0:
45,159,62090,2,0,B|159:101|159:101|202:120|249:138,1,209.000006378174,2|2,3:2|3:2,0:0:0:0:
335,191,62990,2,0,P|378:197|434:163,1,104.500003189087,10|0,0:0|3:0,0:0:0:0:
497,261,63590,5,6,3:2:0:0:
436,358,63890,1,2,3:2:0:0:
339,294,64190,1,10,0:0:0:0:
238,348,64490,2,0,B|173:359|125:302|148:236|148:236|199:220|230:181|210:108,1,313.500009567261,2|8,3:2|0:3,0:0:0:0:
146,39,65690,1,10,2:2:0:0:
45,94,65990,6,0,B|23:133|23:133|39:171|69:202,1,104.500003189087,6|8,3:2|0:0,0:0:0:0:
145,254,66590,2,0,L|264:232,1,104.500003189087,0|8,3:0|0:0,0:0:0:0:
337,163,67190,1,2,3:2:0:0:
434,224,67490,1,8,0:0:0:0:
410,336,67790,2,0,P|363:363|302:345,1,104.500003189087,0|8,3:0|0:0,0:0:0:0:
254,256,68390,6,0,P|253:180|310:54,1,209.000006378174,6|0,3:2|3:0,0:0:0:0:
203,6,69290,1,8,0:0:0:0:
133,97,69590,2,0,B|92:97|50:121|50:121|10:110|-1:78,2,156.75000478363,2|2|8,3:2|0:0|0:0,0:0:0:0:
140,211,70790,5,6,3:2:0:0:
36,261,71090,1,8,0:0:0:0:
87,363,71390,1,0,3:0:0:0:
204,313,71690,2,0,B|273:287|320:312|282:330|351:358|425:320,1,209.000006378174,8|8,0:0|0:0,0:0:0:0:
493,257,72590,1,0,3:0:0:0:
309,117,73190,6,0,P|317:55|350:27,2,104.500003189087,6|10|2,3:2|0:0|3:2,0:0:0:0:
409,174,74090,2,0,P|326:163|235:259,1,209.000006378174,10|8,0:0|0:0,0:0:0:0:
154,321,74990,1,8,0:0:0:0:
54,264,75290,1,8,3:3:0:0:
77,151,75590,6,0,P|71:100|29:46,1,104.500003189087,6|0,3:2|3:0,0:0:0:0:
145,7,76190,2,0,P|151:58|193:112,1,104.500003189087,12|0,0:0|3:0,0:0:0:0:
283,151,76790,2,0,B|342:166|342:166|365:214|365:214|468:240,1,209.000006378174,6|12,3:2|0:0,0:0:0:0:
501,343,77690,1,0,3:0:0:0:
392,381,77990,5,6,3:2:0:0:
211,239,78590,1,12,0:0:0:0:
105,283,78890,1,0,3:0:0:0:
22,202,79190,2,0,P|15:154|33:87,1,104.500003189087,6|0,3:2|3:0,0:0:0:0:
111,21,79790,2,0,P|159:14|226:32,1,104.500003189087,12|0,0:2|3:2,0:0:0:0:
302,98,80390,6,0,B|333:145|332:198|287:237|287:237|259:222|211:216,1,209.000006378174,6|12,3:2|0:0,0:0:0:0:
135,285,81290,1,0,3:0:0:0:
225,355,81590,2,0,B|305:373|305:373|334:341|385:342,2,156.75000478363,6|0|0,3:2|3:0|3:2,0:0:0:0:
135,285,82790,6,0,P|91:286|48:325,2,104.500003189087,6|0|12,3:2|3:2|0:0,0:0:0:0:
234,222,83690,1,12,0:0:0:0:
150,138,83990,2,0,B|109:131|74:154|74:154|59:116|13:101,2,156.75000478363,8|8|12,0:0|0:0|0:0,0:0:0:0:
235,61,85190,6,0,P|276:74|365:14,1,142.5,2|2,3:2|0:0,0:0:0:0:
445,86,85940,1,2,0:0:0:0:
367,156,86240,2,0,L|387:307,1,142.5,8|8,0:0|0:0,0:0:0:0:
308,367,86990,2,0,P|283:352|207:361,1,94.9999999999999,0|10,3:0|0:0,0:0:0:0:
124,309,87590,6,0,B|52:329|52:329|-10:288,1,142.5,2|2,3:2|0:0,0:0:0:0:
48,201,88340,1,2,3:2:0:0:
19,100,88640,2,0,B|96:95|77:70|158:65,1,142.5,8|10,0:0|0:0,0:0:0:0:
257,90,89390,2,0,P|255:139|255:192,1,94.9999999999999,0|8,3:0|0:0,0:0:0:0:
219,283,89990,6,0,P|274:242|341:260,1,142.5,6|2,3:2|0:0,0:0:0:0:
426,322,90740,1,0,3:2:0:0:
471,227,91040,2,0,L|444:87,1,142.5,8|8,0:0|0:0,0:0:0:0:
342,63,91790,2,0,P|320:115|265:127,1,94.9999999999999,2|10,0:0|0:0,0:0:0:0:
187,96,92390,6,0,B|157:86|157:86|128:90|104:119,1,94.9999999999999,2|8,3:2|0:0,0:0:0:0:
64,215,92990,2,0,B|143:211|116:262|213:259,1,142.5,2|10,0:0|0:0,0:0:0:0:
288,308,93740,1,10,0:0:0:0:
383,264,94040,2,0,P|401:195|384:127,1,142.5,8|8,2:3|0:0,0:0:0:0:
304,60,94790,6,0,B|107:30,2,190,2|2|4,3:2|3:2|3:2,0:0:0:0:
472,183,96590,1,0,3:0:0:0:
397,256,96890,1,2,3:2:0:0:
303,209,97190,6,0,B|283:232|269:250|269:250|213:270|176:227,1,142.5,6|8,3:2|0:3,0:0:0:0:
103,171,97940,1,8,0:3:0:0:
30,246,98240,2,0,B|44:307|66:373|66:373|128:377|174:344,1,237.5,6|0,3:2|3:0,0:0:0:0:
271,353,99290,1,10,0:0:0:0:
355,291,99590,6,0,P|406:291|484:364,2,142.5,6|2|8,3:2|0:0|0:0,0:0:0:0:
322,191,100790,2,0,P|364:155|418:158,1,94.9999999999999,2|8,3:2|2:2,0:0:0:0:
398,48,101390,2,0,P|360:24|303:22,1,94.9999999999999,8|4,0:0|0:3,0:0:0:0:
222,75,101990,2,0,P|211:169|195:263,1,190,6|2,3:2|0:0,0:0:0:0:
195,262,103190,5,2,0:0:0:0:
99,305,103490,2,0,B|59:329|63:345|24:363,1,94.9999999999999,0|4,3:0|0:3,0:0:0:0:
27,368,104390,6,0,B|20:344|5:311|5:311|76:229|62:129,1,237.5,6|0,3:2|3:0,0:0:0:0:
20,47,105440,2,0,P|39:25|205:84,1,237.5,0|12,3:0|0:0,0:0:0:0:
187,182,106490,1,2,0:0:0:0:
228,277,106790,2,0,B|281:321|331:298|350:255|350:255|339:235|333:207,1,190,6|12,0:0|0:0,0:0:0:0:
350,111,107690,1,2,0:0:0:0:
454,112,107990,2,0,B|496:140|496:140|505:215|473:287,1,190,2|12,3:2|0:0,0:0:0:0:
480,281,109190,6,0,B|440:281|410:300|410:300|398:325|398:325|363:358|301:358,1,190,6|12,3:2|0:0,0:0:0:0:
237,281,110090,2,0,P|193:274|119:332,1,142.5,2|0,0:0|3:0,0:0:0:0:
27,281,110840,1,0,3:0:0:0:
72,186,111140,1,0,3:0:0:0:
11,100,111440,2,0,B|54:130|99:129|99:129|115:112|140:88,1,142.5,2|0,3:2|3:0,0:0:0:0:
237,105,112190,2,0,P|262:76|374:87,1,142.5,12|0,0:0|3:0,0:0:0:0:
427,154,112940,2,0,L|411:255,2,94.9999999999999,0|0|6,3:0|3:0|0:0,0:0:0:0:
327,32,113990,6,0,B|246:18|188:90|234:99|170:170|88:158,1,285,6|0,3:2|0:0,0:0:0:0:
24,238,115190,2,0,P|18:275|7:313,5,63.3333333333333,12|4|4|4|4|4,0:0|3:0|3:0|3:0|3:0|3:0,0:0:0:0:
2,369,116390,6,0,P|43:329|185:350,1,209.000006378174,6|10,3:2|3:2,0:0:0:0:
284,294,117290,1,2,3:2:0:0:
385,347,117590,2,0,P|430:355|484:318,1,104.500003189087,2|2,3:2|3:2,0:0:0:0:
444,216,118190,2,0,P|452:171|415:117,1,104.500003189087,10|2,3:2|3:2,0:0:0:0:
328,57,118790,5,6,3:2:0:0:
328,57,119090,1,2,3:2:0:0:
244,135,119390,2,0,B|204:156|204:156|180:157|147:137,1,104.500003189087,10|2,3:2|3:2,0:0:0:0:
57,67,119990,2,0,P|109:100|106:254,1,209.000006378174,2|10,3:2|3:2,0:0:0:0:
312,361,121190,5,6,3:2:0:0:
414,309,121490,1,0,3:2:0:0:
399,195,121790,1,10,3:2:0:0:
296,142,122090,2,0,P|249:137|199:173,1,104.500003189087,2|0,3:2|3:0,0:0:0:0:
132,258,122690,2,0,P|80:262|38:232,2,104.500003189087,2|10|0,3:2|3:2|3:0,0:0:0:0:
202,167,123590,6,0,L|188:51,1,104.500003189087,6|0,3:2|3:2,0:0:0:0:
283,4,124190,1,10,3:2:0:0:
385,57,124490,2,0,B|376:90|369:112|369:112|388:141|420:172|420:172|388:232|387:296|387:296|364:258|347:246,1,313.500009567261,2|8,3:2|0:3,0:0:0:0:
264,191,125690,1,10,0:0:0:0:
188,277,125990,6,0,P|146:310|89:303,1,104.500003189087,6|8,3:2|0:0,0:0:0:0:
7,235,126590,2,0,L|29:128,1,104.500003189087,2|8,0:0|0:0,0:0:0:0:
4,20,127190,1,0,3:2:0:0:
4,20,127490,1,10,0:0:0:0:
112,59,127790,2,0,P|152:62|214:23,1,104.500003189087,2|8,3:2|0:0,0:0:0:0:
321,41,128390,6,0,P|349:83|355:148,1,104.500003189087,2|10,3:2|0:0,0:0:0:0:
279,221,128990,2,0,P|228:224|169:196,1,104.500003189087,2|10,3:2|0:0,0:0:0:0:
109,113,129590,2,0,B|55:107|13:136|13:136|-12:115|-7:63,2,156.75000478363,2|2|8,3:2|2:0|0:0,0:0:0:0:
188,195,130790,5,6,3:2:0:0:
153,304,131090,1,10,0:0:0:0:
246,369,131390,1,2,3:2:0:0:
341,296,131690,2,0,B|388:253|451:250|498:279|498:279|483:303|449:313,1,209.000006378174,10|10,0:0|0:0,0:0:0:0:
389,222,132590,2,0,P|410:127|427:112,1,104.500003189087,2|8,2:2|0:0,0:0:0:0:
491,41,133190,6,0,P|410:108|302:64,1,209.000006378174,6|6,3:2|3:2,0:0:0:0:
205,109,134090,2,0,P|165:75|6:212,1,313.500009567261,8|8,0:0|0:0,0:0:0:0:
91,279,135290,1,4,2:3:0:0:
25,373,135590,5,6,3:2:0:0:
25,373,137390,1,2,3:0:0:0:
158,206,137988,6,0,P|140:157|153:68,1,128.250000489235,10|8,0:0|0:0,0:0:0:0:
280,128,138777,2,0,P|298:177|285:266,1,128.250000489235,8|8,0:0|0:0,0:0:0:0:
393,349,139566,2,0,B|440:361|440:361|489:330,2,96.1875003669261,6|10|10,3:2|0:0|0:0,0:0:0:0:
360,312,140356,2,0,B|313:300|313:300|264:331,2,96.1875003669261,2|10|10,3:2|0:0|0:0,0:0:0:0:
379,266,141145,1,2,3:2:0:0:
364,125,141540,2,0,P|426:128|473:87,2,128.250000489235,0|0|2,3:0|3:0|3:2,0:0:0:0:
258,30,142724,5,2,3:2:0:0:
204,160,143119,1,2,3:2:0:0:
89,78,143514,2,0,B|45:59|45:59|-18:89,2,96.1875003669261,2|10|10,3:2|0:0|0:0,0:0:0:0:
95,125,144303,2,0,L|75:263,2,128.250000489235,0|0|0,3:0|3:0|3:0,0:0:0:0:
213,47,145488,1,2,3:2:0:0:
316,142,145882,6,0,P|363:141|410:109,2,96.1875003669261,6|10|10,3:2|0:0|0:0,0:0:0:0:
207,218,146869,2,0,L|193:350,1,128.250000489235,2|10,0:0|0:0,0:0:0:0:
158,369,147461,2,0,B|118:381|118:381|91:376|52:358,2,96.1875003669261,2|10|10,3:2|0:0|0:0,0:0:0:0:
288,314,148448,2,0,P|321:297|414:323,1,128.250000489235,2|10,0:0|0:0,0:0:0:0:
438,344,149040,5,2,3:2:0:0:
509,222,149435,2,0,P|504:155|338:145,1,256.50000097847,0|0,3:0|3:0,0:0:0:0:
238,223,150619,1,2,3:2:0:0:
113,157,151014,1,2,3:2:0:0:
11,255,151409,1,2,3:2:0:0:
72,382,151803,2,0,P|117:340|190:340,1,128.250000489235,2|6,3:2|3:2,0:0:0:0:
319,364,152593,5,0,3:0:0:0:
394,244,152988,2,0,B|407:133|407:133,2,96.1875003669261,2|10|10,3:2|0:0|0:0,0:0:0:0:
420,286,153777,1,2,3:2:0:0:
291,236,154172,2,0,B|210:246|159:204|196:189|145:134|51:148,1,256.50000097847,0|0,3:0|3:0,0:0:0:0:
4,18,155356,6,0,P|44:0|126:9,1,128.250000489235,6|2,3:2|3:2,0:0:0:0:
253,70,156145,2,0,P|294:75|349:47,2,96.1875003669261,2|10|10,3:2|0:0|0:0,0:0:0:0:
217,99,156935,2,0,B|198:141|198:141|197:188|225:243,2,128.250000489235,0|0|0,3:0|3:0|3:0,0:0:0:0:
338,170,158119,1,0,3:0:0:0:
294,304,158514,6,0,P|252:332|186:328,1,96.1875003669261,6|10,3:2|0:0,0:0:0:0:
126,267,159106,2,0,L|0:239,2,128.250000489235,10|2|10,0:0|0:0|0:0,0:0:0:0:
164,224,160093,2,0,B|205:201|205:201|254:219,1,96.1875003669261,2|10,3:2|0:0,0:0:0:0:
336,155,160685,2,0,P|388:144|453:207,2,128.250000489235,10|2|10,0:0|0:0|0:0,0:0:0:0:
294,132,161672,6,0,L|276:4,1,128.250000489235,6|0,3:2|3:0,0:0:0:0:
158,81,162461,2,0,L|175:208,1,128.250000489235,0|0,3:0|3:0,0:0:0:0:
76,309,163251,2,0,P|47:270|51:189,1,128.250000489235,6|0,3:2|3:0,0:0:0:0:
17,55,164040,1,0,3:0:0:0:
158,81,164435,1,0,3:0:0:0:
285,19,164830,6,0,B|312:2|312:2|338:0|385:24,1,96.1875003669261,6|6,3:2|3:2,0:0:0:0:
474,49,165422,2,0,B|492:84|490:110|490:110|473:137,1,96.1875003669261,6|6,3:2|3:2,0:0:0:0:
432,235,166014,1,6,3:2:0:0:
312,160,166409,2,0,P|256:188|195:171,1,128.250000489235,6|4,3:2|0:0,0:0:0:0:
63,220,167198,2,0,P|34:275|51:336,1,128.250000489235,14|10,0:0|0:0,0:0:0:0:
188,372,167988,5,6,3:2:0:0:
292,277,168382,1,10,0:2:0:0:
426,321,168777,2,0,L|436:384,2,64.1250002446174,0|2|10,3:2|0:2|0:0,0:0:0:0:
489,194,169566,1,2,3:2:0:0:
397,86,169961,1,10,0:2:0:0:
260,122,170356,2,0,L|249:58,2,64.1250002446174,0|2|10,3:2|0:2|0:0,0:0:0:0:
175,234,171145,6,0,P|117:258|62:229,1,128.250000489235,2|10,3:2|0:0,0:0:0:0:
147,117,171935,2,0,P|204:92|259:121,1,128.250000489235,0|10,3:0|0:0,0:0:0:0:
349,229,172724,1,2,3:2:0:0:
475,167,173119,2,0,B|489:116|489:116|482:86|450:44,2,128.250000489235,10|0|10,0:0|3:0|0:0,0:0:0:0:
486,307,174303,5,6,3:2:0:0:
366,381,174698,1,10,0:0:0:0:
244,309,175093,2,0,L|245:232,2,64.1250002446174,0|2|10,3:0|0:0|0:0,0:0:0:0:
117,371,175882,1,2,3:2:0:0:
2,297,176277,1,10,0:0:0:0:
30,158,176672,2,0,L|29:81,2,64.1250002446174,0|2|10,3:0|0:0|0:0,0:0:0:0:
143,242,177461,6,0,B|216:236|189:206|275:202,1,128.250000489235,2|10,3:2|0:0,0:0:0:0:
358,98,178251,2,0,B|285:92|312:62|226:58,1,128.250000489235,0|10,3:0|0:0,0:0:0:0:
104,11,179040,1,2,3:2:0:0:
3,109,179435,2,0,P|-6:149|2:183,1,64.1250002446174,10|2,0:0|0:0,0:0:0:0:
26,215,179830,2,0,B|89:223|89:223|109:256|109:256|204:292,1,192.375000733852,0|0,3:0|0:0,0:0:0:0:
234,342,180619,6,0,P|319:361|357:322,1,126.666666666667,6|8,3:2|0:0,0:0:0:0:
368,274,181219,2,0,P|367:214|354:133,1,126.666666666667,6|8,3:2|0:0,0:0:0:0:
315,91,181819,2,0,B|313:46|348:5|348:5|401:20|431:81,1,190,6|6,3:2|3:2,0:0:0:0:
289,222,183004,6,0,B|250:238|235:266|235:266|233:230|211:200,2,142.500005435944,6|8|0,3:2|0:0|3:0,0:0:0:0:
428,295,184804,1,8,0:0:0:0:
509,160,185404,2,0,B|525:108|477:61|477:61|449:60|433:86,1,142.500005435944,2|8,3:2|0:0,0:0:0:0:
307,142,186604,2,0,B|248:148|214:89|220:22|253:-10|284:-16|331:8|318:53|262:62,1,285.000010871887,0|2,3:0|3:3,0:0:0:0:
438,360,196804,6,0,P|480:366|517:386,2,71.2500027179718,2|8|2,0:0|0:3|3:3,0:0:0:0:
77,89,207004,6,0,P|41:133|41:224,1,142.500005435944,2|2,3:2|3:2,0:0:0:0:
183,273,208204,2,0,P|219:229|219:138,1,142.500005435944,2|2,3:2|0:0,0:0:0:0:
172,54,209104,1,8,0:0:0:0:
268,13,209404,2,0,B|335:-5|387:23|402:74|402:74|363:96|356:127,1,237.5,6|2,3:2|3:2,0:0:0:0:
409,292,210604,6,0,P|377:318|297:318,1,104.500003189087,6|10,3:2|0:0,0:0:0:0:
222,256,211204,1,2,3:2:0:0:
222,256,211504,1,10,0:0:0:0:
128,322,211804,2,0,B|96:340|96:340|17:318,1,104.500003189087,2|10,3:2|0:0,0:0:0:0:
5,209,212404,2,0,B|37:191|37:191|116:213,1,104.500003189087,2|10,3:2|0:0,0:0:0:0:
202,153,213004,6,0,B|238:115|229:56|207:24|207:24|159:17|131:43,2,209.000006378174,2|2|2,3:2|3:2|3:2,0:0:0:0:
301,210,214504,1,10,0:0:0:0:
370,118,214804,2,0,B|403:90|403:90|443:97|475:121,1,104.500003189087,2|10,3:2|0:0,0:0:0:0:
500,218,215404,5,6,3:2:0:0:
433,311,215704,1,10,0:2:0:0:
320,287,216004,1,2,3:2:0:0:
236,365,216304,2,0,P|202:378|114:265,1,209.000006378174,10|10,0:2|0:2,0:0:0:0:
187,178,217204,2,0,B|222:194|222:194|285:174,1,104.500003189087,2|10,3:2|0:0,0:0:0:0:
353,81,217804,6,0,P|402:59|482:132,2,156.75000478363,12|12|12,0:0|0:0|0:2,0:0:0:0:
252,24,219004,1,12,0:0:0:0:
163,97,219304,2,0,P|103:86|48:282,1,313.500009567261,12|6,0:0|3:2,0:0:0:0:
138,336,220504,5,0,3:2:0:0:
237,278,220804,2,0,P|281:268|343:310,1,104.500003189087,10|2,0:2|3:2,0:0:0:0:
396,198,221404,2,0,B|333:212|303:166|327:137|253:99|209:132,1,209.000006378174,2|10,3:2|0:0,0:0:0:0:
126,198,222304,1,2,3:2:0:0:
19,155,222604,6,0,P|1:111|17:46,1,104.500003189087,2|2,3:2|3:2,0:0:0:0:
122,25,223204,2,0,P|166:7|231:23,1,104.500003189087,10|2,0:2|3:2,0:0:0:0:
317,78,223804,2,0,B|405:102|405:102|430:72|473:67,2,156.75000478363,2|2|12,3:2|3:2|0:0,0:0:0:0:
226,148,225004,5,6,3:2:0:0:
314,220,225304,1,2,3:2:0:0:
279,329,225604,1,10,0:0:0:0:
167,355,225904,2,0,B|142:316|83:299|41:328|41:328|44:369|92:373,1,209.000006378174,2|12,3:2|0:0,0:0:0:0:
118,262,226804,2,0,P|124:211|81:161,1,104.500003189087,2|8,0:0|0:0,0:0:0:0:
3,99,227404,5,2,0:0:0:0:
3,99,228604,6,0,B|47:110|47:110|78:108|114:72,1,104.500003189087,12|0,0:2|3:0,0:0:0:0:
143,47,229054,2,0,L|250:64,1,104.500003189087,12|0,0:0|3:0,0:0:0:0:
296,34,229504,1,12,0:0:0:0:
391,97,229804,6,0,P|417:136|415:203,1,104.500003189087,6|0,3:2|3:0,0:0:0:0:
353,287,230404,1,10,0:0:0:0:
250,235,230704,1,2,3:2:0:0:
166,313,231004,2,0,B|113:331|113:331|70:303|50:241|83:173,1,209.000006378174,0|10,3:0|0:0,0:0:0:0:
151,109,231904,1,2,3:2:0:0:
91,10,232204,6,0,P|40:13|-3:64,2,104.500003189087,2|0|10,3:2|3:2|0:0,0:0:0:0:
196,57,233104,1,2,3:2:0:0:
302,14,233404,2,0,L|417:40,1,104.500003189087,0|0,3:0|3:2,0:0:0:0:
406,152,234004,2,0,L|304:128,1,104.500003189087,8|2,0:0|3:2,0:0:0:0:
226,214,234604,6,0,B|155:213|127:262|156:262|125:324|40:319,2,209.000006378174,6|10|2,3:2|0:0|3:2,0:0:0:0:
316,285,236104,1,2,3:2:0:0:
409,218,236404,2,0,P|418:169|386:112,1,104.500003189087,8|0,0:0|3:2,0:0:0:0:
320,34,237004,6,0,L|195:67,1,104.500003189087,6|2,3:2|3:2,0:0:0:0:
138,143,237604,2,0,L|13:176,1,104.500003189087,10|0,0:0|3:0,0:0:0:0:
9,281,238204,1,12,0:0:0:0:
96,355,238504,1,8,0:0:0:0:
189,288,238804,2,0,P|242:293|297:316,2,104.500003189087,0|4|2,3:3|0:3|3:2,0:0:0:0:
110,203,239704,6,0,P|80:134|137:78,2,156.75000478363,14|10|8,0:0|0:0|0:0,0:0:0:0:
220,234,240904,2,0,L|326:213,1,104.500003189087,8|8,0:3|0:0,0:0:0:0:
372,242,241354,6,0,B|342:216|320:197|320:197|301:131|339:72|339:72|355:84|369:105,1,232.74999786911,6|6,3:2|3:2,0:0:0:0:
256,192,242179,12,0,247504,0:0:0:0:
