osu file format v14

[General]
AudioFilename: audio.mp3
AudioLeadIn: 0
PreviewTime: 56190
Countdown: 0
SampleSet: Soft
StackLeniency: 0.8
Mode: 0
LetterboxInBreaks: 0
WidescreenStoryboard: 1

[Editor]
Bookmarks: 25190,43940,65990,85190,104425,126025,152233,180654,210654,229854,247554
DistanceSpacing: 0.6
BeatDivisor: 4
GridSize: 8
TimelineZoom: 2

[Metadata]
Title:ATLAS
TitleUnicode:ATLAS
Artist:PassCode
ArtistUnicode:PassCode
Creator:Nao Tomori
Version:Hard
Source:
Tags:japanese rock pop single akitoshi corinn -laura- keevy shiino kowari
BeatmapID:2908827
BeatmapSetID:1385282

[Difficulty]
HPDrainRate:4.5
CircleSize:3.3
OverallDifficulty:6
ApproachRate:7.5
SliderMultiplier:1.2
SliderTickRate:1

[Events]
//Background and Video events
0,0,"genshin bg.jpg",0,0
//Break Periods
2,188004,195979
2,197604,206179
//Storyboard Layer 0 (Background)
//Storyboard Layer 1 (Fail)
//Storyboard Layer 2 (Pass)
//Storyboard Layer 3 (Foreground)
//Storyboard Layer 4 (Overlay)
//Storyboard Sound Samples

[TimingPoints]
-10,300,4,2,0,40,1,0
1490,-100,4,2,0,40,0,0
1640,-100,4,2,5,40,0,0
3590,-100,4,2,5,70,0,0
4790,-133.333333333333,4,2,5,60,0,0
11990,-100,4,2,5,80,0,0
25190,-114.942528735632,4,2,5,50,0,0
39815,-114.942528735632,4,2,5,5,0,0
39890,-114.942528735632,4,2,5,50,0,0
43790,-114.942528735632,4,2,5,20,0,0
43940,-100,4,2,5,80,0,0
44240,-100,4,2,5,70,0,0
56390,-90.9090909090909,4,2,5,85,0,1
66215,-90.9090909090909,4,2,5,5,0,1
66290,-90.9090909090909,4,2,5,85,0,1
67415,-90.9090909090909,4,2,5,5,0,1
67490,-90.9090909090909,4,2,5,85,0,1
68615,-90.9090909090909,4,2,5,5,0,1
68690,-90.9090909090909,4,2,5,85,0,1
70715,-90.9090909090909,4,2,5,5,0,1
70790,-90.9090909090909,4,2,5,85,0,1
71015,-90.9090909090909,4,2,5,5,0,1
71090,-90.9090909090909,4,2,5,85,0,1
71315,-90.9090909090909,4,2,5,5,0,1
71390,-90.9090909090909,4,2,5,85,0,1
71615,-90.9090909090909,4,2,5,5,0,1
71690,-90.9090909090909,4,2,5,85,0,1
71915,-90.9090909090909,4,2,5,5,0,1
71990,-90.9090909090909,4,2,5,85,0,1
73415,-90.9090909090909,4,2,5,5,0,1
73490,-90.9090909090909,4,2,5,85,0,1
85115,-90.9090909090909,4,2,5,5,0,1
85190,-100,4,2,5,68,0,0
94790,-100,4,2,5,60,0,0
99590,-100,4,2,5,68,0,0
102090,-100,4,2,0,45,0,0
103490,-100,4,2,5,68,0,0
113690,-133.333333333333,4,2,5,68,0,0
115140,-100,4,2,5,68,0,0
115290,-100,4,2,5,8,0,0
115390,-100,4,2,5,68,0,0
115490,-100,4,2,5,8,0,0
115590,-100,4,2,5,68,0,0
115690,-100,4,2,5,8,0,0
115790,-100,4,2,5,68,0,0
115890,-100,4,2,5,8,0,0
115990,-100,4,2,5,68,0,0
116090,-100,4,2,5,8,0,0
116190,-100,4,2,5,68,0,0
116290,-100,4,2,5,8,0,0
116390,-90.9090909090909,4,2,5,85,0,1
131015,-90.9090909090909,4,2,5,5,0,1
131090,-90.9090909090909,4,2,5,85,0,1
131315,-90.9090909090909,4,2,5,5,0,1
131390,-90.9090909090909,4,2,5,85,0,1
131615,-90.9090909090909,4,2,5,5,0,1
131690,-90.9090909090909,4,2,5,85,0,1
131915,-90.9090909090909,4,2,5,5,0,1
131990,-90.9090909090909,4,2,5,85,0,1
135590,-90.9090909090909,4,2,5,85,0,0
137390,-133.333333333333,4,2,5,85,0,0
137988,394.736842105263,4,2,5,80,1,0
137988,-74.0740740740741,4,2,5,80,0,0
165027,-74.0740740740741,4,2,5,5,0,0
165126,-74.0740740740741,4,2,5,80,0,0
165323,-74.0740740740741,4,2,5,5,0,0
165422,-74.0740740740741,4,2,5,80,0,0
165619,-74.0740740740741,4,2,5,5,0,0
165718,-74.0740740740741,4,2,5,80,0,0
166409,-100,4,2,5,80,0,0
167198,-74.0740740740741,4,2,5,80,0,0
180619,600,4,2,5,75,1,0
180619,-50,4,2,5,75,0,0
182419,-58.8235294117647,4,2,5,75,0,0
183004,600,4,2,5,50,1,0
183004,-66.6666666666667,4,2,5,50,0,0
183104,-66.6666666666667,4,2,5,40,0,0
207004,-66.6666666666667,4,2,5,60,0,0
208654,-50,4,2,5,60,0,0
209404,300,4,2,5,75,1,0
209404,-100,4,2,5,75,0,0
210604,300,4,2,5,85,1,1
210604,-90.9090909090909,4,2,5,85,0,1
220429,-90.9090909090909,4,2,5,5,0,1
220504,-90.9090909090909,4,2,5,85,0,1
220729,-90.9090909090909,4,2,5,5,0,1
220804,-90.9090909090909,4,2,5,85,0,1
221029,-90.9090909090909,4,2,5,5,0,1
221104,-90.9090909090909,4,2,5,85,0,1
221329,-90.9090909090909,4,2,5,5,0,1
221404,-90.9090909090909,4,2,5,85,0,1
221629,-90.9090909090909,4,2,5,5,0,1
221704,-90.9090909090909,4,2,5,85,0,1
221929,-90.9090909090909,4,2,5,5,0,1
222004,-90.9090909090909,4,2,5,85,0,1
222229,-90.9090909090909,4,2,5,5,0,1
222304,-90.9090909090909,4,2,5,85,0,1
222529,-90.9090909090909,4,2,5,5,0,1
222604,-90.9090909090909,4,2,5,85,0,1
222829,-90.9090909090909,4,2,5,5,0,1
222904,-90.9090909090909,4,2,5,85,0,1
223429,-90.9090909090909,4,2,5,5,0,1
223504,-90.9090909090909,4,2,5,85,0,1
223729,-90.9090909090909,4,2,5,5,0,1
223804,-90.9090909090909,4,2,5,85,0,1
224029,-90.9090909090909,4,2,5,5,0,1
224104,-90.9090909090909,4,2,5,85,0,1
224929,-90.9090909090909,4,2,5,5,0,1
225004,-90.9090909090909,4,2,5,85,0,1
225229,-90.9090909090909,4,2,5,5,0,1
225304,-90.9090909090909,4,2,5,85,0,1
225529,-90.9090909090909,4,2,5,5,0,1
225604,-90.9090909090909,4,2,5,85,0,1
225829,-90.9090909090909,4,2,5,5,0,1
225904,-90.9090909090909,4,2,5,85,0,1
226129,-90.9090909090909,4,2,5,5,0,1
226204,-90.9090909090909,4,2,5,85,0,1
229729,-90.9090909090909,4,2,5,5,0,1
229804,-90.9090909090909,4,2,5,85,0,1
241354,-102.040816326531,4,2,5,85,0,1
241804,300,4,2,5,85,1,0
241804,-100,4,2,5,85,0,0
242104,300,4,2,5,85,1,0
242104,-100,4,2,5,85,0,0
242254,-100,4,2,2,26,0,0

[Colours]
Combo1 : 242,123,123
Combo2 : 185,164,240
Combo3 : 136,227,247
Combo4 : 242,194,96
Combo5 : 220,175,206
Combo6 : 158,243,180

[HitObjects]
452,70,3590,6,0,P|435:99|433:139,1,60,2|0,3:2|3:2,0:0:0:0:
431,124,3815,1,8,0:0:0:0:
431,124,3890,2,0,P|452:150|460:181,1,60,8|8,0:0|2:3,0:0:0:0:
419,261,4190,2,0,L|286:287,1,120,4|4,2:3|2:3,0:0:0:0:
243,356,4640,1,8,2:2:0:0:
160,317,4790,6,0,B|147:290|128:278|128:278|151:181,1,135.000005149841,6|0,3:2|0:0,0:0:0:0:
208,134,5390,2,0,L|190:-8,2,135.000005149841,10|8|0,0:0|0:0|3:0,0:0:0:0:
310,195,6590,1,10,0:0:0:0:
403,123,6890,1,0,0:0:0:0:
497,202,7190,6,0,P|517:234|509:331,1,135.000005149841,6|0,3:2|0:0,0:0:0:0:
445,373,7790,2,0,L|342:361,1,90.0000034332277,10|0,0:0|0:0,0:0:0:0:
283,321,8240,2,0,L|181:340,1,90.0000034332277,8|0,0:0|0:0,0:0:0:0:
121,375,8690,1,0,3:0:0:0:
19,316,8990,2,0,B|6:273|6:273|25:225,1,90.0000034332277,10|0,2:0|0:0,0:0:0:0:
94,124,9590,6,0,B|121:102|155:108|155:108|184:145|230:148,1,135.000005149841,6|0,3:2|0:3,0:0:0:0:
292,116,10190,2,0,B|307:100|320:83|320:83|314:40|282:-12,2,135.000005149841,10|8|0,0:2|0:0|3:3,0:0:0:0:
355,216,11390,2,0,P|397:207|445:221,1,90.0000034332277,10|2,0:0|3:2,0:0:0:0:
453,344,11990,6,0,B|384:371|384:371|318:348,1,120,14|0,0:0|3:0,0:0:0:0:
252,340,12440,2,0,B|231:315|181:321|141:356|134:376,1,120,14|0,0:0|3:0,0:0:0:0:
65,328,12890,2,0,P|60:298|52:262,1,60,8|0,2:0|3:0,0:0:0:0:
53,269,13115,1,0,3:0:0:0:
53,269,13190,5,10,2:0:0:0:
120,206,13340,1,8,0:0:0:0:
68,123,13490,2,0,B|41:113|41:113|-3:128,1,60,8|10,2:0|0:0,0:0:0:0:
11,123,14390,6,0,P|62:131|109:70,1,120,6|10,3:2|0:0,0:0:0:0:
173,27,14840,1,2,0:0:0:0:
244,89,14990,2,0,L|233:159,2,60,0|0|8,3:0|3:0|0:0,0:0:0:0:
319,39,15440,2,0,P|359:47|452:65,1,120,2|0,0:0|3:0,0:0:0:0:
447,156,15890,2,0,P|407:148|314:130,1,120,10|2,0:0|3:2,0:0:0:0:
234,148,16340,1,0,3:0:0:0:
271,236,16490,2,0,P|304:252|341:251,1,60,8|2,0:0|0:0,0:0:0:0:
413,284,16790,6,0,P|345:272|229:381,1,240,2|2,3:2|3:2,0:0:0:0:
150,340,17540,1,0,3:0:0:0:
150,340,17690,1,8,2:0:0:0:
61,369,17840,2,0,B|37:343|37:343|64:252,1,120,2|2,0:0|0:0,0:0:0:0:
52,174,18290,1,8,0:0:0:0:
128,124,18440,2,0,L|111:-10,1,120,2|0,2:2|3:0,0:0:0:0:
202,17,18890,2,0,L|209:76,1,60,8|8,0:0|0:0,0:0:0:0:
209,76,19115,1,8,0:0:0:0:
209,76,19190,5,6,3:2:0:0:
362,161,19490,2,0,B|391:144|400:116|400:116|422:142|456:151,2,120,10|2|10,0:0|3:2|0:0,0:0:0:0:
254,259,20390,2,0,B|222:247|188:241,2,60,2|2|8,3:2|3:2|0:0,0:0:0:0:
302,332,20840,2,0,P|333:350|425:328,1,120,2|2,0:0|3:2,0:0:0:0:
504,340,21290,2,0,P|513:307|505:268,1,60,10|0,0:0|0:0,0:0:0:0:
448,211,21590,5,2,3:2:0:0:
448,211,21740,1,0,3:0:0:0:
484,124,21890,2,0,B|497:83|497:83|489:41|437:6,1,120,10|0,0:0|3:0,0:0:0:0:
455,19,22265,1,0,3:0:0:0:
455,19,22340,1,8,0:3:0:0:
384,66,22490,1,8,0:0:0:0:
297,27,22640,6,0,B|232:37|241:41|189:96|176:91|119:105,1,180,6|2,3:2|0:0,0:0:0:0:
26,47,23390,1,2,0:0:0:0:
33,169,23690,1,2,0:0:0:0:
0,290,23990,5,2,3:3:0:0:
457,321,25190,6,0,B|476:358|476:358|483:276,1,104.40000087616,6|0,3:2|3:0,0:0:0:0:
435,228,25640,2,0,L|425:113,1,104.40000087616,2|2,0:0|0:0,0:0:0:0:
481,67,26090,1,0,3:0:0:0:
481,67,26990,2,0,P|481:34|491:4,2,52.2000004380798,0|2|0,3:0|0:0|3:0,0:0:0:0:
425,123,27440,6,0,P|374:118|298:191,1,156.60000131424,2|0,0:0|3:0,0:0:0:0:
272,256,28040,2,0,P|230:284|181:272,1,104.40000087616,2|2,0:0|0:0,0:0:0:0:
124,217,28490,1,0,3:0:0:0:
124,217,28640,1,2,0:0:0:0:
40,225,29840,5,2,0:0:0:0:
40,225,29915,1,0,0:0:0:0:
40,225,29990,2,0,P|46:180|62:115,1,104.40000087616,0|0,3:2|3:0,0:0:0:0:
140,109,30440,2,0,P|132:57|120:6,1,104.40000087616,2|2,0:0|0:0,0:0:0:0:
120,6,30890,1,0,3:0:0:0:
246,59,31790,5,0,3:0:0:0:
342,0,32090,1,0,3:0:0:0:
412,89,32390,2,0,P|430:127|431:199,1,104.40000087616,0|0,3:0|3:0,0:0:0:0:
372,238,32840,1,2,0:0:0:0:
372,238,32990,2,0,B|329:242|320:253|325:258|302:280|264:287,1,104.40000087616,0|0,3:0|3:0,0:0:0:0:
208,257,33440,1,2,0:0:0:0:
137,293,33590,2,0,L|128:353,3,52.2000004380798,0|2|0|2,3:0|0:0|3:0|0:0,0:0:0:0:
61,272,34190,2,0,L|45:373,2,78.3000006571198,0|2|2,3:0|0:0|0:0,0:0:0:0:
16,207,34790,6,0,P|-8:169|22:105,1,104.40000087616,6|0,3:2|3:0,0:0:0:0:
87,107,35240,2,0,P|111:145|81:209,1,104.40000087616,2|2,0:0|0:0,0:0:0:0:
161,240,35690,1,0,3:0:0:0:
234,199,36515,1,2,0:0:0:0:
234,199,36590,2,0,P|276:189|345:172,1,104.40000087616,0|0,3:0|3:0,0:0:0:0:
460,103,37190,6,0,B|479:42|438:-4|438:-4|420:12|426:41,1,156.60000131424,0|2,3:0|0:0,0:0:0:0:
358,79,37790,2,0,P|327:89|243:8,1,156.60000131424,0|2,3:0|0:0,0:0:0:0:
169,48,38390,2,0,P|135:49|97:197,1,208.800001752319,0|0,3:0|3:0,0:0:0:0:
190,256,39290,1,0,3:0:0:0:
103,352,39590,6,0,P|62:370|9:339,1,104.40000087616,4|0,3:2|3:0,0:0:0:0:
190,256,40190,2,0,P|231:238|284:269,1,104.40000087616,0|0,3:0|3:0,0:0:0:0:
396,344,40790,2,0,B|392:371|378:384|378:384|344:346|369:256|411:239,1,208.800001752319,2|0,3:2|3:0,0:0:0:0:
509,166,41690,1,0,3:0:0:0:
425,77,41990,6,0,B|380:85|351:57|351:57|342:99|287:112,1,156.60000131424,2|2,3:2|0:0,0:0:0:0:
235,59,42590,2,0,B|185:62|150:98|179:99|158:136|103:146,1,156.60000131424,0|2,3:0|0:0,0:0:0:0:
48,95,43190,2,0,L|36:44,2,52.2000004380798,0|2|0,3:0|0:0|3:0,0:0:0:0:
12,167,43640,1,0,0:0:0:0:
161,275,43940,5,8,0:0:0:0:
235,236,44090,1,8,0:0:0:0:
279,308,44240,2,0,B|320:315|320:315|408:295,1,120,6|0,3:2|3:0,0:0:0:0:
475,323,44690,2,0,P|487:289|486:249,1,60,8|0,0:0|0:0,0:0:0:0:
439,200,44990,1,2,3:2:0:0:
439,200,45140,2,0,P|432:164|411:130,1,60,2|8,3:2|0:0,0:0:0:0:
480,77,45440,5,2,3:2:0:0:
353,4,45740,2,0,P|330:28|309:46,1,60,2|8,3:2|0:0,0:0:0:0:
258,111,46040,2,0,B|198:86|122:77,1,120,2|0,3:2|3:0,0:0:0:0:
84,23,46490,1,8,0:0:0:0:
25,85,46640,6,0,B|46:167|46:167|32:184|22:206,1,120,6|0,3:2|3:0,0:0:0:0:
24,282,47090,2,0,P|60:278|152:326,1,120,10|2,0:0|3:2,0:0:0:0:
195,372,47540,2,0,B|232:355|254:346,1,60,2|8,3:2|0:0,0:0:0:0:
339,348,47840,6,0,B|365:366|365:366|387:315|380:266,1,120,2|2,3:2|3:2,0:0:0:0:
324,211,48290,1,8,0:0:0:0:
381,279,48440,2,0,B|409:282|437:264|437:264|456:179|392:136,1,180,2|8,3:2|0:0,0:0:0:0:
460,70,49040,6,0,P|403:59|328:44,1,120,6|0,3:2|3:0,0:0:0:0:
275,101,49490,2,0,B|221:119|214:122|201:127,1,60,10|0,0:0|0:0,0:0:0:0:
148,73,49790,2,0,P|114:64|54:127,1,120,2|8,3:2|2:2,0:0:0:0:
9,193,50240,6,0,B|2:219|-8:238|-8:238|26:319,1,120,6|2,3:2|3:2,0:0:0:0:
93,345,50690,1,8,0:0:0:0:
160,292,50840,2,0,B|196:297|201:298|226:330|224:326|273:337,1,120,2|0,3:2|0:0,0:0:0:0:
349,309,51290,1,10,0:0:0:0:
434,329,51440,6,0,B|452:295|458:261|458:261|444:237|423:194,1,120,6|0,3:2|0:0,0:0:0:0:
432,131,51890,2,0,P|446:85|525:81,2,120,8|0|8,0:0|3:0|2:0,0:0:0:0:
351,168,52640,2,0,P|312:172|257:43,1,180,2|8,3:2|0:0,0:0:0:0:
79,123,53390,2,0,L|68:183,1,60,0|0,3:0|3:0,0:0:0:0:
133,249,53690,1,8,0:0:0:0:
133,249,53765,1,8,0:3:0:0:
133,249,53840,1,4,0:3:0:0:
64,315,53990,5,2,3:2:0:0:
205,365,54290,1,10,2:2:0:0:
308,279,54590,1,8,2:3:0:0:
308,279,54665,1,8,2:3:0:0:
308,279,54740,1,4,0:3:0:0:
380,312,54890,2,0,L|386:352,3,30,8|8|4|4,0:3|0:3|0:3|0:3,0:0:0:0:
403,295,55190,1,6,3:2:0:0:
407,292,56390,5,6,3:2:0:0:
454,125,56690,1,0,3:2:0:0:
322,13,56990,1,10,2:2:0:0:
274,180,57290,1,0,3:2:0:0:
131,80,57590,5,2,3:2:0:0:
90,249,57890,1,0,3:2:0:0:
233,349,58190,1,10,2:2:0:0:
274,180,58490,1,0,3:2:0:0:
407,292,58790,6,0,B|427:298|427:298|450:288|487:266,1,66.0000020141602,6|0,3:2|3:0,0:0:0:0:
506,203,59090,2,0,P|495:171|479:133,1,66.0000020141602,0|0,3:2|3:0,0:0:0:0:
410,100,59390,2,0,B|364:109|367:114|339:156|338:146|284:165,1,132.00000402832,10|0,0:0|3:2,0:0:0:0:
65,89,59990,6,0,B|81:61|81:61|118:78,1,66.0000020141602,2|0,3:2|3:2,0:0:0:0:
240,91,60290,2,0,B|224:63|224:63|187:80,1,66.0000020141602,2|0,3:2|3:2,0:0:0:0:
151,148,60590,2,0,B|145:204|150:192|140:298,1,132.00000402832,10|0,2:0|3:2,0:0:0:0:
287,359,61190,5,6,3:2:0:0:
443,287,61490,1,2,3:2:0:0:
300,189,61790,1,10,2:2:0:0:
372,345,62090,2,0,L|385:194,1,132.00000402832,2|0,3:2|3:2,0:0:0:0:
482,71,62690,5,2,3:2:0:0:
482,71,62840,1,2,3:2:0:0:
409,26,62990,2,0,B|368:36|368:36|348:92|290:95,1,132.00000402832,10|0,0:0|3:0,0:0:0:0:
235,49,63440,1,0,3:0:0:0:
156,80,63590,6,0,B|144:104|134:118|134:118|133:118|162:223,1,132.00000402832,6|2,3:2|3:2,0:0:0:0:
43,353,64190,2,0,B|71:332|116:326,1,66.0000020141602,10|0,0:0|3:2,0:0:0:0:
193,334,64490,2,0,B|221:355|266:361,1,66.0000020141602,2|0,3:2|3:2,0:0:0:0:
330,316,64790,6,0,L|405:304,1,66.0000020141602,0|8,3:0|0:0,0:0:0:0:
395,305,65015,1,8,0:0:0:0:
395,305,65090,1,8,0:0:0:0:
455,232,65240,2,0,L|501:241,2,33.0000010070801,0|0|8,3:3|3:3|0:3,0:0:0:0:
397,157,65540,1,4,0:3:0:0:
406,63,65690,2,0,P|403:33|399:-16,1,66.0000020141602,10|10,2:2|0:0,0:0:0:0:
408,5,65915,1,8,0:0:0:0:
408,5,65990,6,0,B|326:11|326:11|310:36|266:49,1,132.00000402832,6|8,3:2|0:0,0:0:0:0:
209,90,66440,1,2,0:0:0:0:
137,37,66590,2,0,P|103:36|72:132,1,132.00000402832,0|8,3:0|0:0,0:0:0:0:
121,185,67040,1,2,0:0:0:0:
52,245,67190,5,2,3:2:0:0:
174,342,67490,1,8,0:0:0:0:
174,342,67640,1,2,0:0:0:0:
233,284,67790,2,0,P|302:272|377:263,1,132.00000402832,0|8,3:0|0:0,0:0:0:0:
445,288,68240,1,2,0:0:0:0:
445,288,68390,6,0,B|452:244|462:219,1,66.0000020141602,6|0,3:2|0:0,0:0:0:0:
397,157,68690,2,0,B|390:113|380:88,1,66.0000020141602,8|2,0:0|0:0,0:0:0:0:
297,106,68990,2,0,P|273:73|179:67,1,132.00000402832,0|8,3:0|0:0,0:0:0:0:
38,196,69590,6,0,P|83:150|147:152,1,132.00000402832,2|8,3:2|0:0,0:0:0:0:
201,221,70040,2,0,B|227:298|227:298|206:314|190:349,1,132.00000402832,2|0,0:0|3:0,0:0:0:0:
271,384,70490,1,8,0:0:0:0:
451,365,70790,6,0,P|456:336|469:294,1,66.0000020141602,6|0,3:2|0:0,0:0:0:0:
314,301,71090,2,0,P|339:323|362:347,1,66.0000020141602,8|0,0:0|0:0,0:0:0:0:
438,216,71390,2,0,P|406:226|374:234,1,66.0000020141602,0|0,3:0|0:0,0:0:0:0:
291,210,71690,2,0,B|273:195|258:172|258:172|284:83,1,132.00000402832,8|6,0:0|3:2,0:0:0:0:
454,22,72290,5,8,0:0:0:0:
400,90,72440,1,2,0:0:0:0:
338,30,72590,2,0,P|287:41|210:58,1,132.00000402832,0|8,3:0|0:0,0:0:0:0:
137,12,73040,1,2,0:0:0:0:
71,69,73190,6,0,B|65:106|65:108|55:143,1,66.0000020141602,6|0,3:2|0:0,0:0:0:0:
12,210,73490,2,0,B|18:247|18:249|28:284,1,66.0000020141602,10|0,0:0|0:0,0:0:0:0:
86,339,73790,1,2,3:2:0:0:
186,188,74090,2,0,B|202:100|196:120|208:57,2,132.00000402832,10|0|8,0:0|3:0|0:0,0:0:0:0:
249,255,74840,1,2,0:0:0:0:
197,326,74990,2,0,B|173:312|149:314,2,44.0000013427735,8|8|8,0:0|0:0|0:0,0:0:0:0:
208,347,75290,1,8,3:3:0:0:
328,200,75590,6,0,P|381:208|460:161,1,132.00000402832,6|0,3:2|3:0,0:0:0:0:
418,95,76040,1,0,3:0:0:0:
496,65,76190,2,0,L|501:-1,2,66.0000020141602,12|0|0,0:0|3:0|3:0,0:0:0:0:
412,11,76640,6,0,B|362:19|350:38|361:44|333:69|274:72,1,132.00000402832,0|0,3:0|3:0,0:0:0:0:
219,29,77090,2,0,P|155:22|98:90,1,132.00000402832,0|12,3:0|0:0,0:0:0:0:
135,142,77540,1,0,3:0:0:0:
88,216,77690,2,0,B|60:233|60:233|23:219,1,66.0000020141602,0|0,3:0|3:0,0:0:0:0:
137,289,77990,6,0,P|179:280|246:348,2,132.00000402832,6|0|12,3:2|3:0|0:0,0:0:0:0:
88,216,78740,1,0,3:0:0:0:
135,142,78890,1,0,3:0:0:0:
135,142,79040,6,0,L|127:-2,1,132.00000402832,0|0,3:0|3:0,0:0:0:0:
219,29,79490,1,0,3:0:0:0:
219,29,79640,2,0,L|226:160,1,132.00000402832,0|0,3:0|3:0,0:0:0:0:
275,230,80090,1,0,3:2:0:0:
409,103,80390,6,0,P|445:90|497:97,1,66.0000020141602,6|0,3:2|3:0,0:0:0:0:
500,171,80690,2,0,P|513:207|506:259,1,66.0000020141602,0|0,3:0|3:0,0:0:0:0:
432,262,80990,2,0,P|396:275|344:268,1,66.0000020141602,12|0,0:0|3:0,0:0:0:0:
306,333,81290,2,0,P|273:333|242:346,1,66.0000020141602,0|0,3:0|3:0,0:0:0:0:
163,296,81590,6,0,L|153:230,2,66.0000020141602,6|0|0,3:2|3:0|3:2,0:0:0:0:
91,347,82040,2,0,P|56:368|0:312,1,132.00000402832,0|0,3:0|3:0,0:0:0:0:
69,258,82490,1,0,3:2:0:0:
63,88,82790,6,0,B|38:64|38:64|40:109,1,66.0000020141602,6|0,3:2|3:0,0:0:0:0:
88,169,83090,2,0,B|142:207|142:207|214:154,2,132.00000402832,0|12|12,3:2|0:0|0:0,0:0:0:0:
63,88,83840,1,0,3:0:0:0:
128,21,83990,6,0,L|264:51,1,132.00000402832,8|8,0:0|3:0,0:0:0:0:
318,113,84440,2,0,L|454:83,1,132.00000402832,8|8,0:0|3:0,0:0:0:0:
494,15,84890,1,12,0:0:0:0:
468,218,85190,6,0,P|410:208|368:248,1,120,2|8,3:2|0:0,0:0:0:0:
317,314,85640,2,0,P|259:323|217:283,1,120,2|2,0:0|0:0,0:0:0:0:
261,212,86090,1,2,0:0:0:0:
261,212,86240,2,0,L|234:29,2,180,8|8|0,0:0|0:0|3:0,0:0:0:0:
176,194,87290,2,0,B|142:200|139:201|118:206,1,60,10|8,0:0|2:0,0:0:0:0:
117,206,87515,1,8,0:0:0:0:
117,206,87590,6,0,B|100:235|100:235|94:282|140:330,1,120,2|8,3:2|0:0,0:0:0:0:
202,365,88040,2,0,P|240:324|323:330,1,120,2|2,0:0|3:2,0:0:0:0:
381,360,88490,1,2,0:0:0:0:
428,289,88640,2,0,B|453:304|463:315|463:315|438:160,2,180,8|10|0,0:0|0:0|3:0,0:0:0:0:
366,231,89690,1,8,0:0:0:0:
249,156,89990,6,0,P|194:159|143:220,1,120,6|8,3:2|0:0,0:0:0:0:
71,238,90440,2,0,B|57:218|40:202|40:202|48:125,1,120,2|0,0:0|3:2,0:0:0:0:
7,54,90890,1,2,0:0:0:0:
88,8,91040,2,0,B|125:-2|179:28|168:36|206:81|272:62,1,180,8|8,0:0|0:0,0:0:0:0:
384,10,91790,1,2,0:0:0:0:
252,65,92090,1,10,0:0:0:0:
372,160,92390,6,0,B|396:228|396:228|379:246|368:276,1,120,2|8,3:2|0:0,0:0:0:0:
420,339,92840,1,2,0:0:0:0:
420,339,92990,2,0,P|393:318|304:332,1,120,2|0,0:0|3:0,0:0:0:0:
238,376,93440,6,0,L|218:309,1,60,10|0,0:0|0:0,0:0:0:0:
148,268,93740,1,10,0:0:0:0:
245,176,94040,1,8,2:3:0:0:
156,77,94340,1,4,2:3:0:0:
215,21,94490,2,0,L|272:28,3,30,8|8|8|8,0:0|0:0|0:0|0:0,0:0:0:0:
268,43,94790,6,0,B|296:56|296:56|393:33,1,120,2|0,3:2|3:0,0:0:0:0:
457,75,95240,1,2,0:0:0:0:
457,75,95390,2,0,P|491:111|480:201,1,120,2|0,3:2|3:0,0:0:0:0:
446,244,95840,1,2,0:0:0:0:
477,324,95990,1,4,3:2:0:0:
477,324,96590,5,0,3:0:0:0:
357,384,96890,1,2,3:2:0:0:
244,312,97190,2,0,P|180:302|108:295,1,120,6|0,3:2|3:0,0:0:0:0:
55,255,97640,2,0,B|33:231|33:231|31:190|66:129,1,120,8|8,0:3|0:3,0:0:0:0:
121,101,98090,1,4,0:3:0:0:
83,33,98240,5,6,3:2:0:0:
242,104,98540,1,0,3:0:0:0:
242,104,98615,1,0,3:0:0:0:
242,104,98690,2,0,P|297:82|357:84,1,120,8|0,0:0|3:0,0:0:0:0:
429,143,99140,1,8,0:3:0:0:
429,143,99215,1,4,0:3:0:0:
429,143,99290,1,10,0:0:0:0:
329,263,99590,6,0,P|319:319|345:391,1,120,6|8,3:2|0:0,0:0:0:0:
478,362,100040,2,0,P|488:306|462:234,1,120,2|2,0:0|3:2,0:0:0:0:
404,313,100490,5,8,0:0:0:0:
245,254,100790,1,2,3:2:0:0:
101,342,101090,1,8,2:2:0:0:
16,237,101390,2,0,B|4:188|4:188|23:155,1,80,8|8,0:0|0:3,0:0:0:0:
40,143,101690,6,0,B|76:139|94:117|94:117|106:142|148:161,1,120,4|6,0:3|3:2,0:0:0:0:
150,155,102590,1,2,0:0:0:0:
161,152,103190,1,2,0:0:0:0:
249,114,103490,6,0,L|256:60,2,40,0|0|0,3:0|3:0|3:0,0:0:0:0:
265,134,103790,1,4,0:3:0:0:
398,231,104390,6,0,P|449:209|460:204,1,60,6|0,3:2|3:0,0:0:0:0:
420,125,104690,2,0,P|369:147|358:152,1,60,0|0,3:0|3:0,0:0:0:0:
311,218,104990,1,12,0:0:0:0:
311,218,105140,6,0,B|234:204|234:204|214:230|188:245,2,120,0|0|0,3:0|3:0|3:0,0:0:0:0:
336,298,105890,2,0,P|313:319|274:324,1,60,0|0,3:0|3:0,0:0:0:0:
207,359,106190,1,12,0:0:0:0:
50,293,106490,2,0,P|53:328|56:358,1,60,0|0,0:0|3:0,0:0:0:0:
5,218,106790,6,0,P|2:188|0:158,1,60,6|0,0:0|3:0,0:0:0:0:
70,97,107090,2,0,B|90:50|62:4|62:4|35:39,1,120,0|12,3:0|0:0,0:0:0:0:
133,42,107540,2,0,B|170:47|172:49|209:80|209:75|244:86,2,120,0|0|0,3:0|3:0|3:0,0:0:0:0:
70,97,108290,2,0,B|78:137|78:145|86:165,1,60,0|0,3:0|3:0,0:0:0:0:
152,206,108590,1,12,0:0:0:0:
103,279,108740,1,2,0:0:0:0:
271,384,109190,6,0,P|301:369|347:354,2,60,6|0|0,3:2|3:0|3:2,0:0:0:0:
195,334,109640,1,0,3:0:0:0:
195,334,109790,2,0,P|199:304|201:274,1,60,12|0,0:0|3:0,0:0:0:0:
282,233,110090,1,0,0:0:0:0:
282,233,110240,6,0,P|305:251|330:268,1,60,0|0,3:0|0:0,0:0:0:0:
419,256,110540,2,0,B|434:232|447:223|447:223|419:137,1,120,0|0,3:0|3:0,0:0:0:0:
361,83,110990,1,12,0:0:0:0:
417,17,111140,2,0,B|448:5|477:2|477:2|492:30|497:67,1,120,0|0,3:0|3:0,0:0:0:0:
361,83,111590,6,0,P|291:75|187:201,1,240,6|12,0:0|0:0,0:0:0:0:
242,259,112340,2,0,B|251:279|262:296|262:296|241:379,2,120,0|0|0,3:0|3:0|3:0,0:0:0:0:
187,191,113090,2,0,P|145:199|117:212,1,60,0|0,3:0|3:0,0:0:0:0:
75,268,113390,1,12,0:0:0:0:
12,214,113540,1,6,0:0:0:0:
48,384,113990,6,0,P|35:235|2:64,1,315.000012016297,6|0,3:2|3:0,0:0:0:0:
13,59,115115,1,0,3:0:0:0:
22,46,115190,6,0,P|63:74|106:73,1,80,12|4,0:0|3:0,0:0:0:0:
204,38,115590,1,4,3:0:0:0:
204,38,115790,2,0,P|245:9|288:10,1,80,4|4,3:0|3:0,0:0:0:0:
376,58,116190,1,4,2:3:0:0:
451,22,116390,5,6,3:2:0:0:
414,196,116690,1,2,3:2:0:0:
244,250,116990,1,10,3:2:0:0:
112,129,117290,1,2,3:2:0:0:
164,322,117590,5,2,3:2:0:0:
201,148,117890,1,2,3:2:0:0:
375,189,118190,1,10,3:2:0:0:
338,363,118490,1,2,3:2:0:0:
489,283,118790,6,0,P|480:257|469:213,1,66.0000020141602,6|0,3:2|3:0,0:0:0:0:
390,196,119090,2,0,P|371:216|339:248,1,66.0000020141602,2|0,3:2|3:0,0:0:0:0:
275,293,119390,2,0,P|220:283|154:354,1,132.00000402832,10|2,3:2|3:2,0:0:0:0:
18,177,119990,2,0,B|0:157|0:157|5:98,1,66.0000020141602,2|0,3:2|3:0,0:0:0:0:
81,90,120290,2,0,B|99:109|99:109|93:168,1,66.0000020141602,2|0,3:2|3:0,0:0:0:0:
172,192,120590,1,10,3:2:0:0:
235,132,120740,1,0,3:0:0:0:
316,157,120890,1,0,3:2:0:0:
385,6,121190,5,6,3:2:0:0:
440,175,121490,1,0,3:2:0:0:
385,344,121790,1,10,3:2:0:0:
330,175,122090,2,0,B|296:201|264:211|264:211|231:196|185:192,1,132.00000402832,2|0,3:2|3:0,0:0:0:0:
81,300,122690,5,2,3:2:0:0:
81,300,122840,1,2,3:2:0:0:
102,219,122990,2,0,B|116:193|148:172|148:172|180:179|209:195,1,132.00000402832,10|0,3:2|3:0,0:0:0:0:
383,287,123590,6,0,B|383:282|384:259|392:221,1,66.0000020141602,6|0,3:2|3:0,0:0:0:0:
460,166,123890,2,0,B|460:161|459:138|451:100,1,66.0000020141602,0|0,3:2|3:0,0:0:0:0:
409,28,124190,1,10,3:2:0:0:
291,90,124490,1,2,3:2:0:0:
146,37,124790,6,0,P|115:29|67:57,1,66.0000020141602,6|8,3:2|0:0,0:0:0:0:
83,39,125015,1,8,0:0:0:0:
83,39,125090,2,0,P|76:81|76:115,1,66.0000020141602,8|0,0:0|3:0,0:0:0:0:
114,191,125390,1,8,0:3:0:0:
65,269,125540,1,4,0:3:0:0:
65,269,125615,1,4,0:3:0:0:
65,269,125690,2,0,P|19:280|-15:271,1,66.0000020141602,10|10,0:0|0:0,0:0:0:0:
121,335,125990,6,0,B|203:354|203:354|223:331|249:311,1,132.00000402832,6|8,3:2|0:0,0:0:0:0:
320,288,126440,1,2,0:0:0:0:
399,327,126590,2,0,P|414:268|394:175,1,132.00000402832,2|8,0:0|0:0,0:0:0:0:
345,131,127040,1,2,0:0:0:0:
392,53,127190,6,0,B|420:31|449:20|449:20|482:44|489:101,1,132.00000402832,0|10,3:2|0:0,0:0:0:0:
315,219,127790,2,0,P|280:221|241:195,1,66.0000020141602,2|0,3:2|3:0,0:0:0:0:
201,140,128090,1,8,0:0:0:0:
201,140,128240,1,0,0:0:0:0:
132,186,128390,6,0,L|115:275,1,66.0000020141602,2|0,3:2|0:0,0:0:0:0:
34,215,128690,2,0,L|46:150,1,66.0000020141602,10|0,0:0|0:0,0:0:0:0:
3,73,128990,2,0,B|0:45|0:45|22:11,1,66.0000020141602,2|0,3:2|3:0,0:0:0:0:
103,40,129290,2,0,P|136:19|185:19,1,66.0000020141602,10|0,0:0|0:0,0:0:0:0:
221,86,129590,6,0,P|266:70|342:124,1,132.00000402832,2|8,3:2|0:0,0:0:0:0:
442,131,130040,2,0,P|366:141|345:206,1,132.00000402832,2|0,2:0|3:2,0:0:0:0:
387,260,130490,1,8,0:0:0:0:
289,363,130790,6,0,L|280:293,1,66.0000020141602,6|0,3:2|0:0,0:0:0:0:
187,271,131090,2,0,L|195:336,1,66.0000020141602,10|0,0:0|0:0,0:0:0:0:
101,309,131390,2,0,L|93:244,1,66.0000020141602,2|0,3:2|0:0,0:0:0:0:
19,196,131690,2,0,B|7:173|-4:161|-4:161|20:61,1,132.00000402832,10|2,0:0|3:2,0:0:0:0:
180,30,132290,5,10,0:0:0:0:
241,92,132440,1,2,0:0:0:0:
179,156,132590,2,0,B|153:197|158:248|158:248|197:279,1,132.00000402832,2|8,2:2|0:0,0:0:0:0:
249,334,133040,1,2,0:0:0:0:
330,288,133190,6,0,B|363:291|408:310,1,66.0000020141602,6|0,3:2|0:0,0:0:0:0:
509,213,133490,2,0,B|478:226|445:229,1,66.0000020141602,10|0,0:0|0:0,0:0:0:0:
379,165,133790,2,0,B|392:89|384:110|395:18,2,132.00000402832,6|8|2,3:2|0:0|3:2,0:0:0:0:
304,207,134540,1,0,3:0:0:0:
236,152,134690,1,8,0:0:0:0:
83,242,134990,6,0,P|63:282|71:329,1,88.000002685547,8|8,0:0|0:3,0:0:0:0:
88,346,135290,2,0,B|153:339|155:385|226:375,1,132.00000402832,4|6,2:3|3:2,0:0:0:0:
478,307,137240,5,2,0:0:0:0:
478,307,137315,1,2,0:0:0:0:
478,307,137390,2,0,P|414:298|369:364,1,135.000005149841,2|0,3:2|0:0,0:0:0:0:
293,373,137988,6,0,B|264:344|264:344|282:254,1,121.500000463486,10|0,0:0|3:0,0:0:0:0:
312,233,138382,2,0,P|321:189|244:141,1,121.500000463486,8|0,0:0|3:0,0:0:0:0:
228,153,138777,1,8,0:0:0:0:
132,98,138974,1,8,0:0:0:0:
132,98,139073,1,8,0:0:0:0:
132,98,139172,2,0,B|104:116|104:116|44:106,1,81.0000003089905,8|0,0:0|3:0,0:0:0:0:
189,21,139566,6,0,B|267:3|267:3|286:28|314:39,1,121.500000463486,6|10,3:2|0:0,0:0:0:0:
327,61,139961,2,0,B|358:63|372:59|422:67,1,81.0000003089905,0|10,3:0|0:0,0:0:0:0:
492,116,140356,2,0,P|519:157|516:233,1,121.500000463486,2|10,3:2|0:0,0:0:0:0:
493,261,140751,2,0,B|461:258|448:263|398:255,1,81.0000003089905,0|10,3:0|0:0,0:0:0:0:
339,326,141145,5,2,3:2:0:0:
260,267,141343,1,0,0:0:0:0:
260,267,141441,1,10,0:0:0:0:
260,267,141540,2,0,P|216:282|176:270,2,81.0000003089905,0|10|0,3:0|0:0|3:0,0:0:0:0:
308,185,142132,1,0,0:0:0:0:
308,185,142231,1,10,2:0:0:0:
308,185,142330,2,0,B|303:141|299:149|293:83,1,81.0000003089905,2|8,3:2|0:0,0:0:0:0:
236,27,142724,6,0,B|191:3|156:19|156:19|148:43|123:75,1,121.500000463486,2|8,3:2|0:0,0:0:0:0:
115,85,143119,2,0,L|137:170,1,81.0000003089905,2|8,3:2|0:0,0:0:0:0:
85,253,143514,2,0,P|124:260|164:270,1,81.0000003089905,2|0,3:2|0:0,0:0:0:0:
185,305,143810,2,0,P|224:297|264:287,1,81.0000003089905,10|0,0:0|0:0,0:0:0:0:
302,305,144106,2,0,B|325:313|345:328|345:328|439:242|361:135,1,243.000000926971,10|0,0:0|3:0,0:0:0:0:
303,99,144895,1,8,0:0:0:0:
372,27,145093,5,0,3:0:0:0:
372,27,145191,2,0,P|412:19|463:58,1,81.0000003089905,8|8,0:0|0:0,0:0:0:0:
473,62,145488,2,0,B|466:92|466:92|496:159,1,81.0000003089905,2|10,3:2|0:0,0:0:0:0:
448,224,145882,6,0,P|487:252|480:318,1,81.0000003089905,6|0,3:2|0:0,0:0:0:0:
485,330,146178,2,0,P|441:349|387:310,1,81.0000003089905,10|0,0:0|0:0,0:0:0:0:
372,313,146474,2,0,P|331:292|236:351,1,162.000000617981,10|0,0:0|0:0,0:0:0:0:
158,307,147066,1,2,3:2:0:0:
77,353,147264,1,10,0:0:0:0:
12,283,147461,6,0,P|-1:250|20:193,1,81.0000003089905,2|0,3:2|0:0,0:0:0:0:
42,173,147757,2,0,P|52:134|38:96,1,81.0000003089905,10|0,0:0|0:0,0:0:0:0:
13,56,148053,2,0,L|98:42,1,81.0000003089905,10|0,0:0|3:0,0:0:0:0:
183,90,148448,1,2,0:0:0:0:
183,90,148547,1,10,0:0:0:0:
183,90,148645,2,0,P|226:81|267:107,1,81.0000003089905,0|10,3:2|0:0,0:0:0:0:
327,167,149040,5,2,3:2:0:0:
327,167,149238,1,0,0:0:0:0:
414,129,149435,2,0,P|417:86|423:35,1,81.0000003089905,0|10,3:0|0:0,0:0:0:0:
511,32,149830,2,0,P|511:109|503:185,1,121.500000463486,0|8,3:2|0:0,0:0:0:0:
488,194,150224,2,0,B|483:250|482:256|481:279,1,81.0000003089905,0|10,3:0|0:0,0:0:0:0:
492,357,150619,6,0,P|440:376|404:366,1,81.0000003089905,2|0,3:2|0:0,0:0:0:0:
337,332,151014,1,2,3:2:0:0:
337,332,151211,1,10,0:0:0:0:
243,368,151409,2,0,P|195:344|134:376,1,121.500000463486,2|8,3:2|0:0,0:0:0:0:
99,348,151803,2,0,L|87:257,1,81.0000003089905,2|8,3:2|0:0,0:0:0:0:
11,218,152198,6,0,P|-10:180|64:108,1,162.000000617981,6|0,3:2|3:0,0:0:0:0:
130,169,152790,1,10,0:0:0:0:
202,230,152988,2,0,B|241:241|241:241|296:217,1,81.0000003089905,2|2,3:2|0:0,0:0:0:0:
317,204,153284,2,0,B|356:193|356:193|411:217,1,81.0000003089905,10|0,0:0|0:0,0:0:0:0:
418,244,153580,1,10,0:0:0:0:
496,179,153777,6,0,P|510:123|490:84,1,81.0000003089905,2|2,3:2|0:0,0:0:0:0:
503,102,154073,1,10,0:0:0:0:
503,102,154172,2,0,P|450:113|366:37,1,162.000000617981,0|2,3:0|3:2,0:0:0:0:
288,11,154764,1,2,0:0:0:0:
219,71,154961,2,0,B|197:92|197:92|118:77,1,81.0000003089905,0|10,3:0|0:0,0:0:0:0:
64,125,155356,6,0,B|31:168|44:211|44:211|91:247,1,121.500000463486,6|10,3:2|0:2,0:0:0:0:
93,265,155751,2,0,P|100:318|80:354,1,81.0000003089905,2|10,3:2|0:2,0:0:0:0:
215,351,156145,2,0,P|208:298|228:262,1,81.0000003089905,2|2,3:2|0:0,0:0:0:0:
250,251,156441,2,0,L|393:283,1,121.500000463486,10|10,0:0|0:0,0:0:0:0:
456,229,156935,6,0,B|471:201|471:201|457:132,1,81.0000003089905,0|2,3:0|0:0,0:0:0:0:
372,91,157330,2,0,B|357:119|357:119|371:188,1,81.0000003089905,0|10,3:0|0:0,0:0:0:0:
288,217,157724,1,0,3:0:0:0:
288,217,157823,2,0,P|230:227|203:248,1,81.0000003089905,10|10,0:0|0:0,0:0:0:0:
174,267,158119,2,0,P|116:257|89:236,1,81.0000003089905,0|10,3:0|0:0,0:0:0:0:
27,180,158514,6,0,B|8:147|8:147|41:44,2,121.500000463486,6|10|10,3:2|0:0|0:0,0:0:0:0:
225,131,159501,1,2,0:0:0:0:
225,131,159599,1,10,0:0:0:0:
225,131,159698,2,0,L|217:46,1,81.0000003089905,0|10,3:0|0:0,0:0:0:0:
313,73,160093,6,0,P|373:59|433:120,1,121.500000463486,2|10,3:2|0:0,0:0:0:0:
435,127,160488,2,0,B|420:155|420:155|451:235,1,81.0000003089905,0|10,3:0|0:0,0:0:0:0:
485,286,160882,2,0,P|446:304|415:350,1,81.0000003089905,0|2,3:0|0:0,0:0:0:0:
422,332,161178,1,10,0:0:0:0:
422,332,161277,2,0,P|395:301|359:285,1,81.0000003089905,0|10,3:0|0:0,0:0:0:0:
278,331,161672,5,6,3:2:0:0:
278,331,161869,1,2,0:0:0:0:
195,284,162066,2,0,L|205:196,1,81.0000003089905,0|10,3:0|0:0,0:0:0:0:
270,136,162461,2,0,P|278:83|182:30,1,162.000000617981,0|0,3:0|3:0,0:0:0:0:
126,80,163053,1,10,0:0:0:0:
39,37,163251,6,0,P|32:86|27:142,1,81.0000003089905,6|2,3:2|0:0,0:0:0:0:
115,160,163645,2,0,P|119:119|125:79,1,81.0000003089905,0|10,3:0|0:0,0:0:0:0:
207,127,164040,1,0,3:0:0:0:
207,127,164139,2,0,P|288:142|306:144,1,81.0000003089905,10|10,0:0|0:0,0:0:0:0:
325,120,164435,2,0,B|358:95|358:95|403:104,1,81.0000003089905,0|10,3:0|0:0,0:0:0:0:
460,177,164830,5,6,3:2:0:0:
397,327,165126,1,6,3:2:0:0:
243,266,165422,1,6,3:2:0:0:
89,327,165718,2,0,P|80:277|60:244,1,81.0000003089905,6|10,3:2|0:0,0:0:0:0:
39,223,166014,2,0,L|-4:216,3,40.5000001544952,6|2|10|2,3:2|0:0|0:2|0:0,0:0:0:0:
71,192,166409,2,0,P|94:136|80:72,1,120,6|4,3:2|0:0,0:0:0:0:
195,34,167198,6,0,P|212:43|246:58,3,40.5000001544952,14|8|8|8,0:0|0:0|0:0|0:0,0:0:0:0:
271,34,167593,2,0,P|288:24|322:10,3,40.5000001544952,10|8|8|8,0:0|0:0|0:0|0:0,0:0:0:0:
352,27,167988,6,0,P|370:80|387:127,1,81.0000003089905,6|2,3:2|0:2,0:0:0:0:
444,166,168382,2,0,P|426:219|409:266,1,81.0000003089905,10|2,0:2|0:2,0:0:0:0:
462,336,168777,1,0,3:2:0:0:
462,336,168876,2,0,P|396:328|349:389,1,121.500000463486,10|10,0:0|0:0,0:0:0:0:
182,310,169566,5,2,3:2:0:0:
182,310,169665,1,0,0:0:0:0:
182,310,169764,2,0,L|92:335,2,81.0000003089905,2|10|2,0:2|0:2|0:2,0:0:0:0:
267,351,170356,1,0,3:2:0:0:
267,351,170455,2,0,B|287:317|287:317|288:271|239:221,1,121.500000463486,10|10,0:0|0:0,0:0:0:0:
182,189,170948,1,2,0:0:0:0:
229,111,171145,6,0,B|265:93|265:93|256:132,1,81.0000003089905,2|2,3:2|0:0,0:0:0:0:
105,134,171540,2,0,B|96:94|96:94|132:112,1,81.0000003089905,10|2,0:0|0:2,0:0:0:0:
97,238,171935,1,0,3:0:0:0:
97,238,172034,2,0,P|51:261|34:341,1,121.500000463486,10|10,0:0|0:0,0:0:0:0:
215,378,172724,5,2,3:2:0:0:
215,378,172823,1,2,0:0:0:0:
215,378,172922,1,2,0:0:0:0:
290,329,173119,2,0,P|295:296|297:247,1,81.0000003089905,10|2,0:0|0:0,0:0:0:0:
369,196,173514,1,0,3:0:0:0:
369,196,173613,2,0,P|399:226|483:222,1,121.500000463486,10|10,0:0|0:0,0:0:0:0:
489,136,174106,1,8,0:0:0:0:
489,136,174205,1,8,0:0:0:0:
489,136,174303,6,0,P|495:87|458:46,1,81.0000003089905,6|2,3:2|0:0,0:0:0:0:
387,54,174698,2,0,P|338:48|297:85,1,81.0000003089905,10|2,0:0|0:0,0:0:0:0:
223,85,175093,1,0,3:0:0:0:
223,85,175191,2,0,B|187:114|187:114|90:92,1,121.500000463486,10|10,0:0|0:0,0:0:0:0:
26,254,175882,5,2,3:2:0:0:
26,254,175981,1,2,0:0:0:0:
26,254,176080,2,0,P|45:299|46:347,2,81.0000003089905,2|10|2,0:0|0:0|0:0,0:0:0:0:
86,187,176672,1,0,3:0:0:0:
86,187,176770,2,0,P|128:213|207:201,1,121.500000463486,10|10,0:0|0:0,0:0:0:0:
272,145,177264,1,2,0:0:0:0:
323,232,177461,6,0,B|304:269|304:269|322:327,1,81.0000003089905,2|2,3:2|0:0,0:0:0:0:
423,321,177856,2,0,B|441:283|441:283|423:225,1,81.0000003089905,10|2,0:0|0:0,0:0:0:0:
492,174,178251,1,0,3:0:0:0:
492,174,178349,2,0,L|470:45,1,121.500000463486,10|10,0:0|0:0,0:0:0:0:
298,14,179040,6,0,P|293:64|286:105,1,81.0000003089905,2|2,3:2|0:0,0:0:0:0:
228,158,179435,1,10,0:0:0:0:
160,106,179632,1,2,0:0:0:0:
160,106,179731,1,10,0:0:0:0:
160,106,179830,2,0,B|108:99|68:119,1,81.0000003089905,0|10,3:0|0:0,0:0:0:0:
84,202,180224,2,0,P|51:265|51:288,1,81.0000003089905,8|2,3:0|3:2,0:0:0:0:
140,303,180619,6,0,P|143:345|159:398,2,80,6|2|8,3:2|0:0|0:0,0:0:0:0:
214,233,181219,2,0,P|211:193|201:154,2,80,6|2|8,3:2|0:0|0:0,0:0:0:0:
297,290,181819,2,0,P|300:332|316:385,2,80,4|2|8,3:2|0:0|0:0,0:0:0:0:
356,210,182419,2,0,B|460:191|460:191|438:209|432:237,1,153.000002918243,6|0,3:2|0:0,0:0:0:0:
433,229,183004,6,0,P|420:184|516:112,2,180.000006866455,6|8|0,3:2|0:0|3:0,0:0:0:0:
492,345,184804,1,8,0:0:0:0:
369,384,185404,2,0,B|308:382|289:352|307:340|264:299|210:309,1,180.000006866455,2|8,3:2|0:0,0:0:0:0:
140,254,186304,2,0,P|129:315|120:359,1,90.0000034332277,2|0,0:0|3:0,0:0:0:0:
123,342,187804,5,2,3:3:0:0:
397,176,196804,6,0,L|388:120,1,45.0000017166138,2|8,0:0|0:0,0:0:0:0:
302,56,197104,2,0,L|309:100,1,45.0000017166138,8|4,0:3|0:3,0:0:0:0:
245,161,197404,1,2,3:3:0:0:
27,347,207004,5,2,3:2:0:0:
84,287,207304,1,0,3:0:0:0:
167,282,207604,1,2,3:2:0:0:
224,342,207904,1,2,3:2:0:0:
296,299,208204,2,0,P|341:297|380:325,1,90.0000034332277,2|0,3:2|3:0,0:0:0:0:
478,275,209104,5,8,0:0:0:0:
478,275,209179,1,8,0:0:0:0:
478,275,209254,1,8,0:0:0:0:
404,225,209404,2,0,B|384:197|384:197|390:143|430:100,1,120,6|0,3:2|3:0,0:0:0:0:
386,36,209854,1,2,0:0:0:0:
414,118,210004,2,0,B|436:137|436:137|435:107,1,60,0|2,3:0|3:2,0:0:0:0:
59,33,210604,5,6,3:2:0:0:
89,208,210904,1,10,0:0:0:0:
218,86,211204,1,2,3:2:0:0:
248,261,211504,1,10,0:0:0:0:
440,211,211804,5,2,3:2:0:0:
267,168,212104,1,10,0:0:0:0:
153,305,212404,1,2,3:2:0:0:
326,348,212704,1,10,0:0:0:0:
179,206,213004,6,0,P|129:219|91:227,1,66.0000020141602,2|0,3:2|3:0,0:0:0:0:
45,166,213304,2,0,P|32:116|24:78,1,66.0000020141602,10|0,0:0|3:0,0:0:0:0:
85,32,213604,2,0,P|135:19|173:11,1,66.0000020141602,2|0,3:2|3:0,0:0:0:0:
227,61,213904,1,10,0:0:0:0:
411,16,214204,6,0,P|431:46|455:74,1,66.0000020141602,2|0,3:2|3:0,0:0:0:0:
302,85,214504,2,0,P|318:51|329:17,1,66.0000020141602,10|0,0:0|3:0,0:0:0:0:
383,124,214804,2,0,B|396:190|388:177|402:263,1,132.00000402832,2|10,3:2|0:0,0:0:0:0:
253,367,215404,5,6,3:2:0:0:
82,292,215704,1,10,0:2:0:0:
232,183,216004,1,2,3:2:0:0:
166,329,216304,2,0,L|151:189,1,132.00000402832,10|0,0:2|3:2,0:0:0:0:
74,49,216904,5,10,0:2:0:0:
151,94,217054,1,2,3:2:0:0:
217,38,217204,2,0,P|267:17|334:68,1,132.00000402832,2|10,3:2|0:0,0:0:0:0:
316,151,217654,1,8,3:0:0:0:
316,151,217729,1,8,3:0:0:0:
316,151,217804,6,0,P|301:195|307:231,2,66.0000020141602,12|8|8,0:0|3:0|3:0,0:0:0:0:
406,172,218254,2,0,P|405:204|392:235,2,66.0000020141602,12|8|8,0:0|3:0|3:0,0:0:0:0:
468,111,218704,5,12,0:2:0:0:
465,292,219004,1,12,0:0:0:0:
302,214,219304,2,0,B|258:222|229:234,1,66.0000020141602,12|8,0:0|0:0,0:0:0:0:
238,230,219529,1,8,0:0:0:0:
238,230,219604,1,8,0:0:0:0:
166,285,219754,2,0,B|147:277|103:269,2,66.0000020141602,8|8|8,0:0|3:0|3:0,0:0:0:0:
231,344,220204,6,0,L|343:319,1,99.0000030212403,6|0,3:2|0:0,0:0:0:0:
357,339,220504,2,0,P|391:352|426:346,1,66.0000020141602,0|0,3:2|0:0,0:0:0:0:
492,284,220804,2,0,B|485:250|468:228|468:228|483:143,1,132.00000402832,10|2,0:2|3:2,0:0:0:0:
400,20,221404,6,0,P|353:10|301:41,1,99.0000030212403,2|0,3:2|0:0,0:0:0:0:
289,66,221704,2,0,B|279:92|279:92|305:154,1,66.0000020141602,2|0,3:2|0:0,0:0:0:0:
223,187,222004,2,0,P|169:207|88:152,1,132.00000402832,10|2,0:0|3:2,0:0:0:0:
0,310,222604,6,0,P|13:340|22:371,1,66.0000020141602,2|0,3:2|0:0,0:0:0:0:
117,370,222904,2,0,P|126:338|139:308,1,66.0000020141602,2|0,3:2|0:0,0:0:0:0:
229,301,223204,2,0,P|242:331|251:362,1,66.0000020141602,10|0,0:2|0:0,0:0:0:0:
346,361,223504,2,0,P|355:329|368:299,1,66.0000020141602,2|0,3:2|0:0,0:0:0:0:
454,233,223804,6,0,P|417:207|407:112,1,132.00000402832,2|0,3:2|3:0,0:0:0:0:
448,48,224254,1,0,3:0:0:0:
448,48,224404,2,0,B|482:37|482:37|471:69,1,66.0000020141602,12|0,0:0|3:0,0:0:0:0:
322,66,224704,2,0,B|313:38|313:38|347:49,1,66.0000020141602,12|0,0:0|0:0,0:0:0:0:
287,159,225004,6,0,P|239:176|208:171,1,66.0000020141602,6|0,3:2|0:0,0:0:0:0:
338,288,225304,2,0,P|347:237|367:213,1,66.0000020141602,2|0,3:2|0:0,0:0:0:0:
237,272,225604,2,0,B|192:270|190:279|152:315|163:314|117:324,2,132.00000402832,10|2|14,0:0|3:2|0:0,0:0:0:0:
427,351,226504,5,12,0:0:0:0:
490,293,226654,1,2,0:0:0:0:
425,235,226804,2,0,P|416:209|417:154,1,66.0000020141602,2|0,3:2|0:0,0:0:0:0:
469,106,227104,1,8,0:0:0:0:
469,106,227179,1,8,0:0:0:0:
469,106,227254,2,0,P|467:73|457:41,1,66.0000020141602,8|0,0:0|0:0,0:0:0:0:
376,0,228454,5,0,3:0:0:0:
376,0,228529,1,0,3:0:0:0:
376,0,228604,2,0,L|232:35,1,132.00000402832,12|0,0:2|3:0,0:0:0:0:
180,92,229054,2,0,B|84:75|84:75|99:97|108:120,1,132.00000402832,12|0,0:0|3:0,0:0:0:0:
80,190,229504,2,0,L|94:272,1,66.0000020141602,12|0,0:0|0:0,0:0:0:0:
40,324,229804,6,0,P|93:287|198:357,1,198.000006042481,6|0,3:2|3:0,0:0:0:0:
287,372,230404,2,0,B|315:350|357:340,1,66.0000020141602,10|0,0:0|3:0,0:0:0:0:
434,368,230704,1,2,3:2:0:0:
498,303,230854,6,0,P|506:255|441:181,1,132.00000402832,2|0,3:2|3:0,0:0:0:0:
434,97,231304,2,0,P|386:88|312:153,1,132.00000402832,2|10,3:2|0:0,0:0:0:0:
275,206,231754,1,0,3:0:0:0:
188,170,231904,2,0,L|199:78,1,66.0000020141602,2|0,3:2|3:0,0:0:0:0:
128,35,232204,6,0,B|50:55|50:55|28:33|4:19,2,132.00000402832,2|0|10,3:2|3:2|0:0,0:0:0:0:
195,95,232954,1,0,3:0:0:0:
264,40,233104,1,2,3:2:0:0:
264,40,233254,6,0,P|306:33|350:110,1,132.00000402832,2|2,3:2|3:2,0:0:0:0:
304,174,233704,1,0,3:2:0:0:
304,174,233854,2,0,P|312:225|323:249,1,66.0000020141602,2|8,3:2|0:0,0:0:0:0:
405,277,234154,1,0,3:2:0:0:
475,218,234304,2,0,B|488:189|488:189|471:122|433:94,1,132.00000402832,2|6,3:2|3:2,0:0:0:0:
226,255,234904,6,0,B|223:298|218:331,1,66.0000020141602,0|0,3:2|3:2,0:0:0:0:
128,349,235204,2,0,B|131:306|136:273,1,66.0000020141602,10|0,0:0|3:2,0:0:0:0:
67,225,235504,1,2,3:2:0:0:
152,108,235804,5,2,3:2:0:0:
126,22,235954,2,0,B|92:9|92:9|86:67,1,66.0000020141602,0|2,3:0|3:2,0:0:0:0:
152,108,236254,2,0,P|193:122|258:56,1,132.00000402832,2|0,3:2|0:0,0:0:0:0:
319,5,236704,6,0,P|360:52|423:42,1,132.00000402832,0|6,3:2|3:2,0:0:0:0:
423,42,237154,1,0,3:0:0:0:
491,107,237304,2,0,P|475:165|466:246,1,132.00000402832,2|10,3:2|0:0,0:0:0:0:
505,315,237754,2,0,B|473:281|473:281|407:296|390:338,1,132.00000402832,8|2,0:0|3:2,0:0:0:0:
320,367,238204,6,0,P|288:380|247:373,1,66.0000020141602,12|0,0:0|3:0,0:0:0:0:
192,319,238504,2,0,P|160:306|119:313,1,66.0000020141602,8|0,0:0|3:0,0:0:0:0:
48,346,238804,2,0,L|36:395,2,33.0000010070801,0|0|8,3:3|3:3|0:3,0:0:0:0:
13,257,239104,1,4,0:3:0:0:
13,257,239179,1,4,0:3:0:0:
13,257,239254,1,8,0:3:0:0:
81,182,239404,6,0,P|94:137|77:105,1,66.0000020141602,2|2,3:2|3:2,0:0:0:0:
39,48,239704,2,0,P|99:92|171:65,1,132.00000402832,14|0,0:0|3:0,0:0:0:0:
237,102,240154,2,0,P|297:58|369:85,1,132.00000402832,10|0,0:0|3:0,0:0:0:0:
429,127,240604,1,8,0:0:0:0:
429,127,240679,1,8,0:0:0:0:
429,127,240754,2,0,P|439:172|430:211,1,66.0000020141602,8|8,0:3|0:3,0:0:0:0:
373,254,241054,2,0,P|371:286|380:318,1,66.0000020141602,4|8,0:3|0:0,0:0:0:0:
452,370,241354,5,6,3:2:0:0:
452,370,242104,5,6,3:2:0:0:
256,192,242254,12,0,247504,0:0:0:0:
