osu file format v14

[General]
AudioFilename: audio.mp3
AudioLeadIn: 0
PreviewTime: 56190
Countdown: 0
SampleSet: Soft
StackLeniency: 0.4
Mode: 0
LetterboxInBreaks: 0
WidescreenStoryboard: 1

[Editor]
Bookmarks: 25190,43940,65990,85190,104425,126025,152233,180654,210654,229854,247554
DistanceSpacing: 0.8
BeatDivisor: 4
GridSize: 16
TimelineZoom: 2

[Metadata]
Title:ATLAS
TitleUnicode:ATLAS
Artist:PassCode
ArtistUnicode:PassCode
Creator:Nao Tomori
Version:Collab Insane
Source:
Tags:japanese rock pop single akitoshi corinn -laura- keevy shiino kowari
BeatmapID:2908826
BeatmapSetID:1385282

[Difficulty]
HPDrainRate:5
CircleSize:4
OverallDifficulty:8
ApproachRate:9
SliderMultiplier:1.7
SliderTickRate:2

[Events]
//Background and Video events
0,0,"genshin bg.jpg",0,0
//Break Periods
2,188004,196204
2,197604,206404
//Storyboard Layer 0 (Background)
//Storyboard Layer 1 (Fail)
//Storyboard Layer 2 (Pass)
//Storyboard Layer 3 (Foreground)
//Storyboard Layer 4 (Overlay)
//Storyboard Sound Samples

[TimingPoints]
-10,300,4,2,0,40,1,0
1640,-100,4,2,5,40,0,0
2390,-133.333333333333,4,2,5,40,0,0
2840,-166.666666666667,4,2,5,40,0,0
3290,-133.333333333333,4,2,5,40,0,0
3590,-133.333333333333,4,2,5,70,0,0
4790,-166.666666666667,4,2,5,60,0,0
11990,-100,4,2,5,80,0,0
13790,-166.666666666667,4,2,5,80,0,0
14390,-90.9090909090909,4,2,5,80,0,0
17015,-90.9090909090909,4,2,5,80,0,0
17090,-90.9090909090909,4,2,5,80,0,0
18065,-90.9090909090909,4,2,5,80,0,0
18140,-90.9090909090909,4,2,5,80,0,0
19790,-83.3333333333333,4,2,5,80,0,0
22640,-200,4,2,5,80,0,0
25190,-133.333333333333,4,2,5,50,0,0
39815,-133.333333333333,4,2,5,5,0,0
39890,-133.333333333333,4,2,5,50,0,0
43790,-90.9090909090909,4,2,5,20,0,0
43940,-90.9090909090909,4,2,5,80,0,0
44240,-90.9090909090909,4,2,5,70,0,0
55190,-166.666666666667,4,2,5,70,0,0
56390,-90.9090909090909,4,2,5,85,0,0
66215,-90.9090909090909,4,2,5,5,0,0
66290,-90.9090909090909,4,2,5,85,0,0
67415,-90.9090909090909,4,2,5,5,0,0
67490,-90.9090909090909,4,2,5,85,0,0
68615,-90.9090909090909,4,2,5,5,0,0
68690,-90.9090909090909,4,2,5,85,0,0
70715,-90.9090909090909,4,2,5,5,0,0
70790,-90.9090909090909,4,2,5,85,0,0
71015,-90.9090909090909,4,2,5,5,0,0
71090,-90.9090909090909,4,2,5,85,0,0
71315,-90.9090909090909,4,2,5,5,0,0
71390,-90.9090909090909,4,2,5,85,0,0
71615,-90.9090909090909,4,2,5,5,0,0
71690,-90.9090909090909,4,2,5,85,0,0
71915,-90.9090909090909,4,2,5,5,0,0
71990,-90.9090909090909,4,2,5,85,0,0
73415,-90.9090909090909,4,2,5,5,0,0
73490,-90.9090909090909,4,2,5,85,0,0
85115,-90.9090909090909,4,2,5,5,0,0
85190,-100,4,2,5,68,0,0
94790,-100,4,2,5,60,0,0
99590,-90.9090909090909,4,2,5,68,0,0
101990,-133.333333333333,4,2,5,68,0,0
102090,-90.9090909090909,4,2,0,45,0,0
103490,-90.9090909090909,4,2,5,68,0,0
103790,-166.666666666667,4,2,5,68,0,0
104390,-133.333333333333,4,2,5,68,0,0
113540,-166.666666666667,4,2,5,68,0,0
115290,-90.9090909090909,4,2,5,8,0,0
115390,-90.9090909090909,4,2,5,68,0,0
115490,-90.9090909090909,4,2,5,8,0,0
115590,-90.9090909090909,4,2,5,68,0,0
115690,-90.9090909090909,4,2,5,8,0,0
115790,-90.9090909090909,4,2,5,68,0,0
115890,-90.9090909090909,4,2,5,8,0,0
115990,-90.9090909090909,4,2,5,68,0,0
116090,-90.9090909090909,4,2,5,8,0,0
116190,-90.9090909090909,4,2,5,68,0,0
116290,-90.9090909090909,4,2,5,8,0,0
116390,-90.9090909090909,4,2,5,85,0,0
131015,-90.9090909090909,4,2,5,5,0,0
131090,-90.9090909090909,4,2,5,85,0,0
131315,-90.9090909090909,4,2,5,5,0,0
131390,-90.9090909090909,4,2,5,85,0,0
131615,-90.9090909090909,4,2,5,5,0,0
131690,-90.9090909090909,4,2,5,85,0,0
131915,-90.9090909090909,4,2,5,5,0,0
131990,-90.9090909090909,4,2,5,85,0,0
135590,-133.333333333333,4,2,5,85,0,0
137988,394.736842105263,4,2,5,80,1,0
137990,-100,4,2,5,80,0,0
165027,-100,4,2,5,5,0,0
165126,-100,4,2,5,80,0,0
165323,-100,4,2,5,5,0,0
165422,-100,4,2,5,80,0,0
165619,-100,4,2,5,5,0,0
165718,-100,4,2,5,80,0,0
166409,-133.333333333333,4,2,5,80,0,0
167988,-100,4,2,5,80,0,0
180619,600,4,2,5,75,1,0
180619,-100,4,2,5,75,0,0
183004,600,4,2,5,50,1,0
183104,-100,4,2,5,40,0,0
207004,-100,4,2,5,60,0,0
209404,300,4,2,5,75,1,0
209404,-100,4,2,5,75,0,0
210604,300,4,2,5,85,1,0
210604,-90.9090909090909,4,2,5,85,0,0
220204,-133.333333333333,4,2,5,85,0,0
220429,-133.333333333333,4,2,5,5,0,0
220504,-133.333333333333,4,2,5,85,0,0
220729,-133.333333333333,4,2,5,5,0,0
220804,-133.333333333333,4,2,5,85,0,0
221029,-133.333333333333,4,2,5,5,0,0
221104,-133.333333333333,4,2,5,85,0,0
221329,-133.333333333333,4,2,5,5,0,0
221404,-133.333333333333,4,2,5,85,0,0
221629,-133.333333333333,4,2,5,5,0,0
221704,-133.333333333333,4,2,5,85,0,0
221929,-133.333333333333,4,2,5,5,0,0
222004,-133.333333333333,4,2,5,85,0,0
222229,-133.333333333333,4,2,5,5,0,0
222304,-133.333333333333,4,2,5,85,0,0
222529,-133.333333333333,4,2,5,5,0,0
222604,-133.333333333333,4,2,5,85,0,0
222829,-133.333333333333,4,2,5,5,0,0
222904,-133.333333333333,4,2,5,85,0,0
223429,-133.333333333333,4,2,5,5,0,0
223504,-133.333333333333,4,2,5,85,0,0
223729,-133.333333333333,4,2,5,5,0,0
223804,-133.333333333333,4,2,5,85,0,0
224029,-133.333333333333,4,2,5,5,0,0
224104,-133.333333333333,4,2,5,85,0,0
224704,-90.9090909090909,4,2,5,85,0,0
224929,-133.333333333333,4,2,5,5,0,0
225004,-133.333333333333,4,2,5,85,0,0
225229,-133.333333333333,4,2,5,5,0,0
225304,-133.333333333333,4,2,5,85,0,0
225529,-133.333333333333,4,2,5,5,0,0
225604,-133.333333333333,4,2,5,85,0,0
225829,-133.333333333333,4,2,5,5,0,0
225904,-133.333333333333,4,2,5,85,0,0
226129,-133.333333333333,4,2,5,5,0,0
226204,-133.333333333333,4,2,5,85,0,0
228604,-90.9090909090909,4,2,5,85,0,0
229729,-133.333333333333,4,2,5,5,0,0
229804,-100,4,2,5,85,0,0
241354,-333.333333333333,4,2,5,85,0,0
241804,300,4,2,5,85,1,0
241804,-100,4,2,5,85,0,0
242104,300,4,2,5,85,1,0
242104,-100,4,2,5,85,0,0
242254,-100,4,2,2,26,0,0

[Colours]
Combo1 : 242,123,123
Combo2 : 185,164,240
Combo3 : 136,227,247
Combo4 : 242,194,96
Combo5 : 220,175,206
Combo6 : 158,243,180

[HitObjects]
298,23,2390,6,0,P|330:15|378:8,2,63.7500024318696,2|0|0,2:2|2:2|2:2,0:0:0:0:
226,70,2840,2,0,P|198:63|166:58,2,50.9999984436036,2|0|0,2:2|2:2|2:2,0:0:0:0:
303,112,3290,2,0,P|336:103|383:97,1,63.7500024318696,2|0,2:2|2:2,0:0:0:0:
238,171,3590,5,2,3:2:0:0:
332,280,3740,1,0,3:2:0:0:
332,280,3815,1,8,0:0:0:0:
332,280,3890,1,8,0:0:0:0:
482,180,4040,5,8,2:3:0:0:
482,180,4115,1,2,2:2:0:0:
482,180,4190,2,0,B|467:242|405:239|405:239|380:186|311:189,1,191.250007295609,4|8,2:3|2:2,0:0:0:0:
253,248,4790,6,0,B|216:270|211:329|211:329|182:298|198:258,1,152.999995330811,6|0,3:2|0:0,0:0:0:0:
131,217,5390,2,0,B|100:196|77:219|77:219|95:228|119:223,1,101.999996887207,10|0,0:0|0:0,0:0:0:0:
199,170,5840,1,8,0:0:0:0:
199,170,5990,2,0,B|212:144|212:144|213:107|177:67,1,101.999996887207,2|0,2:0|3:0,0:0:0:0:
45,53,6590,2,0,P|50:128|108:104,1,152.999995330811,10|0,0:0|0:0,0:0:0:0:
186,77,7190,6,0,B|228:59|269:81|244:100|278:126|337:102,1,152.999995330811,6|0,3:2|0:0,0:0:0:0:
439,34,7790,2,0,B|449:28|450:14|450:14|423:12|396:29|390:64,1,101.999996887207,10|0,0:0|0:0,0:0:0:0:
406,139,8240,1,8,0:0:0:0:
406,139,8390,2,0,P|430:183|435:241,1,101.999996887207,2|0,0:0|3:0,0:0:0:0:
444,316,8990,5,10,2:0:0:0:
314,340,9290,1,0,0:0:0:0:
444,316,9590,6,0,B|389:303|389:303|362:271|362:271|298:259,1,152.999995330811,6|0,3:2|0:3,0:0:0:0:
239,298,10190,2,0,B|203:348|203:348|203:296,1,101.999996887207,10|0,0:2|0:3,0:0:0:0:
177,233,10640,1,8,0:0:0:0:
177,233,10790,2,0,B|144:213|144:213|82:228,1,101.999996887207,2|0,0:2|3:3,0:0:0:0:
5,354,11390,2,0,B|44:380|44:380|25:275,1,152.999995330811,10|0,0:0|0:0,0:0:0:0:
8,194,11990,5,14,0:0:0:0:
82,227,12140,1,0,3:0:0:0:
3,180,12290,1,0,3:0:0:0:
92,107,12440,1,14,0:0:0:0:
179,195,12590,1,0,3:0:0:0:
270,213,12740,1,0,3:0:0:0:
353,143,12890,1,8,2:0:0:0:
316,11,13040,2,0,P|290:4|256:0,1,42.5,0|0,3:0|3:0,0:0:0:0:
429,51,13190,6,0,P|474:46|524:35,1,85,10|8,2:0|0:0,0:0:0:0:
335,130,13490,2,0,P|289:125|240:114,1,85,8|10,2:0|0:0,0:0:0:0:
489,218,13790,6,0,B|493:267|493:267|475:295|475:295|484:372,1,152.999995330811,0|0,0:0|0:0,0:0:0:0:
408,237,14390,5,6,3:2:0:0:
408,237,14465,1,2,0:0:0:0:
408,237,14540,1,2,0:0:0:0:
300,324,14690,1,10,0:0:0:0:
180,245,14840,1,2,0:0:0:0:
280,169,14990,1,0,3:0:0:0:
228,76,15140,1,0,3:0:0:0:
282,0,15290,1,8,0:0:0:0:
173,141,15440,5,2,0:0:0:0:
173,141,15515,1,2,0:0:0:0:
173,141,15590,2,0,P|89:149|-13:91,2,187.000005706787,0|10|2,3:2|0:0|3:2,0:0:0:0:
250,61,16340,1,0,3:0:0:0:
342,104,16490,2,0,B|366:119|393:105|393:105|378:87|350:91,1,93.5000028533936,8|2,0:0|0:0,0:0:0:0:
250,157,16790,6,0,P|232:209|247:312,1,140.25000428009,2|0,3:2|0:0,0:0:0:0:
296,351,17090,6,0,P|326:339|379:338,2,46.7500014266968,8|0|0,0:0|0:0|0:0,0:0:0:0:
215,371,17390,5,2,3:2:0:0:
147,300,17540,1,0,3:0:0:0:
20,372,17690,1,8,2:0:0:0:
66,254,17840,2,0,P|71:206|54:104,1,140.25000428009,2|0,0:0|0:0,0:0:0:0:
58,115,18140,5,2,0:0:0:0:
163,174,18290,2,0,P|214:182|267:165,1,93.5000028533936,8|2,0:0|2:2,0:0:0:0:
332,90,18590,1,0,3:0:0:0:
252,64,18740,1,0,3:0:0:0:
315,9,18890,1,8,0:0:0:0:
443,120,19040,5,8,0:0:0:0:
443,120,19115,1,8,0:0:0:0:
443,120,19190,2,0,P|463:181|463:324,1,187.000005706787,6|10,3:2|0:0,0:0:0:0:
466,302,19640,1,0,0:0:0:0:
363,378,19790,6,0,B|336:362|304:362|304:362|290:351|282:336|282:336|248:334|209:319,1,152.999995330811,2|0,3:2|0:0,0:0:0:0:
226,325,20090,1,10,0:0:0:0:
350,233,20240,1,0,0:0:0:0:
280,129,20390,1,2,3:2:0:0:
203,222,20540,1,2,3:2:0:0:
114,172,20690,1,8,0:0:0:0:
47,316,20840,6,0,B|16:324|-5:305|-5:305|54:241|137:287,1,203.999993774414,2|2,0:0|3:2,0:0:0:0:
226,325,21290,2,0,B|273:341|326:318|326:318|312:358|265:358,1,152.999995330811,10|0,0:0|0:0,0:0:0:0:
293,353,21590,5,2,3:2:0:0:
314,228,21740,1,0,3:0:0:0:
417,301,21890,1,10,0:0:0:0:
417,301,22040,1,0,3:0:0:0:
482,206,22190,5,0,3:0:0:0:
474,176,22265,1,0,3:0:0:0:
471,145,22340,1,8,0:3:0:0:
472,115,22415,1,8,0:3:0:0:
477,85,22490,1,8,0:0:0:0:
365,72,22640,6,0,B|328:155|348:187|442:198|436:278|383:371|267:348|271:235|326:223,1,382.5,6|2,3:2|3:3,0:0:0:0:
313,228,25190,6,0,P|367:235|461:265,1,127.500004863739,6|0,3:2|3:0,0:0:0:0:
256,308,25640,2,0,P|202:315|108:345,1,127.500004863739,2|2,0:0|0:0,0:0:0:0:
60,379,26090,1,0,3:0:0:0:
60,379,26990,2,0,P|71:334|71:304,1,63.7500024318696,0|2,3:0|0:0,0:0:0:0:
27,248,27290,1,0,3:0:0:0:
63,124,27440,6,0,P|100:140|224:46,1,191.250007295609,2|0,0:0|3:0,0:0:0:0:
305,49,28040,2,0,P|313:95|327:187,1,127.500004863739,2|2,0:0|0:0,0:0:0:0:
403,216,28490,1,0,3:0:0:0:
457,145,28640,2,0,P|447:191|414:347,1,191.250007295609,2|0,0:0|3:0,0:0:0:0:
417,332,29840,1,2,0:0:0:0:
430,347,29915,1,0,0:0:0:0:
445,364,29990,6,0,P|411:358|293:343,1,127.500004863739,0|0,3:2|3:0,0:0:0:0:
247,302,30440,2,0,B|201:329|192:335|129:374,1,127.500004863739,2|2,0:0|0:0,0:0:0:0:
59,334,30890,1,0,3:0:0:0:
59,334,31790,2,0,P|49:296|43:262,1,63.7500024318696,0|2,3:0|0:0,0:0:0:0:
118,188,32090,2,0,P|128:226|134:260,1,63.7500024318696,0|2,3:0|0:0,0:0:0:0:
213,193,32390,6,0,P|265:214|396:271,1,191.250007295609,0|2,3:0|0:0,0:0:0:0:
315,281,32990,2,0,P|374:262|506:203,1,191.250007295609,0|2,3:0|0:0,0:0:0:0:
494,116,33590,2,0,P|483:78|468:38,1,63.7500024318696,0|2,3:0|0:0,0:0:0:0:
375,31,33890,2,0,P|386:69|401:109,1,63.7500024318696,0|2,3:0|0:0,0:0:0:0:
340,154,34190,2,0,B|302:148|271:163|244:204,2,95.6250036478044,0|2|2,3:0|0:0|0:0,0:0:0:0:
241,284,34790,6,0,B|204:279|182:255|195:251|176:220|117:218,1,127.500004863739,6|0,3:2|3:0,0:0:0:0:
282,367,35240,2,0,P|324:352|427:324,1,127.500004863739,2|2,0:0|0:0,0:0:0:0:
484,362,35690,1,0,3:0:0:0:
484,362,36515,1,2,0:0:0:0:
505,344,36590,2,0,P|499:297|491:261,1,63.7500024318696,0|2,3:0|0:0,0:0:0:0:
414,244,36890,2,0,P|408:197|400:161,1,63.7500024318696,0|2,3:0|0:0,0:0:0:0:
486,87,37190,6,0,B|458:152|403:149|403:149|382:104|324:96,1,191.250007295609,0|2,3:0|0:0,0:0:0:0:
262,134,37790,2,0,B|184:174|184:174|183:182|183:182|85:235,1,191.250007295609,0|2,3:0|0:0,0:0:0:0:
18,188,38390,2,0,B|-24:138|-29:31|72:-4|95:29|90:81,1,255.000009727478,0|0,3:0|3:0,0:0:0:0:
90,73,39290,1,0,3:0:0:0:
137,141,39590,6,0,P|181:151|223:137,1,63.7500024318696,4|0,3:2|0:0,0:0:0:0:
335,95,39890,2,0,L|247:80,1,63.7500024318696,0|2,3:0|0:0,0:0:0:0:
368,181,40190,2,0,B|418:168|418:168|435:148|435:148|492:135,1,127.500004863739,0|0,3:0|3:0,0:0:0:0:
407,254,40790,2,0,P|357:217|285:232,1,127.500004863739,0|0,3:0|3:0,0:0:0:0:
160,296,41390,2,0,L|167:379,1,63.7500024318696,0|2,3:0|0:0,0:0:0:0:
71,275,41690,2,0,L|78:358,1,63.7500024318696,0|2,3:0|0:0,0:0:0:0:
12,219,41990,6,0,B|6:183|-7:163|-7:163|49:25,1,191.250007295609,0|2,3:0|0:0,0:0:0:0:
118,111,42590,2,0,B|158:117|194:86|194:86|199:62|199:62|226:24|291:32,1,191.250007295609,0|2,3:0|0:0,0:0:0:0:
355,78,43190,2,0,P|374:124|384:155,1,63.7500024318696,0|2,3:0|0:0,0:0:0:0:
456,72,43490,2,0,P|475:26|485:-5,1,63.7500024318696,0|0,3:0|0:0,0:0:0:0:
479,12,43940,5,8,0:0:0:0:
451,159,44090,2,0,L|471:218,1,46.7500014266968,8|0,0:0|0:0,0:0:0:0:
501,221,44240,6,0,B|426:235|426:235|404:269|404:269|319:290,1,187.000005706787,6|0,3:2|3:0,0:0:0:0:
335,285,44690,1,8,0:0:0:0:
257,226,44840,1,2,0:0:0:0:
257,226,44915,1,2,0:0:0:0:
257,226,44990,1,2,3:2:0:0:
348,102,45140,1,2,3:2:0:0:
75,232,45365,5,2,0:0:0:0:
74,246,45440,2,0,B|80:272|109:288|109:288|93:217|144:167,1,187.000005706787,2|2,3:2|3:2,0:0:0:0:
205,129,45890,1,8,0:0:0:0:
45,123,46040,1,2,3:2:0:0:
45,123,46115,1,0,3:2:0:0:
45,123,46190,1,0,3:0:0:0:
91,7,46340,1,0,3:0:0:0:
91,7,46490,1,8,0:0:0:0:
205,129,46640,6,0,B|260:135|284:99|284:99|287:87|287:87|315:49|386:57,1,187.000005706787,6|0,3:2|3:0,0:0:0:0:
441,113,47090,2,0,B|484:151|455:174|475:201|505:132|487:103,1,93.5000028533936,10|0,0:0|0:0,0:0:0:0:
387,176,47315,1,2,0:0:0:0:
387,176,47390,1,2,3:2:0:0:
471,251,47540,1,2,3:2:0:0:
367,368,47690,2,0,L|356:313,1,46.7500014266968,8|0,0:0|0:0,0:0:0:0:
232,347,47840,6,0,B|299:327|299:327|321:295|321:295|414:268,1,187.000005706787,2|2,3:2|3:2,0:0:0:0:
395,273,48290,1,8,0:0:0:0:
295,191,48440,6,0,B|258:168|225:167|225:167|216:151|201:136|201:136|164:136|113:112,1,187.000005706787,2|0,3:2|3:0,0:0:0:0:
130,119,48890,1,8,0:0:0:0:
35,292,49040,2,0,B|77:321|77:321|69:269|69:269|73:238|73:238|64:170,1,187.000005706787,6|0,3:2|3:0,0:0:0:0:
36,103,49490,5,10,0:0:0:0:
127,46,49640,1,0,0:0:0:0:
208,78,49790,5,2,3:2:0:0:
316,100,49940,1,0,3:2:0:0:
294,208,50090,1,8,2:2:0:0:
186,186,50240,2,0,P|137:208|117:344,1,187.000005706787,6|2,3:2|3:2,0:0:0:0:
108,328,50690,5,8,0:0:0:0:
211,294,50840,1,2,3:2:0:0:
211,294,50915,1,0,3:0:0:0:
211,294,50990,1,0,3:2:0:0:
349,358,51140,1,0,0:0:0:0:
260,384,51290,1,10,0:0:0:0:
330,279,51440,6,0,B|345:242|345:242|349:164|281:106,1,187.000005706787,6|0,3:2|0:0,0:0:0:0:
206,73,51890,2,0,P|197:119|198:175,1,93.5000028533936,8|0,0:0|0:0,0:0:0:0:
122,70,52190,2,0,P|113:116|114:172,1,93.5000028533936,0|2,3:0|3:2,0:0:0:0:
41,59,52490,1,8,2:0:0:0:
11,193,52640,5,2,3:2:0:0:
11,193,52715,1,0,3:0:0:0:
11,193,52790,1,0,3:2:0:0:
156,262,52940,1,0,3:2:0:0:
66,301,53090,1,8,0:0:0:0:
66,301,53240,1,0,0:0:0:0:
132,177,53390,2,0,P|184:147|247:145,1,93.5000028533936,0|0,3:0|3:0,0:0:0:0:
346,221,53690,1,8,0:0:0:0:
350,239,53765,1,8,0:3:0:0:
352,256,53840,1,4,0:3:0:0:
301,342,53990,5,2,3:2:0:0:
166,304,54140,1,0,3:0:0:0:
268,235,54290,1,10,2:2:0:0:
215,373,54440,1,0,3:0:0:0:
118,231,54590,6,0,L|112:172,3,46.7500014266968,8|8|4|4,2:3|2:3|0:3|0:3,0:0:0:0:
188,144,54890,1,8,0:3:0:0:
188,144,54965,1,8,0:3:0:0:
188,144,55040,2,0,L|194:74,1,46.7500014266968,4|4,0:3|0:3,0:0:0:0:
295,42,55190,6,0,B|332:14|332:14|281:18|281:18|273:14|273:14|225:17|225:17|218:20|218:20|156:23,1,203.999993774414,6|0,3:2|0:0,0:0:0:0:
176,22,55940,1,0,0:0:0:0:
318,126,56240,5,0,0:0:0:0:
318,126,56390,2,0,P|372:112|425:114,1,93.5000028533936,6|0,3:2|3:2,0:0:0:0:
198,126,56690,2,0,P|144:112|91:114,1,93.5000028533936,0|0,3:2|3:2,0:0:0:0:
347,218,56990,6,0,P|395:223|451:214,1,93.5000028533936,10|0,2:2|3:2,0:0:0:0:
169,218,57290,2,0,P|121:223|65:214,1,93.5000028533936,0|0,3:2|3:2,0:0:0:0:
367,323,57590,6,0,P|413:330|468:349,1,93.5000028533936,2|0,3:2|3:2,0:0:0:0:
145,323,57890,2,0,P|99:330|44:349,1,93.5000028533936,0|0,3:2|3:2,0:0:0:0:
296,131,58190,5,10,2:2:0:0:
319,229,58340,1,0,3:2:0:0:
196,154,58490,1,0,3:2:0:0:
219,253,58640,1,0,3:2:0:0:
309,131,58790,5,6,3:2:0:0:
318,241,58940,1,0,3:0:0:0:
196,141,59090,1,0,3:2:0:0:
206,252,59240,1,0,3:0:0:0:
322,134,59390,5,10,0:0:0:0:
316,254,59540,1,0,3:2:0:0:
198,128,59690,1,0,3:2:0:0:
193,250,59840,1,0,3:2:0:0:
390,198,59990,6,0,P|458:196|491:199,1,93.5000028533936,2|0,3:2|3:2,0:0:0:0:
122,186,60290,2,0,P|54:188|21:185,1,93.5000028533936,2|0,3:2|3:2,0:0:0:0:
197,41,60590,5,10,2:0:0:0:
293,104,60740,1,0,3:0:0:0:
375,27,60890,2,0,P|426:11|478:19,1,93.5000028533936,0|0,3:2|3:0,0:0:0:0:
491,211,61190,6,0,P|451:179|401:169,1,93.5000028533936,6|0,3:2|3:2,0:0:0:0:
293,104,61490,2,0,P|245:122|211:160,1,93.5000028533936,2|0,3:2|3:2,0:0:0:0:
101,221,61790,2,0,P|93:271|109:319,1,93.5000028533936,10|0,2:2|3:2,0:0:0:0:
297,361,62090,5,2,3:2:0:0:
208,332,62240,1,0,3:2:0:0:
208,238,62390,1,0,3:2:0:0:
297,209,62540,1,0,3:0:0:0:
351,285,62690,2,0,B|382:292|401:306|401:306|422:302|444:305,1,93.5000028533936,2|2,3:2|3:2,0:0:0:0:
208,332,62990,2,0,B|171:342|137:328|137:328|152:354,1,93.5000028533936,10|0,0:0|3:0,0:0:0:0:
297,361,63290,1,0,3:0:0:0:
297,361,63440,1,0,3:0:0:0:
208,238,63590,6,0,P|205:176|231:138,1,93.5000028533936,6|0,3:2|3:2,0:0:0:0:
58,110,63890,2,0,P|113:138|133:179,1,93.5000028533936,2|0,3:2|3:2,0:0:0:0:
244,44,64190,2,0,P|191:77|145:74,1,93.5000028533936,10|0,0:0|3:2,0:0:0:0:
314,126,64490,5,2,3:2:0:0:
397,74,64640,1,0,3:2:0:0:
429,210,64790,5,2,0:0:0:0:
399,204,64865,1,2,0:0:0:0:
370,201,64940,1,8,0:0:0:0:
340,200,65015,1,8,0:0:0:0:
310,202,65090,2,0,P|303:231|300:263,1,46.7500014266968,8|0,0:0|3:3,0:0:0:0:
217,290,65240,2,0,P|215:258|207:229,1,46.7500014266968,0|0,3:3|3:3,0:0:0:0:
132,156,65390,5,8,0:3:0:0:
132,156,65465,1,8,0:3:0:0:
132,156,65540,2,0,P|125:182|122:208,1,46.7500014266968,4|4,0:3|0:3,0:0:0:0:
56,252,65690,2,0,P|63:281|66:304,1,46.7500014266968,10|8,2:2|0:0,0:0:0:0:
116,364,65840,1,10,0:0:0:0:
217,290,65990,6,0,B|257:308|313:301|303:266|349:256|419:290,1,187.000005706787,6|8,3:2|0:0,0:0:0:0:
348,361,66440,1,2,0:0:0:0:
258,207,66590,2,0,P|247:161|230:96,1,93.5000028533936,0|0,3:0|3:0,0:0:0:0:
160,192,66890,1,8,0:0:0:0:
342,138,67040,1,2,0:0:0:0:
160,192,67190,2,0,P|149:146|132:81,1,93.5000028533936,2|0,3:2|0:0,0:0:0:0:
235,116,67490,1,8,0:0:0:0:
68,199,67640,1,2,0:0:0:0:
235,116,67790,6,0,B|292:125|292:125|326:161|326:161|425:176,1,187.000005706787,0|8,3:0|0:0,0:0:0:0:
467,94,68240,1,2,0:0:0:0:
310,183,68390,2,0,B|296:226|296:226|327:278,1,93.5000028533936,6|0,3:2|0:0,0:0:0:0:
467,94,68690,2,0,B|481:51|481:51|450:-1,1,93.5000028533936,8|2,0:0|0:0,0:0:0:0:
132,81,68990,6,0,L|122:214,1,93.5000028533936,0|0,3:0|3:0,0:0:0:0:
234,115,69290,2,0,L|242:22,1,93.5000028533936,8|2,0:0|0:0,0:0:0:0:
17,179,69590,6,0,P|-1:234|73:356,1,187.000005706787,2|8,3:2|0:0,0:0:0:0:
376,247,70040,2,0,P|394:192|320:70,1,187.000005706787,2|0,0:0|3:0,0:0:0:0:
208,196,70490,2,0,B|213:241|202:264|208:311,1,93.5000028533936,8|0,0:0|0:0,0:0:0:0:
429,364,70790,6,0,P|471:341|462:268,1,93.5000028533936,6|0,3:2|0:0,0:0:0:0:
341,212,71090,2,0,B|346:257|335:280|341:327,1,93.5000028533936,8|0,0:0|0:0,0:0:0:0:
379,123,71390,2,0,B|351:106|351:106|264:138,1,93.5000028533936,0|0,3:0|0:0,0:0:0:0:
237,249,71690,6,0,B|182:260|141:224|168:213|115:165|55:188,2,187.000005706787,8|6|8,0:0|3:2|0:0,0:0:0:0:
341,212,72440,1,2,0:0:0:0:
461,259,72590,2,0,P|480:314|478:375,1,93.5000028533936,0|0,3:0|3:0,0:0:0:0:
481,348,72890,1,8,0:0:0:0:
392,38,73190,6,0,P|322:58|280:72,1,93.5000028533936,6|0,3:2|0:0,0:0:0:0:
302,167,73490,2,0,P|346:153|391:140,1,93.5000028533936,10|0,0:0|0:0,0:0:0:0:
179,45,73790,2,0,B|137:24|137:24|88:35,1,93.5000028533936,2|0,3:2|3:0,0:0:0:0:
77,133,74090,2,0,B|119:154|119:154|168:143,1,93.5000028533936,10|0,0:0|0:0,0:0:0:0:
77,133,74390,6,0,L|104:329,1,187.000005706787,0|8,3:0|0:0,0:0:0:0:
3,235,74840,1,2,0:0:0:0:
198,302,74990,1,8,0:0:0:0:
216,310,75090,2,0,P|224:345|228:378,1,62.3333352355958,8|8,0:0|0:0,0:0:0:0:
278,249,75290,1,8,3:3:0:0:
296,257,75390,2,0,P|304:292|308:325,1,62.3333352355958,8|8,3:3|3:3,0:0:0:0:
415,370,75590,6,0,P|433:293|441:260,1,93.5000028533936,6|0,3:2|3:0,0:0:0:0:
389,85,75890,2,0,P|371:162|363:195,1,93.5000028533936,0|0,3:0|3:0,0:0:0:0:
238,325,76190,2,0,P|256:248|264:215,1,93.5000028533936,12|0,0:0|3:0,0:0:0:0:
212,40,76490,2,0,P|194:117|186:150,1,93.5000028533936,0|0,3:0|3:0,0:0:0:0:
10,217,76790,6,0,P|43:192|121:204,1,93.5000028533936,6|0,3:2|3:0,0:0:0:0:
125,292,77090,2,0,P|92:317|14:305,1,93.5000028533936,0|0,3:0|3:0,0:0:0:0:
88,78,77390,1,12,0:0:0:0:
189,200,77540,1,0,3:0:0:0:
241,114,77690,2,0,L|364:132,1,93.5000028533936,0|0,3:0|3:0,0:0:0:0:
475,185,77990,6,0,B|415:199|415:199|390:244|390:244|286:271,2,187.000005706787,6|0|12,3:2|3:0|0:0,0:0:0:0:
390,338,78740,1,0,3:0:0:0:
422,85,78890,1,0,3:0:0:0:
318,262,79040,2,0,B|264:275|264:275|226:241,1,93.5000028533936,0|6,3:0|3:2,0:0:0:0:
282,170,79340,1,0,3:0:0:0:
207,349,79490,1,0,3:0:0:0:
126,208,79640,2,0,P|51:199|18:234,1,93.5000028533936,0|12,3:0|0:2,0:0:0:0:
82,289,79940,1,0,3:0:0:0:
144,106,80090,2,0,P|79:89|26:80,1,93.5000028533936,0|0,3:2|3:0,0:0:0:0:
257,232,80390,6,0,B|318:218|349:174|314:177|345:125|415:123,2,187.000005706787,6|0|12,3:2|3:0|0:0,0:0:0:0:
292,73,81140,1,0,3:0:0:0:
421,218,81290,2,0,P|470:228|520:178,1,93.5000028533936,0|0,3:0|3:0,0:0:0:0:
399,124,81590,5,6,3:2:0:0:
363,291,81740,1,0,3:0:0:0:
421,218,81890,1,0,3:2:0:0:
314,193,82040,2,0,P|240:218|112:261,1,187.000005706787,0|0,3:0|3:0,0:0:0:0:
97,164,82490,2,0,P|171:139|299:96,1,187.000005706787,0|6,3:2|3:2,0:0:0:0:
303,18,82940,1,0,3:0:0:0:
387,67,83090,2,0,L|427:226,1,140.25000428009,0|0,3:2|0:0,0:0:0:0:
393,280,83390,6,0,B|379:326|379:326|423:380,1,93.5000028533936,12|0,0:0|3:0,0:0:0:0:
492,351,83690,2,0,B|506:305|506:305|462:251,1,93.5000028533936,12|0,0:0|3:0,0:0:0:0:
315,202,83990,5,8,0:0:0:0:
315,202,84065,1,8,3:0:0:0:
315,202,84140,1,8,3:0:0:0:
315,202,84215,1,8,3:0:0:0:
315,202,84290,6,0,P|284:227|252:233,1,46.7500014266968,8|4,3:0|3:0,0:0:0:0:
189,191,84440,1,8,0:0:0:0:
189,191,84515,1,8,3:0:0:0:
189,191,84590,1,8,3:0:0:0:
189,191,84665,1,8,3:0:0:0:
189,191,84740,6,0,P|158:166|126:160,1,46.7500014266968,8|4,3:0|3:0,0:0:0:0:
67,188,84890,2,0,P|28:246|65:310,1,140.25000428009,12|0,0:0|0:0,0:0:0:0:
204,357,85190,6,0,P|270:322|370:286,1,170,2|8,3:2|0:0,0:0:0:0:
479,225,85640,2,0,B|462:163|394:170|394:170|375:202|334:200,1,170,2|2,0:0|0:0,0:0:0:0:
256,163,86090,1,2,0:0:0:0:
363,94,86240,6,0,P|377:60|385:-4,1,85,8|0,0:0|0:0,0:0:0:0:
278,81,86540,2,0,P|271:122|255:162,1,85,2|8,0:0|0:0,0:0:0:0:
162,249,86840,1,2,0:0:0:0:
105,188,86990,1,0,3:0:0:0:
84,263,87140,1,0,3:0:0:0:
183,150,87290,1,10,0:0:0:0:
248,277,87440,1,8,2:0:0:0:
248,277,87515,1,8,0:0:0:0:
248,277,87590,6,0,P|184:292|126:331,1,127.5,2|0,3:2|0:0,0:0:0:0:
132,324,87890,1,8,0:0:0:0:
90,181,88040,2,0,B|109:144|109:144|104:195,1,85,2|0,0:0|3:0,0:0:0:0:
15,222,88340,1,2,3:2:0:0:
15,222,88490,1,2,0:0:0:0:
120,52,88640,6,0,P|78:58|41:78,1,85,8|0,0:0|0:0,0:0:0:0:
183,150,88940,1,0,3:0:0:0:
256,42,89090,1,10,0:0:0:0:
256,42,89240,1,0,0:0:0:0:
365,119,89390,1,0,3:0:0:0:
393,46,89540,1,0,3:0:0:0:
286,121,89690,1,8,0:0:0:0:
361,215,89840,1,2,0:0:0:0:
469,145,89990,6,0,P|440:234|436:318,1,170,6|8,3:2|0:0,0:0:0:0:
367,346,90440,2,0,B|310:326|310:326|264:356|264:356|210:337,1,170,2|0,0:0|3:2,0:0:0:0:
163,264,90890,1,2,0:0:0:0:
245,181,91040,5,8,0:0:0:0:
245,181,91340,5,0,3:0:0:0:
178,136,91490,1,8,0:0:0:0:
249,104,91640,1,0,0:0:0:0:
354,160,91790,6,0,P|396:144|444:146,1,85,2|0,0:0|3:0,0:0:0:0:
418,48,92090,2,0,P|376:64|328:62,1,85,10|0,0:0|0:0,0:0:0:0:
245,181,92390,6,0,P|198:133|117:101,1,127.5,2|0,3:2|0:0,0:0:0:0:
144,106,92690,1,8,0:0:0:0:
39,30,92840,1,2,0:0:0:0:
39,30,92915,1,2,0:0:0:0:
39,30,92990,5,2,0:0:0:0:
112,9,93140,1,0,3:0:0:0:
21,36,93290,1,0,3:0:0:0:
113,182,93440,6,0,P|98:230|91:271,1,85,10|0,0:0|0:0,0:0:0:0:
36,151,93740,2,0,P|21:199|14:240,1,85,10|0,0:0|0:0,0:0:0:0:
172,99,94040,5,8,2:3:0:0:
113,182,94190,1,0,0:0:0:0:
62,75,94340,1,4,2:3:0:0:
216,165,94490,1,8,0:0:0:0:
240,159,94565,1,8,0:0:0:0:
264,153,94640,1,8,0:0:0:0:
288,147,94715,1,8,0:0:0:0:
315,141,94790,6,0,B|353:115|391:145|391:145|390:151|390:151|401:186|461:198,1,170,2|0,3:2|3:0,0:0:0:0:
506,143,95240,1,2,0:0:0:0:
454,28,95390,2,0,P|407:31|378:55,1,85,2|0,3:2|0:0,0:0:0:0:
434,110,95690,1,0,3:0:0:0:
434,110,95840,1,2,0:0:0:0:
336,213,95990,6,0,P|268:170|179:146,1,170,4|0,3:2|3:0,0:0:0:0:
182,146,96590,6,0,P|162:97|141:64,1,85,0|0,3:0|0:0,0:0:0:0:
207,0,96890,2,0,P|228:36|243:76,1,85,2|0,3:2|0:0,0:0:0:0:
362,142,97190,6,0,B|337:189|337:189|358:237|358:237|328:299,1,170,6|0,3:2|3:0,0:0:0:0:
379,354,97640,1,8,0:3:0:0:
252,275,97790,1,2,3:2:0:0:
200,331,97940,1,8,0:3:0:0:
277,363,98090,1,4,0:3:0:0:
382,226,98240,6,0,P|436:198|515:205,1,127.5,6|0,3:2|0:0,0:0:0:0:
502,201,98540,2,0,L|481:275,1,42.5,0|0,3:0|3:0,0:0:0:0:
430,291,98690,5,8,0:0:0:0:
316,182,98840,1,0,0:0:0:0:
378,135,98990,1,0,3:0:0:0:
378,135,99065,1,0,3:0:0:0:
378,135,99140,2,0,P|365:98|357:81,1,42.5,8|4,0:3|0:3,0:0:0:0:
292,60,99290,6,0,P|250:53|211:37,1,85,10|2,0:0|0:0,0:0:0:0:
64,92,99590,6,0,B|50:67|24:52|24:52|95:46|160:143,1,187.000005706787,6|8,3:2|0:0,0:0:0:0:
245,220,100040,2,0,P|186:225|141:243,1,93.5000028533936,2|0,0:0|0:0,0:0:0:0:
26,165,100340,1,2,3:2:0:0:
42,246,100490,2,0,P|34:266|23:297,2,46.7500014266968,8|0|0,0:0|0:0|0:0,0:0:0:0:
134,109,100790,5,2,3:2:0:0:
199,150,100940,1,0,3:0:0:0:
305,106,101090,6,0,P|370:86|461:87,1,140.25000428009,8|0,2:2|0:0,0:0:0:0:
500,34,101390,2,0,B|476:9|476:9|445:6,1,62.3333352355958,8|0,0:0|3:0,0:0:0:0:
386,134,101590,1,8,0:3:0:0:
386,134,101690,2,0,B|409:158|409:158|440:161,2,62.3333352355958,4|0|0,0:3|0:0|0:0,0:0:0:0:
270,38,101990,6,0,B|229:145|340:109|294:241,1,191.250007295609,6|0,3:2|0:0,0:0:0:0:
221,310,102590,1,2,0:0:0:0:
221,310,103190,1,2,0:0:0:0:
283,352,103490,6,0,P|325:320|362:309,2,62.3333352355958,0|0|0,3:0|3:0|3:0,0:0:0:0:
243,226,103790,6,0,B|200:189|200:189|221:315,1,178.499994552612,4|0,0:3|0:0,0:0:0:0:
168,368,104390,5,6,3:2:0:0:
93,338,104540,1,0,3:0:0:0:
90,350,104690,1,0,3:0:0:0:
14,377,104840,2,0,B|0:355|0:355|12:300,1,63.7500024318696,0|12,3:0|0:0,0:0:0:0:
60,188,105140,2,0,B|74:210|74:210|65:246,1,63.7500024318696,0|0,3:0|0:0,0:0:0:0:
0,142,105440,6,0,P|24:118|63:115,1,63.7500024318696,0|0,3:0|0:0,0:0:0:0:
128,145,105740,1,0,3:0:0:0:
177,26,105890,1,0,3:0:0:0:
261,124,106040,1,0,3:0:0:0:
321,69,106190,2,0,B|354:56|387:45,1,63.7500024318696,12|0,0:0|3:0,0:0:0:0:
393,133,106490,2,0,B|419:141|452:154,1,63.7500024318696,0|0,0:0|3:0,0:0:0:0:
332,201,106790,5,6,0:0:0:0:
404,248,106940,2,0,P|419:292|419:321,1,63.7500024318696,0|0,3:0|3:0,0:0:0:0:
328,212,107240,1,0,3:0:0:0:
264,271,107390,2,0,B|237:282|237:282|178:264,1,63.7500024318696,12|0,0:0|3:0,0:0:0:0:
58,235,107690,2,0,B|92:225|92:225|119:236,1,63.7500024318696,0|0,0:0|3:0,0:0:0:0:
18,370,107990,6,0,L|9:308,1,63.7500024318696,0|0,0:0|3:0,0:0:0:0:
203,271,108290,2,0,L|193:208,1,63.7500024318696,0|0,3:0|3:0,0:0:0:0:
349,333,108590,1,12,0:0:0:0:
349,333,108740,2,0,B|366:272|366:272|364:272|364:272|382:199,1,127.500004863739,2|0,0:0|0:0,0:0:0:0:
441,157,109190,5,6,3:2:0:0:
395,91,109340,1,0,3:0:0:0:
379,86,109490,1,0,3:2:0:0:
439,24,109640,2,0,B|467:10|467:10|467:9|457:53,1,63.7500024318696,0|12,3:0|0:0,0:0:0:0:
314,147,109940,2,0,P|275:140|242:106,1,63.7500024318696,0|0,3:0|0:0,0:0:0:0:
237,50,110240,1,0,3:0:0:0:
194,181,110390,6,0,L|206:271,1,63.7500024318696,0|0,0:0|3:0,0:0:0:0:
126,289,110690,2,0,L|118:226,1,63.7500024318696,0|0,0:0|3:0,0:0:0:0:
291,327,110990,1,12,0:0:0:0:
272,340,111140,2,0,B|297:203|297:203,1,127.500004863739,0|0,3:0|3:0,0:0:0:0:
194,181,111590,5,6,0:0:0:0:
118,225,111740,2,0,P|56:224|21:274,1,127.500004863739,0|0,3:0|3:0,0:0:0:0:
21,274,112190,1,12,0:0:0:0:
126,133,112340,6,0,P|119:78|110:44,1,63.7500024318696,0|0,3:0|0:0,0:0:0:0:
235,50,112640,2,0,P|237:81|243:113,1,63.7500024318696,0|0,3:0|0:0,0:0:0:0:
328,135,112940,2,0,B|361:125|397:156|381:165|406:193|455:187,1,127.500004863739,0|0,3:0|3:0,0:0:0:0:
456,104,113390,1,12,0:0:0:0:
398,261,113540,6,0,P|311:287|241:328,1,152.999995330811,6|6,0:0|3:2,0:0:0:0:
20,267,115040,1,0,3:0:0:0:
25,277,115115,1,0,3:0:0:0:
31,290,115190,5,12,0:0:0:0:
116,248,115390,1,4,3:0:0:0:
93,165,115590,1,4,3:0:0:0:
200,74,115790,5,4,3:0:0:0:
285,116,115990,1,4,3:0:0:0:
262,199,116190,1,4,3:0:0:0:
397,321,116390,6,0,P|451:339|490:315,1,93.5000028533936,6|0,3:2|3:0,0:0:0:0:
486,234,116690,2,0,P|432:216|393:240,1,93.5000028533936,2|0,3:2|3:0,0:0:0:0:
253,330,116990,2,0,B|228:346|228:346|140:327,1,93.5000028533936,10|0,3:2|3:0,0:0:0:0:
161,251,117290,2,0,B|186:235|186:235|274:254,1,93.5000028533936,2|0,3:2|3:0,0:0:0:0:
16,193,117590,6,0,B|9:144|0:100,1,93.5000028533936,2|0,3:2|3:0,0:0:0:0:
97,74,117890,2,0,B|104:123|113:167,1,93.5000028533936,2|0,3:2|3:0,0:0:0:0:
361,160,118190,2,0,B|368:111|377:67,1,93.5000028533936,10|0,3:2|3:0,0:0:0:0:
280,41,118490,2,0,B|273:90|264:134,1,93.5000028533936,2|0,3:2|3:0,0:0:0:0:
145,363,118790,6,0,P|119:323|139:266,1,93.5000028533936,6|0,3:2|3:0,0:0:0:0:
200,204,119090,2,0,P|247:201|287:247,1,93.5000028533936,2|0,3:2|3:0,0:0:0:0:
303,320,119390,2,0,B|354:327|343:351|424:355,1,93.5000028533936,10|0,3:2|3:0,0:0:0:0:
127,280,119690,2,0,B|76:287|87:311|6:315,1,93.5000028533936,2|0,3:2|3:0,0:0:0:0:
307,229,119990,6,0,B|317:177|329:151|339:131,1,93.5000028533936,2|0,3:2|3:0,0:0:0:0:
130,195,120290,2,0,B|120:143|108:117|98:97,1,93.5000028533936,2|0,3:2|3:0,0:0:0:0:
252,80,120590,2,0,B|236:159|236:159|238:164|238:164|212:299,1,187.000005706787,10|0,3:2|3:2,0:0:0:0:
218,263,121040,1,0,3:0:0:0:
434,360,121190,5,6,3:2:0:0:
480,287,121340,1,0,3:0:0:0:
386,281,121490,1,0,3:2:0:0:
432,208,121640,1,0,3:0:0:0:
423,362,121790,5,10,3:2:0:0:
469,289,121940,1,0,3:0:0:0:
375,283,122090,1,2,3:2:0:0:
421,210,122240,1,0,3:0:0:0:
345,84,122390,6,0,B|315:67|315:67|233:90,1,93.5000028533936,0|0,3:0|3:0,0:0:0:0:
195,154,122690,1,2,3:2:0:0:
105,132,122840,1,2,3:2:0:0:
68,25,122990,2,0,B|64:10|72:-7|72:-7|147:46|92:162,1,187.000005706787,10|0,3:2|3:0,0:0:0:0:
39,197,123440,1,0,3:0:0:0:
121,342,123590,6,0,B|151:355|151:355|217:326,1,93.5000028533936,6|0,3:2|3:0,0:0:0:0:
240,242,123890,2,0,B|210:229|210:229|144:258,1,93.5000028533936,0|0,3:2|3:0,0:0:0:0:
301,310,124190,2,0,L|413:336,1,93.5000028533936,10|0,3:2|3:0,0:0:0:0:
335,227,124490,2,0,L|447:253,1,93.5000028533936,2|0,3:2|3:0,0:0:0:0:
487,170,124790,5,6,3:2:0:0:
506,128,124865,1,0,3:0:0:0:
494,84,124940,1,8,0:0:0:0:
456,59,125015,1,8,0:0:0:0:
410,65,125090,5,8,0:0:0:0:
400,69,125165,1,0,3:0:0:0:
389,74,125240,1,0,3:0:0:0:
378,79,125315,1,0,3:0:0:0:
366,83,125390,6,0,L|352:36,3,46.7500014266968,8|8|4|4,0:3|0:3|0:3|0:3,0:0:0:0:
277,81,125690,2,0,L|263:34,3,46.7500014266968,10|8|10|8,0:0|0:0|0:0|0:0,0:0:0:0:
181,20,125990,6,0,P|111:38|101:73,1,93.5000028533936,6|0,3:2|0:0,0:0:0:0:
46,194,126290,1,8,0:0:0:0:
177,162,126440,1,2,0:0:0:0:
46,194,126590,6,0,P|91:208|141:234,1,93.5000028533936,2|0,0:0|3:0,0:0:0:0:
334,158,126890,1,8,0:0:0:0:
237,268,127040,1,2,0:0:0:0:
334,158,127190,6,0,P|289:172|239:198,1,93.5000028533936,0|0,3:2|0:0,0:0:0:0:
305,319,127490,2,0,P|346:298|391:284,1,93.5000028533936,10|0,0:0|0:0,0:0:0:0:
177,162,127790,6,0,P|214:247|226:343,1,187.000005706787,2|8,3:2|0:0,0:0:0:0:
129,251,128240,1,0,0:0:0:0:
274,103,128390,6,0,P|254:170|241:210,1,93.5000028533936,2|0,3:2|0:0,0:0:0:0:
338,223,128690,2,0,P|352:178|365:133,1,93.5000028533936,10|0,0:0|0:0,0:0:0:0:
97,22,128990,6,0,B|72:61|72:61|108:113,1,93.5000028533936,2|0,3:2|3:0,0:0:0:0:
173,95,129290,2,0,B|198:56|198:56|162:4,1,93.5000028533936,10|0,0:0|0:0,0:0:0:0:
0,160,129590,6,0,B|46:138|77:187|77:187|71:195|71:195|80:248|138:251,1,187.000005706787,2|8,3:2|0:0,0:0:0:0:
307,21,130040,2,0,P|255:7|175:114,1,187.000005706787,2|0,2:0|3:2,0:0:0:0:
277,157,130490,2,0,P|319:136|366:133,1,93.5000028533936,8|0,0:0|0:0,0:0:0:0:
216,273,130790,6,0,P|173:252|126:249,1,93.5000028533936,6|0,3:2|0:0,0:0:0:0:
277,157,131090,2,0,B|308:195|308:195|282:245,1,93.5000028533936,10|0,0:0|0:0,0:0:0:0:
169,172,131390,2,0,P|156:114|142:70,1,93.5000028533936,2|0,3:2|0:0,0:0:0:0:
393,0,131690,6,0,B|366:53|366:53|403:92|403:92|374:162,2,187.000005706787,10|2|10,0:0|3:2|0:0,0:0:0:0:
284,61,132440,1,2,0:0:0:0:
427,213,132590,2,0,P|354:215|331:232,1,93.5000028533936,2|0,2:2|3:0,0:0:0:0:
338,224,132890,1,8,0:0:0:0:
145,81,133190,6,0,P|91:58|40:32,1,93.5000028533936,6|0,3:2|0:0,0:0:0:0:
28,117,133490,2,0,P|70:137|113:155,1,93.5000028533936,10|0,0:0|0:0,0:0:0:0:
218,339,133790,6,0,P|258:290|247:253,1,93.5000028533936,2|0,3:2|3:0,0:0:0:0:
181,230,134090,2,0,P|141:279|152:316,1,93.5000028533936,8|0,0:0|0:0,0:0:0:0:
248,188,134390,5,2,3:2:0:0:
248,188,134540,1,0,3:0:0:0:
145,304,134690,2,0,P|79:259|7:253,1,140.25000428009,8|0,0:0|0:0,0:0:0:0:
20,251,134990,2,0,P|42:290|57:328,1,62.3333352355958,8|0,0:0|3:0,0:0:0:0:
92,373,135190,1,8,0:3:0:0:
92,373,135290,1,4,2:3:0:0:
332,282,135590,6,0,P|366:292|390:326,1,63.7500024318696,6|0,3:2|0:0,0:0:0:0:
451,275,135890,2,0,P|467:306|460:347,1,63.7500024318696,0|0,0:0|0:0,0:0:0:0:
324,363,136190,5,2,0:0:0:0:
332,282,136340,1,0,0:0:0:0:
324,363,136490,5,2,0:0:0:0:
332,282,136640,1,0,0:0:0:0:
451,275,136790,6,0,P|467:224|476:200,1,63.7500024318696
410,169,137090,2,0,P|426:118|435:94,1,63.7500024318696,0|2,0:0|0:0,0:0:0:0:
429,108,137315,1,2,0:0:0:0:
429,108,137390,6,0,B|355:34|274:106|274:106|296:128|303:168,1,223.125008511544,2|0,3:0|0:0,0:0:0:0:
245,215,137988,6,0,P|192:189|148:173,1,85,10|0,0:0|3:0,0:0:0:0:
99,111,138284,1,0,3:0:0:0:
99,111,138382,6,0,B|58:99|58:99|19:137,1,85,8|0,0:0|3:0,0:0:0:0:
17,217,138678,1,0,3:0:0:0:
17,217,138777,6,0,B|58:229|58:229|97:191,1,85,8|8,0:0|0:0,0:0:0:0:
167,179,139073,1,8,0:0:0:0:
169,204,139172,1,8,0:0:0:0:
171,229,139270,1,0,3:0:0:0:
173,254,139369,1,0,3:0:0:0:
175,279,139468,1,8,0:0:0:0:
178,304,139566,6,0,P|241:320|317:358,1,127.5,6|10,3:2|0:0,0:0:0:0:
371,314,139961,2,0,P|348:254|335:205,1,85,0|10,3:0|0:0,0:0:0:0:
497,124,140356,2,0,P|447:121|417:158,1,85,2|0,3:2|0:0,0:0:0:0:
456,216,140652,1,10,0:0:0:0:
456,216,140751,1,0,3:0:0:0:
344,128,140948,1,10,0:0:0:0:
265,248,141145,6,0,P|196:224|163:216,1,85,2|0,3:2|0:0,0:0:0:0:
156,145,141441,1,10,0:0:0:0:
156,145,141540,2,0,P|87:121|54:113,1,85,0|10,3:0|0:0,0:0:0:0:
34,13,141935,6,0,P|111:-5|156:41,1,127.5,0|10,3:0|2:0,0:0:0:0:
209,79,142330,2,0,B|245:98|245:98|280:73,1,85,2|8,3:2|0:0,0:0:0:0:
411,27,142724,6,0,P|395:80|378:134,1,85,2|0,3:2|0:0,0:0:0:0:
463,128,143020,1,8,0:0:0:0:
463,128,143119,2,0,P|475:87|487:46,1,85,2|8,3:2|0:0,0:0:0:0:
318,151,143514,6,0,P|334:204|351:258,1,85,2|0,3:2|0:0,0:0:0:0:
266,252,143810,1,10,0:0:0:0:
266,252,143909,2,0,P|253:211|241:170,1,85,2|10,3:2|0:0,0:0:0:0:
464,270,144303,6,0,B|435:254|409:279|409:279|410:286|410:286|393:315|342:319,1,127.5,0|8,3:0|0:0,0:0:0:0:
304,367,144698,2,0,P|263:346|207:353,1,85,0|8,3:0|0:0,0:0:0:0:
154,229,145093,1,0,3:0:0:0:
159,243,145191,1,8,0:0:0:0:
61,319,145389,1,8,0:0:0:0:
66,305,145487,1,2,3:2:0:0:
12,250,145685,1,10,0:0:0:0:
151,332,145882,6,0,P|217:298|257:286,1,85,6|0,3:2|0:0,0:0:0:0:
313,251,146178,1,10,0:0:0:0:
313,251,146277,2,0,P|247:217|207:205,1,85,0|10,3:0|0:0,0:0:0:0:
111,127,146672,6,0,P|84:74|94:45,1,85,0|0,3:0|0:0,0:0:0:0:
172,34,146968,1,8,0:0:0:0:
172,34,147066,2,0,P|199:87|189:116,1,85,2|10,3:2|0:0,0:0:0:0:
353,146,147461,6,0,B|396:157|396:157|430:121,1,85,2|0,3:2|0:0,0:0:0:0:
398,56,147757,1,10,0:0:0:0:
398,56,147856,2,0,B|355:45|355:45|321:81,1,85,0|10,3:0|0:0,0:0:0:0:
194,193,148251,6,0,P|216:254|228:294,1,85,0|2,3:0|0:0,0:0:0:0:
293,244,148547,1,10,0:0:0:0:
293,244,148645,2,0,P|279:203|264:163,1,85,0|10,3:2|0:0,0:0:0:0:
40,107,149040,6,0,B|18:76|18:76|88:137,1,127.5,2|8,3:2|0:0,0:0:0:0:
152,99,149435,2,0,P|126:156|116:184,1,85,0|10,3:0|0:0,0:0:0:0:
292,244,149830,6,0,B|314:213|314:213|244:274,1,127.5,0|8,3:2|0:0,0:0:0:0:
180,236,150225,2,0,P|206:293|216:321,1,85,0|10,3:0|0:0,0:0:0:0:
355,354,150619,6,0,P|407:325|406:282,1,85,2|0,3:2|0:0,0:0:0:0:
483,276,150915,1,8,0:0:0:0:
483,276,151014,2,0,P|499:218|468:189,1,85,2|10,3:2|0:0,0:0:0:0:
468,93,151409,5,2,3:2:0:0:
456,104,151507,1,8,0:0:0:0:
311,133,151705,1,8,0:0:0:0:
328,149,151803,1,2,3:2:0:0:
406,169,152001,1,8,0:0:0:0:
400,192,152198,6,0,P|384:241|385:337,1,127.5,6|10,3:2|0:0,0:0:0:0:
459,363,152593,2,0,P|473:342|442:287,1,85,0|10,3:0|0:0,0:0:0:0:
306,203,152988,1,2,3:2:0:0:
306,203,153086,2,0,P|283:237|299:274,1,85,0|10,0:0|0:0,0:0:0:0:
262,344,153382,2,0,B|244:364|244:364|169:346,1,85,0|10,3:0|0:0,0:0:0:0:
41,297,153777,5,2,3:2:0:0:
141,249,153974,1,2,0:0:0:0:
149,234,154073,1,10,0:0:0:0:
158,217,154172,2,0,P|143:175|134:99,1,85,0|10,3:0|0:0,0:0:0:0:
258,89,154566,1,2,3:2:0:0:
276,93,154665,2,0,P|283:51|298:11,1,85,0|10,0:0|0:0,0:0:0:0:
322,12,154961,1,0,3:0:0:0:
400,57,155159,1,10,0:0:0:0:
489,25,155356,6,0,B|476:56|476:56|511:173,1,127.5,6|10,3:2|0:2,0:0:0:0:
451,204,155751,2,0,P|433:234|444:303,1,85,2|10,3:2|0:2,0:0:0:0:
341,365,156145,2,0,P|343:323|323:286,1,85,2|2,3:2|0:0,0:0:0:0:
259,246,156441,1,10,0:0:0:0:
243,262,156540,1,0,3:0:0:0:
157,219,156738,1,10,0:0:0:0:
19,303,156935,5,0,3:0:0:0:
31,315,157034,2,0,P|35:264|54:229,1,85,2|10,0:0|0:0,0:0:0:0:
83,161,157330,2,0,P|79:110|60:75,1,85,0|10,3:0|0:0,0:0:0:0:
167,16,157724,1,0,3:0:0:0:
157,32,157823,1,10,0:0:0:0:
214,124,158020,1,10,0:0:0:0:
220,139,158119,2,0,B|225:191|221:179|231:243,1,85,0|10,3:0|0:0,0:0:0:0:
317,312,158514,6,0,B|358:292|441:264,1,127.5,6|10,3:2|0:0,0:0:0:0:
478,201,158909,2,0,P|432:172|396:180,1,85,0|10,3:0|0:0,0:0:0:0:
314,102,159303,2,0,P|281:128|240:127,1,85,0|2,3:0|0:0,0:0:0:0:
175,86,159599,1,10,0:0:0:0:
175,86,159698,2,0,L|188:-19,1,85,0|10,3:0|0:0,0:0:0:0:
23,125,160093,6,0,P|98:134|112:194,1,127.5,2|10,3:2|0:0,0:0:0:0:
105,197,160488,2,0,B|92:235|92:235|106:277,1,85,0|10,3:0|0:0,0:0:0:0:
208,343,160882,1,0,3:0:0:0:
222,336,160981,2,0,L|317:347,1,85,10|10,0:0|0:0,0:0:0:0:
320,356,161277,2,0,L|418:334,1,85,0|10,3:0|0:0,0:0:0:0:
480,272,161672,5,6,3:2:0:0:
403,207,161869,1,2,0:0:0:0:
406,190,161968,1,10,0:0:0:0:
409,173,162066,1,0,3:0:0:0:
305,218,162264,1,10,0:0:0:0:
210,166,162461,2,0,P|192:124|259:70,1,127.5,0|10,3:0|0:0,0:0:0:0:
256,47,162856,2,0,P|290:64|349:42,1,85,0|10,3:0|0:0,0:0:0:0:
465,16,163251,6,0,P|446:53|437:99,1,85,6|2,3:2|0:0,0:0:0:0:
448,116,163547,1,8,0:0:0:0:
461,128,163645,1,0,3:0:0:0:
408,206,163843,1,10,0:0:0:0:
491,320,164040,5,0,3:0:0:0:
477,309,164139,2,0,L|378:324,1,85,10|10,0:0|0:0,0:0:0:0:
373,339,164435,2,0,B|350:358|350:358|273:346,1,85,0|10,3:0|0:0,0:0:0:0:
224,297,164830,5,6,3:2:0:0:
73,344,165126,1,6,3:2:0:0:
4,202,165422,1,6,3:2:0:0:
155,155,165718,2,0,P|162:217|160:259,1,85,6|10,3:2|0:0,0:0:0:0:
224,297,166014,1,6,3:2:0:0:
245,273,166112,1,2,0:0:0:0:
274,261,166211,1,10,0:2:0:0:
306,261,166310,1,2,0:0:0:0:
335,273,166409,6,0,B|409:292|409:292|424:276|462:258,1,127.500004863739,6|4,3:2|0:0,0:0:0:0:
476,25,167198,5,14,0:0:0:0:
448,28,167296,1,8,0:0:0:0:
422,38,167395,1,8,0:0:0:0:
400,55,167494,1,8,0:0:0:0:
384,78,167592,1,10,0:0:0:0:
371,102,167691,1,8,0:0:0:0:
352,122,167790,1,8,0:0:0:0:
327,136,167888,1,8,0:0:0:0:
300,141,167988,6,0,P|300:99|284:61,1,85,6|2,3:2|0:2,0:0:0:0:
130,172,168382,2,0,P|113:133|114:91,1,85,10|2,0:2|0:2,0:0:0:0:
217,205,168777,1,0,3:2:0:0:
217,205,168876,2,0,P|177:255|88:250,1,127.5,10|10,0:0|0:0,0:0:0:0:
40,219,169369,1,2,0:0:0:0:
237,346,169566,5,2,3:2:0:0:
302,298,169764,1,2,0:2:0:0:
371,352,169961,2,0,B|403:361|428:370|428:370|481:322|459:254,1,170,10|0,0:2|3:2,0:0:0:0:
445,250,170455,1,10,0:0:0:0:
476,164,170652,1,0,0:0:0:0:
476,164,170751,2,0,P|459:124|473:67,1,85,10|2,0:0|0:0,0:0:0:0:
386,18,171145,5,2,3:2:0:0:
386,18,171244,1,2,0:0:0:0:
386,18,171343,2,0,P|330:26|304:69,2,85,2|10|2,0:0|0:0|0:2,0:0:0:0:
359,120,171935,1,0,3:0:0:0:
342,131,172034,2,0,L|358:231,1,85,10|0,0:0|0:0,0:0:0:0:
345,234,172330,2,0,P|300:240|245:250,1,85,10|2,0:0|0:0,0:0:0:0:
178,316,172724,5,2,3:2:0:0:
153,312,172823,1,2,0:0:0:0:
124,309,172922,1,2,0:0:0:0:
72,233,173119,2,0,P|89:182|75:131,1,85,10|2,0:0|0:0,0:0:0:0:
29,65,173514,1,0,3:0:0:0:
43,44,173613,2,0,B|75:56|75:56|157:30,1,85,10|0,0:0|0:0,0:0:0:0:
192,78,173909,1,10,0:0:0:0:
225,51,174007,1,8,0:0:0:0:
265,39,174106,1,8,0:0:0:0:
307,43,174205,1,8,0:0:0:0:
345,62,174303,5,6,3:2:0:0:
337,80,174402,1,2,0:0:0:0:
333,97,174501,1,2,0:0:0:0:
421,151,174698,2,0,P|445:192|448:255,1,85,10|2,0:0|0:0,0:0:0:0:
367,313,175093,1,0,3:0:0:0:
369,293,175191,2,0,B|343:264|343:264|295:264|239:302,1,127.5,10|10,0:0|0:0,0:0:0:0:
188,344,175685,1,2,0:0:0:0:
57,281,175882,5,2,3:2:0:0:
70,286,175981,1,2,0:0:0:0:
83,294,176080,1,2,0:0:0:0:
156,240,176277,2,0,B|147:188|147:186|139:144,1,85,10|2,0:0|0:0,0:0:0:0:
234,79,176672,1,0,3:0:0:0:
222,97,176770,2,0,P|264:108|305:133,1,85,10|2,0:0|0:0,0:0:0:0:
314,145,177066,2,0,P|354:128|410:114,1,85,10|2,0:0|0:0,0:0:0:0:
461,180,177461,5,2,3:2:0:0:
458,196,177560,1,2,0:0:0:0:
464,213,177659,1,2,0:0:0:0:
413,285,177856,1,10,0:0:0:0:
339,244,178053,1,2,0:0:0:0:
319,241,178152,1,2,0:0:0:0:
301,243,178251,1,0,3:0:0:0:
282,251,178349,2,0,L|265:364,1,85,10|2,0:0|0:0,0:0:0:0:
249,351,178645,2,0,B|213:368|213:368|150:347,1,85,10|2,0:0|0:0,0:0:0:0:
50,341,179040,5,2,3:2:0:0:
66,321,179139,1,2,0:0:0:0:
76,302,179238,1,2,0:0:0:0:
29,217,179435,1,10,0:0:0:0:
107,163,179632,1,2,0:0:0:0:
101,147,179731,1,10,0:0:0:0:
200,173,179928,1,10,0:0:0:0:
209,159,180027,1,10,0:0:0:0:
224,148,180126,1,10,0:0:0:0:
244,139,180224,6,0,L|284:149,5,28.3333333333333,8|2|2|2|2|2,3:0|0:0|0:0|3:2|0:0|0:0,0:0:0:0:
288,169,180619,5,6,3:2:0:0:
365,118,180819,1,2,0:0:0:0:
438,184,181019,1,8,0:0:0:0:
278,290,181219,5,6,3:2:0:0:
201,239,181419,1,2,0:0:0:0:
128,305,181619,1,8,0:0:0:0:
18,193,181819,5,4,3:2:0:0:
39,95,182019,1,2,0:0:0:0:
141,67,182219,1,8,0:0:0:0:
232,105,182419,6,0,P|279:154|339:207,1,127.5,6|0,3:2|0:0,0:0:0:0:
326,218,183004,6,0,P|401:169|492:176,1,170,6|8,3:2|0:0,0:0:0:0:
440,247,183904,1,2,0:0:0:0:
440,246,184204,1,0,3:0:0:0:
461,64,184804,1,8,0:0:0:0:
268,134,185404,6,0,B|186:140|179:142|92:169,1,170,2|8,3:2|0:0,0:0:0:0:
46,100,186304,2,0,B|72:66|72:66|131:82,1,85,2|0,0:0|3:0,0:0:0:0:
138,243,187204,1,2,0:0:0:0:
87,325,187804,5,2,3:3:0:0:
386,94,196804,5,2,0:0:0:0:
320,147,196954,1,8,0:0:0:0:
255,97,197104,2,0,L|247:30,1,42.5,8|4,0:3|0:3,0:0:0:0:
146,188,197404,5,2,3:3:0:0:
449,328,207004,5,2,3:2:0:0:
427,239,207304,1,0,3:0:0:0:
339,275,207604,1,2,3:2:0:0:
317,186,207904,5,2,3:2:0:0:
317,186,208054,1,0,3:0:0:0:
232,143,208204,1,2,3:2:0:0:
232,143,208354,1,0,3:0:0:0:
159,195,208504,1,0,3:0:0:0:
148,197,208579,1,0,3:0:0:0:
138,200,208654,1,0,3:0:0:0:
128,203,208729,1,0,3:0:0:0:
23,140,209104,5,8,0:0:0:0:
12,89,209179,1,8,0:0:0:0:
37,43,209254,1,8,0:0:0:0:
85,25,209329,1,8,0:0:0:0:
134,44,209404,6,0,B|188:49|215:75|200:85|233:121|285:117,1,170,6|0,3:2|3:0,0:0:0:0:
282,23,209854,1,2,0:0:0:0:
134,138,210004,1,0,3:0:0:0:
294,220,210154,1,2,3:2:0:0:
294,220,210604,6,0,P|218:199|168:193,1,93.5000028533936,6|0,3:2|3:0,0:0:0:0:
357,160,210904,2,0,P|402:169|447:183,1,93.5000028533936,10|0,0:0|3:0,0:0:0:0:
191,350,211204,6,0,B|152:318|152:318|165:261,1,93.5000028533936,2|0,3:2|3:0,0:0:0:0:
294,220,211504,2,0,B|333:252|333:252|320:309,1,93.5000028533936,10|0,0:0|3:0,0:0:0:0:
23,132,211804,6,0,P|67:117|113:108,1,93.5000028533936,2|0,3:2|3:0,0:0:0:0:
278,134,212104,2,0,P|232:143|187:157,1,93.5000028533936,10|0,0:0|3:0,0:0:0:0:
38,351,212404,5,2,3:2:0:0:
61,253,212554,1,0,3:0:0:0:
134,335,212704,1,10,0:0:0:0:
157,236,212854,1,0,3:0:0:0:
311,276,213004,5,2,3:2:0:0:
292,198,213154,1,0,3:0:0:0:
234,263,213304,1,10,0:0:0:0:
216,184,213454,1,0,3:0:0:0:
29,360,213604,5,2,3:2:0:0:
52,262,213754,1,0,3:0:0:0:
125,344,213904,1,10,0:0:0:0:
148,245,214054,1,0,3:0:0:0:
335,348,214204,6,0,P|383:359|443:388,1,93.5000028533936,2|0,3:2|3:0,0:0:0:0:
216,184,214504,2,0,P|168:173|108:144,1,93.5000028533936,10|0,0:0|3:0,0:0:0:0:
379,28,214804,5,2,3:2:0:0:
334,124,214954,1,0,3:0:0:0:
439,165,215104,2,0,B|461:119|461:119|416:66,1,93.5000028533936,10|0,0:0|3:0,0:0:0:0:
296,202,215404,6,0,P|301:262|347:293,1,93.5000028533936,6|0,3:2|3:0,0:0:0:0:
242,128,215704,2,0,P|204:104|158:111,1,93.5000028533936,10|0,0:2|3:0,0:0:0:0:
334,123,216004,2,0,P|374:102|391:59,1,93.5000028533936,2|0,3:2|3:0,0:0:0:0:
96,14,216304,6,0,P|124:92|152:204,1,187.000005706787,10|0,0:2|3:2,0:0:0:0:
217,237,216754,1,0,3:0:0:0:
81,311,216904,1,10,0:2:0:0:
238,224,217054,1,2,3:2:0:0:
90,141,217204,1,2,3:2:0:0:
90,141,217354,1,0,3:0:0:0:
152,346,217504,5,10,0:0:0:0:
152,346,217579,1,8,3:0:0:0:
152,346,217654,2,0,P|166:309|178:281,1,46.7500014266968,8|8,3:0|3:0,0:0:0:0:
347,188,217804,6,0,B|385:157|385:157|286:204,1,140.25000428009,12|8,0:0|3:0,0:0:0:0:
314,283,218104,1,8,3:0:0:0:
314,283,218179,1,8,3:0:0:0:
314,283,218254,2,0,P|349:289|398:302,1,46.7500014266968,12|0,0:0|0:0,0:0:0:0:
444,225,218404,5,8,3:0:0:0:
436,197,218479,1,8,3:0:0:0:
428,169,218554,1,8,3:0:0:0:
421,141,218629,1,8,3:0:0:0:
414,113,218704,5,12,0:2:0:0:
477,52,218854,1,0,3:2:0:0:
374,37,219004,5,12,0:0:0:0:
497,132,219154,1,0,3:0:0:0:
313,101,219304,6,0,P|268:118|245:132,3,46.7500014266968,12|8|8|8,0:0|0:0|0:0|0:0,0:0:0:0:
214,53,219604,2,0,P|192:43|170:36,3,46.7500014266968,8|8|8|8,0:0|0:0|0:0|0:0,0:0:0:0:
97,81,219904,5,8,3:0:0:0:
104,108,219979,1,8,3:0:0:0:
111,135,220054,1,8,3:0:0:0:
118,161,220129,1,8,3:0:0:0:
126,187,220204,6,0,P|165:186|201:232,1,95.6250036478044,6|0,3:2|0:0,0:0:0:0:
222,208,220504,2,0,P|250:234|243:292,1,95.6250036478044,0|0,3:2|0:0,0:0:0:0:
180,337,220804,6,0,P|125:318|72:298,1,95.6250036478044,10|0,0:2|0:0,0:0:0:0:
90,305,221104,2,0,P|35:286|-18:266,1,95.6250036478044,2|0,3:2|0:0,0:0:0:0:
0,146,221404,6,0,B|38:113|38:113|96:138,1,95.6250036478044,2|0,3:2|0:0,0:0:0:0:
74,157,221704,2,0,B|112:189|112:189|153:172,1,95.6250036478044,2|0,3:2|0:0,0:0:0:0:
197,105,222004,6,0,P|242:89|287:72,1,95.6250036478044,10|0,0:0|0:0,0:0:0:0:
287,73,222304,2,0,P|332:57|377:40,1,95.6250036478044,2|0,3:2|0:0,0:0:0:0:
431,107,222604,6,0,P|383:145|382:185,1,95.6250036478044,2|0,3:2|0:0,0:0:0:0:
347,179,222904,2,0,P|339:239|367:268,1,95.6250036478044,2|0,3:2|0:0,0:0:0:0:
435,296,223204,6,0,B|465:274|465:274|441:207,1,95.6250036478044,10|0,0:2|0:0,0:0:0:0:
359,263,223504,2,0,B|339:318|339:318|369:340,1,95.6250036478044,2|0,3:2|0:0,0:0:0:0:
270,374,223804,6,0,P|230:340|163:342,1,95.6250036478044,2|0,3:2|0:0,0:0:0:0:
188,334,224104,1,0,3:0:0:0:
226,254,224254,1,0,3:0:0:0:
112,313,224404,1,12,0:0:0:0:
242,247,224554,1,0,3:0:0:0:
135,149,224704,6,0,B|109:126|71:145|71:145|72:153|72:153|51:186|6:186,1,140.25000428009,12|0,0:0|0:0,0:0:0:0:
19,185,225004,6,0,B|4:147|4:147|39:192,1,95.6250036478044,6|0,3:2|0:0,0:0:0:0:
107,226,225304,2,0,P|150:205|194:187,1,95.6250036478044,2|0,3:2|0:0,0:0:0:0:
270,116,225604,2,0,P|239:85|186:106,1,95.6250036478044,10|0,0:0|0:0,0:0:0:0:
291,202,225904,6,0,B|333:173|333:173|378:195,1,95.6250036478044,2|0,3:2|0:0,0:0:0:0:
465,130,226204,2,0,P|479:74|488:52,1,63.7500024318696,14|0,0:0|3:0,0:0:0:0:
377,7,226504,1,12,0:0:0:0:
318,59,226654,1,2,0:0:0:0:
211,22,226804,5,2,0:0:0:0:
186,14,226904,1,8,0:0:0:0:
167,31,227004,1,8,0:0:0:0:
95,12,227104,5,8,0:0:0:0:
69,24,227204,1,8,0:0:0:0:
68,51,227304,1,8,0:0:0:0:
130,104,227404,5,4,2:3:0:0:
384,203,228454,5,0,3:0:0:0:
379,214,228529,1,0,3:0:0:0:
375,227,228604,6,0,P|362:175|338:129,1,93.5000028533936,12|0,0:2|3:0,0:0:0:0:
401,73,228829,2,0,P|431:83|444:112,2,46.7500014266968,0|0|0,3:0|3:0|3:0,0:0:0:0:
279,0,229054,5,12,0:0:0:0:
322,65,229204,2,0,P|259:41|175:14,1,140.25000428009,0|0,3:0|3:0,0:0:0:0:
189,18,229504,2,0,B|151:105|229:73|195:166,1,140.25000428009,12|0,0:0|0:0,0:0:0:0:
146,219,229804,5,6,3:2:0:0:
57,184,229954,1,0,3:0:0:0:
176,318,230104,1,0,3:0:0:0:
254,278,230254,1,0,3:0:0:0:
414,360,230404,2,0,B|430:334|430:334|417:245,1,85,10|0,0:0|3:0,0:0:0:0:
366,208,230704,1,2,3:2:0:0:
470,92,230854,6,0,P|469:28|366:19,1,170,2|0,3:2|3:0,0:0:0:0:
182,150,231304,2,0,P|194:72|272:65,1,170,2|10,3:2|0:0,0:0:0:0:
274,160,231754,1,0,3:0:0:0:
333,236,231904,2,0,B|375:250|377:261|417:269,1,85,2|0,3:2|3:0,0:0:0:0:
262,306,232204,6,0,B|214:313|206:317|153:361|149:364|92:369,2,170,2|0|10,3:2|3:2|0:0,0:0:0:0:
340,356,232954,1,0,3:0:0:0:
183,241,233104,1,2,3:2:0:0:
282,113,233254,2,0,B|269:164|265:205,1,85,2|0,3:2|3:0,0:0:0:0:
472,302,233554,5,2,3:2:0:0:
437,223,233704,1,0,3:2:0:0:
358,261,233854,2,0,B|343:289|343:289|370:376,1,85,2|8,3:2|0:0,0:0:0:0:
486,143,234154,1,0,3:2:0:0:
406,91,234304,2,0,B|326:108|326:108|324:113|324:113|213:137,2,170,2|6|0,3:2|3:2|3:2,0:0:0:0:
71,289,235204,5,10,0:0:0:0:
105,207,235354,1,0,3:2:0:0:
164,272,235504,2,0,P|203:288|257:280,1,85,2|0,3:2|3:2,0:0:0:0:
407,214,235804,5,2,3:2:0:0:
302,161,235954,1,0,3:0:0:0:
372,312,236104,1,2,3:2:0:0:
407,128,236254,2,0,B|420:84|462:62|532:54|523:123,1,170,2|0,3:2|0:0,0:0:0:0:
311,139,236704,2,0,P|275:112|200:123,1,85,0|0,3:2|0:0,0:0:0:0:
80,216,237004,5,6,3:2:0:0:
78,232,237154,1,0,3:0:0:0:
169,305,237304,2,0,B|182:280|182:280|155:197,1,85,2|0,3:2|3:0,0:0:0:0:
89,44,237604,5,10,0:0:0:0:
30,106,237754,2,0,B|75:122|114:148,1,85,2|0,0:0|3:0,0:0:0:0:
106,143,238054,1,2,3:2:0:0:
260,56,238204,5,12,0:0:0:0:
234,165,238354,1,0,3:0:0:0:
359,130,238504,5,8,0:0:0:0:
376,254,238654,1,0,3:0:0:0:
464,170,238804,5,0,3:3:0:0:
473,200,238879,1,0,3:3:0:0:
475,232,238954,1,8,0:3:0:0:
471,263,239029,1,8,0:3:0:0:
460,293,239104,1,4,0:3:0:0:
391,348,239254,1,8,0:3:0:0:
391,348,239329,1,4,0:3:0:0:
391,348,239404,6,0,P|343:351|299:372,1,85,2|2,3:2|3:2,0:0:0:0:
215,329,239704,1,14,0:0:0:0:
183,249,239854,1,0,3:0:0:0:
120,307,240004,1,0,3:0:0:0:
41,263,240154,2,0,P|13:221|-29:189,2,85,10|0|0,0:0|3:0|3:0,0:0:0:0:
107,75,240604,5,8,0:0:0:0:
102,90,240679,1,8,0:0:0:0:
92,105,240754,1,8,0:3:0:0:
15,43,240904,1,8,0:3:0:0:
195,122,241054,1,4,0:3:0:0:
268,82,241204,1,8,0:0:0:0:
412,197,241354,6,0,P|487:203|511:247,1,127.499996109009,6|6,3:2|3:2,0:0:0:0:
256,192,242254,12,0,247504,0:0:0:0:
