osu file format v14

[General]
AudioFilename: audio.mp3
AudioLeadIn: 0
PreviewTime: 27147
Countdown: 0
SampleSet: Soft
StackLeniency: 0.7
Mode: 0
LetterboxInBreaks: 0
EpilepsyWarning: 1
WidescreenStoryboard: 1

[Editor]
Bookmarks: 897,27897,33897,39147,39897,63897
DistanceSpacing: 1.2
BeatDivisor: 6
GridSize: 32
TimelineZoom: 1

[Metadata]
Title:Heresy
TitleUnicode:Heresy
Artist:Paspal
ArtistUnicode:Paspal
Creator:Enkrypton
Version:Normal
Source:
Tags:Instrumental Piano Violin ORGIA Xorsizer Epicsteve2 Mentai
BeatmapID:1535033
BeatmapSetID:727099

[Difficulty]
HPDrainRate:5
CircleSize:3.5
OverallDifficulty:4
ApproachRate:5
SliderMultiplier:1.6
SliderTickRate:1

[Events]
//Background and Video events
0,0,"alejandro-olmedo-soleado-nuevo-definitivosmall.jpg",0,0
//Break Periods
2,24347,25947
//Storyboard Layer 0 (Background)
//Storyboard Layer 1 (Fail)
//Storyboard Layer 2 (Pass)
//Storyboard Layer 3 (Foreground)
//Storyboard Sound Samples

[TimingPoints]
147,750,4,2,10,45,1,0
522,-100,4,2,12,45,0,0
897,750,4,2,14,45,1,0
1272,-100,4,2,15,45,0,0
1647,-100,4,2,10,45,0,0
2397,-100,4,2,14,45,0,0
3147,-100,4,2,16,45,0,0
3897,-100,4,2,13,45,0,0
4272,-100,4,2,17,45,0,0
4647,-100,4,2,18,45,0,0
5022,-100,4,2,12,45,0,0
5397,-100,4,2,11,45,0,0
6147,-100,4,2,12,45,0,0
6522,-100,4,2,13,45,0,0
7272,-100,4,2,19,45,0,0
7647,-100,4,2,13,45,0,0
8022,-100,4,2,14,45,0,0
8397,-100,4,2,13,45,0,0
8772,-100,4,2,12,45,0,0
9147,-100,4,2,16,45,0,0
9897,-100,4,2,14,45,0,0
10272,-100,4,2,24,45,0,0
10647,-100,4,2,15,45,0,0
11397,-100,4,2,12,45,0,0
12147,-100,4,2,11,45,0,0
12897,-100,4,2,15,45,0,0
13272,-100,4,2,21,45,0,0
13647,-100,4,2,17,45,0,0
14022,-100,4,2,22,45,0,0
15897,-100,4,2,15,45,0,0
16272,-100,4,2,23,45,0,0
17022,-100,4,2,15,45,0,0
18147,-100,4,2,18,45,0,0
18522,-100,4,2,19,45,0,0
19272,-100,4,2,24,45,0,0
19647,-100,4,2,15,45,0,0
20022,-100,4,2,19,45,0,0
20772,-100,4,2,12,45,0,0
21147,-100,4,2,11,45,0,0
21522,-100,4,2,12,45,0,0
21897,-100,4,2,13,45,0,0
22272,-100,4,2,17,45,0,0
22647,-100,4,2,18,45,0,0
23397,-100,4,2,11,45,0,0
23772,-100,4,2,22,45,0,0
24147,-100,4,2,19,45,0,0
24897,-100,4,2,1,45,0,0
27897,-100,4,2,1,70,0,1
29959,-100,4,2,1,5,0,1
30147,-100,4,2,1,70,0,1
30709,-100,4,2,1,5,0,1
30897,-100,4,2,1,70,0,1
34459,-100,4,2,1,5,0,1
34647,-100,4,2,1,70,0,1
35209,-100,4,2,1,5,0,1
35397,-100,4,2,1,70,0,1
35959,-100,4,2,1,5,0,1
36147,-100,4,2,1,70,0,1
39897,-100,4,2,1,70,0,1
41022,-100,4,2,1,70,0,1
43459,-100,4,2,1,5,0,1
43647,-100,4,2,1,70,0,1
44209,-100,4,2,1,5,0,1
44397,-100,4,2,1,70,0,1
44959,-100,4,2,1,5,0,1
45147,-100,4,2,1,70,0,1
49459,-100,4,2,1,5,0,1
49647,-100,4,2,1,70,0,1
51147,-100,4,2,1,70,0,0
51897,-100,4,2,1,85,0,1
53959,-100,4,2,1,5,0,1
54147,-100,4,2,1,85,0,1
54709,-100,4,2,1,5,0,1
54897,-100,4,2,1,85,0,1
56959,-100,4,2,1,5,0,1
57147,-100,4,2,1,85,0,1
57709,-100,4,2,1,5,0,1
57897,-100,4,2,1,85,0,1
59959,-100,4,2,1,5,0,1
60147,-100,4,2,1,85,0,1
60709,-100,4,2,1,5,0,1
60897,-100,4,2,1,85,0,1
61459,-100,4,2,1,5,0,1
61647,-100,4,2,1,85,0,1
62209,-100,4,2,1,5,0,1
62397,-100,4,2,1,85,0,1
62959,-100,4,2,1,5,0,1
63147,-100,4,2,1,85,0,1
63709,-100,4,2,1,5,0,1
63897,-100,4,2,30,70,0,1
64272,-100,4,2,31,70,0,1
64647,-100,4,2,32,70,0,1
65022,-100,4,2,33,70,0,1
65397,-100,4,2,30,70,0,1
65772,-100,4,2,31,70,0,1
66522,-100,4,2,32,70,0,1
66709,-100,4,2,33,70,0,1
67647,-100,4,2,32,70,0,1
68022,-100,4,2,31,70,0,1
68397,-100,4,2,32,70,0,1
68772,-100,4,2,30,70,0,1
68959,-100,4,2,32,70,0,1
69147,-100,4,2,31,70,0,1
69334,-100,4,2,36,70,0,1
69522,-100,4,2,31,70,0,1
69709,-100,4,2,32,70,0,1
69897,-100,4,2,30,70,0,1
70272,-100,4,2,31,70,0,1
70647,-100,4,2,32,70,0,1
71022,-100,4,2,33,70,0,1
71397,-100,4,2,32,70,0,1
71772,-100,4,2,34,70,0,1
72334,-100,4,2,32,70,0,1
72522,-100,4,2,31,70,0,1
72709,-100,4,2,34,70,0,1
72897,-100,4,2,35,90,0,0
75897,-100,4,2,3,25,0,0

[Colours]
Combo1 : 249,217,119
Combo2 : 102,204,0
Combo3 : 131,191,252
Combo4 : 241,117,24

[HitObjects]
146,13,147,6,0,P|146:54|120:102,1,80,2|2,0:0|0:0,0:0:0:0:
62,157,897,2,0,P|98:178|152:180,1,80,2|2,0:0|0:0,0:0:0:0:
226,151,1647,1,2,0:0:0:0:
374,30,2397,1,2,0:0:0:0:
405,219,3147,1,2,0:0:0:0:
226,151,3897,6,0,P|183:151|136:176,2,80,2|2|2,0:0|0:0|0:0,0:0:0:0:
299,212,5022,1,2,0:0:0:0:
319,118,5397,1,2,0:0:0:0:
485,213,6147,1,2,0:0:0:0:
465,119,6522,1,2,0:0:0:0:
392,56,6897,6,0,P|361:31|300:18,1,80,2|2,0:0|0:0,0:0:0:0:
231,46,7647,2,0,P|193:31|152:-14,1,80,2|2,0:0|0:0,0:0:0:0:
72,34,8397,2,0,P|71:73|43:129,1,80,2|2,0:0|0:0,0:0:0:0:
112,190,9147,1,2,0:0:0:0:
269,299,9897,5,2,0:0:0:0:
364,285,10272,1,2,0:0:0:0:
359,189,10647,1,2,0:0:0:0:
192,93,11397,1,2,0:0:0:0:
364,15,12147,1,2,0:0:0:0:
265,181,12897,5,2,0:0:0:0:
208,256,13272,1,2,0:0:0:0:
303,267,13647,1,2,0:0:0:0:
359,189,14022,1,2,0:0:0:0:
359,189,15522,5,2,0:0:0:0:
265,181,15897,1,2,0:0:0:0:
208,256,16272,1,2,0:0:0:0:
113,88,17022,1,2,0:0:0:0:
113,88,18147,6,0,P|118:128|138:162,1,80,2|2,0:0|0:0,0:0:0:0:
204,232,18897,1,2,0:0:0:0:
234,142,19272,2,0,P|273:137|307:117,1,80,2|2,0:0|0:0,0:0:0:0:
277,26,20022,1,2,0:0:0:0:
426,146,20772,5,2,0:0:0:0:
356,211,21147,1,2,0:0:0:0:
264,180,21522,1,2,0:0:0:0:
214,262,21897,6,0,P|177:276|137:276,1,80,2|2,0:0|0:0,0:0:0:0:
44,252,22646,1,2,0:0:0:0:
65,61,23397,2,0,P|101:45|141:46,1,80,2|2,0:0|0:0,0:0:0:0:
209,113,24147,1,2,0:0:0:0:
285,90,27147,6,0,P|246:98|207:89,1,80,2|2,0:0|0:0,0:0:0:0:
116,59,27897,6,0,B|92:97|115:137|115:137|137:177|116:227,1,160,6|0,0:0|0:0,0:0:0:0:
55,282,29022,1,2,0:0:0:0:
146,309,29397,2,0,P|244:321|307:298,1,160,2|2,0:0|0:0,0:0:0:0:
387,131,30897,5,2,0:0:0:0:
221,228,31647,1,0,0:0:0:0:
219,35,32397,1,0,0:0:0:0:
139,88,32772,2,0,L|40:71,2,80,2|2|2,0:0|0:0|0:0,0:0:0:0:
221,136,33897,6,0,P|233:234|210:297,1,160,2|2,0:0|0:0,0:0:0:0:
33,356,35397,2,0,P|20:257|43:194,1,160,2|2,0:0|0:0,0:0:0:0:
214,123,36897,5,2,0:0:0:0:
298,295,37647,1,0,0:0:0:0:
107,282,38397,1,0,0:0:0:0:
59,96,39147,2,0,P|22:110|-1:142,1,80,2|2,0:0|0:0,0:0:0:0:
53,221,39897,5,2,0:0:0:0:
232,153,40647,2,0,P|259:181|267:219,1,80,2|2,0:0|0:0,0:0:0:0:
289,313,41397,1,0,0:0:0:0:
322,124,42147,2,0,P|359:112|396:122,1,80,2|2,0:0|0:0,0:0:0:0:
477,177,42896,5,0,0:0:0:0:
450,367,43647,1,2,0:0:0:0:
270,299,44397,2,0,P|171:312|108:289,1,160,2|2,0:0|0:0,0:0:0:0:
175,110,45897,5,2,0:0:0:0:
115,293,46647,1,0,0:0:0:0:
306,311,47397,1,2,0:0:0:0:
222,138,48147,1,0,0:0:0:0:
291,72,48522,1,0,0:0:0:0:
385,91,48897,5,2,0:0:0:0:
493,250,49647,2,0,L|411:277,1,80,2|2,0:0|0:0,0:0:0:0:
327,310,50397,1,2,0:0:0:0:
166,204,51147,2,0,P|154:167|164:129,1,80,2|2,0:0|0:0,0:0:0:0:
256,157,51897,6,0,P|332:177|410:162,1,160,6|0,0:0|0:0,0:0:0:0:
500,127,53022,1,2,0:0:0:0:
485,221,53397,2,0,B|461:259|484:299|484:299|506:339|485:389,1,160,2|2,0:0|0:0,0:0:0:0:
304,326,54897,6,0,B|266:302|226:325|226:325|186:347|136:326,1,160,2|2,0:0|0:0,0:0:0:0:
65,287,56022,1,2,0:0:0:0:
141,228,56397,2,0,P|129:149|152:73,1,160,2|2,0:0|0:0,0:0:0:0:
319,167,57897,6,0,B|395:161|421:221|421:221|445:282|547:286,1,240,2|2,0:0|0:0,0:0:0:0:
508,186,59397,1,2,0:0:0:0:
333,265,60147,1,2,0:0:0:0:
135,258,60897,6,0,P|123:179|146:103,1,160,2|2,0:0|0:0,0:0:0:0:
316,184,62397,2,0,P|327:262|304:338,1,160,2|2,0:0|0:0,0:0:0:0:
140,237,63897,6,0,L|49:180,1,80,2|2,0:0|0:0,0:0:0:0:
157,150,64647,2,0,L|251:99,1,80,2|2,0:0|0:0,0:0:0:0:
230,208,65397,2,0,L|226:315,1,80,2|2,0:0|0:0,0:0:0:0:
306,342,66147,1,0,0:0:0:0:
383,285,66522,1,2,0:0:0:0:
471,325,66897,6,0,P|483:288|473:250,1,80,2|2,0:0|0:0,0:0:0:0:
397,188,67647,2,0,P|386:149|398:112,1,80,2|2,0:0|0:0,0:0:0:0:
466,44,68397,1,2,0:0:0:0:
372,23,68772,2,0,L|279:8,2,80,2|2|2,0:0|0:0|0:0,0:0:0:0:
466,44,69897,6,0,P|455:82|426:108,1,80,2|2,0:0|0:0,0:0:0:0:
347,162,70647,2,0,P|317:188|307:226,1,80,2|2,0:0|0:0,0:0:0:0:
385,282,71397,1,2,0:0:0:0:
297,320,71772,2,0,P|259:308|221:319,1,80,2|0,0:0|0:0,0:0:0:0:
138,367,72522,1,2,0:0:0:0:
64,305,72897,1,6,0:0:0:0:
256,192,73272,12,4,75897,0:0:0:0:
