osu file format v14

[General]
AudioFilename: audio.mp3
AudioLeadIn: 0
PreviewTime: 91965
Countdown: 0
SampleSet: Soft
StackLeniency: 0.7
Mode: 3
LetterboxInBreaks: 0
SpecialStyle: 0
WidescreenStoryboard: 0

[Editor]
Bookmarks: 3840,18840,48840,78840,108840,123840,153840,168840,183840,213840,228840,243847,273847,288847
DistanceSpacing: 0.8
BeatDivisor: 6
GridSize: 16
TimelineZoom: 2.1

[Metadata]
Title:Trainwreck Of Electro Swing
TitleUnicode:Trainwreck Of Electro Swing
Artist:Pascal Michael Stiefel
ArtistUnicode:Pascal Michael Stiefel
Creator:Hidden-
Version:Trainwreck
Source:A Hat in Time - Crazy Science Owls
Tags:One Miss Trainwreck of Science Remix Gears For Breakfast Plasma3Music Remixes
BeatmapID:1210030
BeatmapSetID:570909

[Difficulty]
HPDrainRate:8
CircleSize:4
OverallDifficulty:8
ApproachRate:5
SliderMultiplier:1.4
SliderTickRate:1

[Events]
//Background and Video events
0,0,"train.jpg",0,0
//Break Periods
//Storyboard Layer 0 (Background)
//Storyboard Layer 1 (Fail)
//Storyboard Layer 2 (Pass)
//Storyboard Layer 3 (Foreground)
//Storyboard Sound Samples

[TimingPoints]
69,468.75,4,2,0,30,1,0

[HitObjects]
192,192,69,5,0,0:0:0:0:
320,192,303,1,0,0:0:0:0:
448,192,303,1,0,0:0:0:0:
64,192,537,1,0,0:0:0:0:
320,192,772,1,0,0:0:0:0:
448,192,772,1,0,0:0:0:0:
192,192,1006,1,0,0:0:0:0:
320,192,1240,1,0,0:0:0:0:
448,192,1240,1,0,0:0:0:0:
64,192,1475,1,0,0:0:0:0:
320,192,1709,1,0,0:0:0:0:
448,192,1709,1,0,0:0:0:0:
192,192,1944,1,0,0:0:0:0:
320,192,2178,1,0,0:0:0:0:
448,192,2178,1,0,0:0:0:0:
64,192,2412,1,0,0:0:0:0:
320,192,2647,1,0,0:0:0:0:
448,192,2647,1,0,0:0:0:0:
192,192,2881,1,0,0:0:0:0:
64,192,3115,1,0,0:0:0:0:
320,192,3115,1,0,0:0:0:0:
448,192,3115,1,0,0:0:0:0:
192,192,3350,1,0,0:0:0:0:
320,192,3584,1,0,0:0:0:0:
192,192,3584,1,0,0:0:0:0:
448,192,3584,1,0,0:0:0:0:
320,192,3819,1,0,0:0:0:0:
448,192,3819,1,0,0:0:0:0:
192,192,3975,1,0,0:0:0:0:
64,192,4053,1,0,0:0:0:0:
192,192,4209,1,0,0:0:0:0:
320,192,4287,1,0,0:0:0:0:
448,192,4287,1,0,0:0:0:0:
192,192,4444,1,0,0:0:0:0:
64,192,4522,1,0,0:0:0:0:
192,192,4678,1,0,0:0:0:0:
320,192,4756,1,0,0:0:0:0:
448,192,4756,1,0,0:0:0:0:
192,192,4912,1,0,0:0:0:0:
64,192,4990,1,0,0:0:0:0:
192,192,5147,1,0,0:0:0:0:
320,192,5225,1,0,0:0:0:0:
448,192,5225,1,0,0:0:0:0:
64,192,5381,1,0,0:0:0:0:
192,192,5459,1,0,0:0:0:0:
320,192,5615,1,0,0:0:0:0:
448,192,5694,1,0,0:0:0:0:
192,192,5694,1,0,0:0:0:0:
320,192,5850,1,0,0:0:0:0:
64,192,5928,1,0,0:0:0:0:
320,192,6084,1,0,0:0:0:0:
192,192,6162,1,0,0:0:0:0:
448,192,6162,1,0,0:0:0:0:
320,192,6319,1,0,0:0:0:0:
64,192,6397,1,0,0:0:0:0:
320,192,6553,1,0,0:0:0:0:
192,192,6631,1,0,0:0:0:0:
448,192,6631,1,0,0:0:0:0:
320,192,6787,1,0,0:0:0:0:
64,192,6865,1,0,0:0:0:0:
320,192,7022,1,0,0:0:0:0:
448,192,7100,1,0,0:0:0:0:
192,192,7100,1,0,0:0:0:0:
320,192,7256,1,0,0:0:0:0:
64,192,7334,1,0,0:0:0:0:
192,192,7490,1,0,0:0:0:0:
320,192,7569,1,0,0:0:0:0:
448,192,7569,1,0,0:0:0:0:
192,192,7725,1,0,0:0:0:0:
64,192,7803,1,0,0:0:0:0:
192,192,7959,1,0,0:0:0:0:
320,192,8037,1,0,0:0:0:0:
448,192,8037,1,0,0:0:0:0:
192,192,8194,1,0,0:0:0:0:
64,192,8272,1,0,0:0:0:0:
192,192,8428,1,0,0:0:0:0:
320,192,8506,1,0,0:0:0:0:
448,192,8506,1,0,0:0:0:0:
192,192,8662,1,0,0:0:0:0:
64,192,8740,1,0,0:0:0:0:
192,192,8897,1,0,0:0:0:0:
320,192,8975,1,0,0:0:0:0:
448,192,8975,1,0,0:0:0:0:
192,192,9131,1,0,0:0:0:0:
64,192,9209,1,0,0:0:0:0:
192,192,9365,1,0,0:0:0:0:
448,192,9444,1,0,0:0:0:0:
320,192,9444,1,0,0:0:0:0:
192,192,9600,1,0,0:0:0:0:
64,192,9678,1,0,0:0:0:0:
320,192,9834,1,0,0:0:0:0:
192,192,9912,1,0,0:0:0:0:
448,192,9912,1,0,0:0:0:0:
320,192,10069,1,0,0:0:0:0:
64,192,10147,1,0,0:0:0:0:
448,192,10303,1,0,0:0:0:0:
320,192,10381,1,0,0:0:0:0:
192,192,10381,1,0,0:0:0:0:
448,192,10537,1,0,0:0:0:0:
64,192,10615,1,0,0:0:0:0:
192,192,10772,1,0,0:0:0:0:
320,192,10850,1,0,0:0:0:0:
64,192,10850,1,0,0:0:0:0:
192,192,11006,1,0,0:0:0:0:
320,192,11084,1,0,0:0:0:0:
448,192,11240,1,0,0:0:0:0:
320,192,11319,128,0,11553:0:0:0:0:
192,192,11475,1,0,0:0:0:0:
64,192,11553,1,0,0:0:0:0:
192,192,11709,1,0,0:0:0:0:
448,192,11787,1,0,0:0:0:0:
320,192,11787,128,0,12022:0:0:0:0:
192,192,11944,1,0,0:0:0:0:
64,192,12022,1,0,0:0:0:0:
192,192,12178,1,0,0:0:0:0:
448,192,12256,1,0,0:0:0:0:
320,192,12256,128,0,12490:0:0:0:0:
192,192,12412,1,0,0:0:0:0:
64,192,12490,1,0,0:0:0:0:
192,192,12647,1,0,0:0:0:0:
448,192,12725,1,0,0:0:0:0:
320,192,12725,128,0,12959:0:0:0:0:
192,192,12881,1,0,0:0:0:0:
64,192,12959,1,0,0:0:0:0:
192,192,13115,1,0,0:0:0:0:
320,192,13194,1,0,0:0:0:0:
448,192,13194,128,0,13428:0:0:0:0:
192,192,13350,1,0,0:0:0:0:
64,192,13428,1,0,0:0:0:0:
192,192,13584,1,0,0:0:0:0:
320,192,13662,1,0,0:0:0:0:
448,192,13662,128,0,13897:0:0:0:0:
192,192,13819,1,0,0:0:0:0:
64,192,13897,1,0,0:0:0:0:
192,192,14053,1,0,0:0:0:0:
320,192,14131,1,0,0:0:0:0:
448,192,14131,128,0,14365:0:0:0:0:
192,192,14287,1,0,0:0:0:0:
64,192,14365,1,0,0:0:0:0:
192,192,14522,1,0,0:0:0:0:
320,192,14600,1,0,0:0:0:0:
448,192,14600,128,0,14834:0:0:0:0:
192,192,14756,1,0,0:0:0:0:
64,192,14834,1,0,0:0:0:0:
192,192,14990,1,0,0:0:0:0:
320,192,15069,128,0,15303:0:0:0:0:
64,192,15069,1,0,0:0:0:0:
192,192,15303,1,0,0:0:0:0:
448,192,15459,1,0,0:0:0:0:
320,192,15537,128,0,15772:0:0:0:0:
64,192,15537,1,0,0:0:0:0:
192,192,15772,1,0,0:0:0:0:
448,192,15928,1,0,0:0:0:0:
320,192,16006,128,0,16240:0:0:0:0:
64,192,16006,1,0,0:0:0:0:
192,192,16240,1,0,0:0:0:0:
448,192,16397,1,0,0:0:0:0:
320,192,16475,128,0,16709:0:0:0:0:
64,192,16475,1,0,0:0:0:0:
192,192,16709,1,0,0:0:0:0:
320,192,16865,1,0,0:0:0:0:
448,192,16944,128,0,18819:0:0:0:0:
64,192,16944,1,0,0:0:0:0:
192,192,16944,1,0,0:0:0:0:
192,192,17178,1,0,0:0:0:0:
320,192,17178,1,0,0:0:0:0:
64,192,17412,1,0,0:0:0:0:
192,192,17412,1,0,0:0:0:0:
192,192,17764,1,0,0:0:0:0:
64,192,17881,1,0,0:0:0:0:
320,192,17998,1,0,0:0:0:0:
320,192,18233,1,0,0:0:0:0:
320,192,18467,1,0,0:0:0:0:
192,192,18584,128,0,18701:0:0:0:0:
64,192,18819,1,0,0:0:0:0:
320,192,18819,128,0,19053:0:0:0:0:
64,192,19053,1,0,0:0:0:0:
448,192,19209,1,0,0:0:0:0:
320,192,19287,1,0,0:0:0:0:
192,192,19287,1,0,0:0:0:0:
448,192,19444,1,0,0:0:0:0:
64,192,19522,1,0,0:0:0:0:
448,192,19678,1,0,0:0:0:0:
320,192,19756,1,0,0:0:0:0:
64,192,19756,1,0,0:0:0:0:
192,192,19912,1,0,0:0:0:0:
448,192,19990,1,0,0:0:0:0:
192,192,20147,1,0,0:0:0:0:
448,192,20225,1,0,0:0:0:0:
64,192,20225,1,0,0:0:0:0:
320,192,20381,1,0,0:0:0:0:
192,192,20459,1,0,0:0:0:0:
448,192,20459,128,0,20694:0:0:0:0:
64,192,20615,1,0,0:0:0:0:
192,192,20694,1,0,0:0:0:0:
320,192,20694,1,0,0:0:0:0:
64,192,20850,1,0,0:0:0:0:
192,192,20928,1,0,0:0:0:0:
320,192,21084,1,0,0:0:0:0:
448,192,21162,1,0,0:0:0:0:
192,192,21162,1,0,0:0:0:0:
64,192,21319,1,0,0:0:0:0:
320,192,21397,1,0,0:0:0:0:
192,192,21553,1,0,0:0:0:0:
64,192,21631,1,0,0:0:0:0:
320,192,21631,1,0,0:0:0:0:
192,192,21787,1,0,0:0:0:0:
448,192,21865,1,0,0:0:0:0:
64,192,22022,1,0,0:0:0:0:
192,192,22100,1,0,0:0:0:0:
320,192,22100,1,0,0:0:0:0:
64,192,22256,1,0,0:0:0:0:
448,192,22334,128,0,22569:0:0:0:0:
192,192,22334,1,0,0:0:0:0:
320,192,22490,1,0,0:0:0:0:
192,192,22569,1,0,0:0:0:0:
64,192,22569,1,0,0:0:0:0:
320,192,22725,1,0,0:0:0:0:
64,192,22803,1,0,0:0:0:0:
320,192,22959,1,0,0:0:0:0:
448,192,23037,1,0,0:0:0:0:
64,192,23037,1,0,0:0:0:0:
192,192,23194,1,0,0:0:0:0:
448,192,23272,1,0,0:0:0:0:
192,192,23428,1,0,0:0:0:0:
320,192,23506,1,0,0:0:0:0:
64,192,23506,1,0,0:0:0:0:
448,192,23662,1,0,0:0:0:0:
192,192,23740,1,0,0:0:0:0:
448,192,23897,1,0,0:0:0:0:
192,192,23975,1,0,0:0:0:0:
64,192,23975,1,0,0:0:0:0:
320,192,24131,1,0,0:0:0:0:
192,192,24209,1,0,0:0:0:0:
448,192,24209,128,0,24444:0:0:0:0:
64,192,24365,1,0,0:0:0:0:
192,192,24444,1,0,0:0:0:0:
320,192,24444,1,0,0:0:0:0:
64,192,24600,1,0,0:0:0:0:
192,192,24678,1,0,0:0:0:0:
320,192,24834,1,0,0:0:0:0:
448,192,24912,1,0,0:0:0:0:
192,192,24912,1,0,0:0:0:0:
64,192,25069,1,0,0:0:0:0:
320,192,25147,1,0,0:0:0:0:
448,192,25303,1,0,0:0:0:0:
64,192,25381,1,0,0:0:0:0:
192,192,25381,1,0,0:0:0:0:
320,192,25537,1,0,0:0:0:0:
448,192,25615,1,0,0:0:0:0:
64,192,25772,1,0,0:0:0:0:
192,192,25850,1,0,0:0:0:0:
320,192,25850,1,0,0:0:0:0:
64,192,26006,1,0,0:0:0:0:
448,192,26084,128,0,26319:0:0:0:0:
192,192,26084,1,0,0:0:0:0:
320,192,26240,1,0,0:0:0:0:
64,192,26319,1,0,0:0:0:0:
192,192,26319,1,0,0:0:0:0:
64,192,26553,128,0,26631:0:0:0:0:
320,192,26553,128,0,26631:0:0:0:0:
64,192,26787,128,0,26865:0:0:0:0:
192,192,26787,128,0,26865:0:0:0:0:
64,192,26944,128,0,27022:0:0:0:0:
320,192,26944,128,0,27022:0:0:0:0:
192,192,27022,128,0,27100:0:0:0:0:
448,192,27022,128,0,27100:0:0:0:0:
192,192,27178,128,0,27256:0:0:0:0:
320,192,27178,128,0,27256:0:0:0:0:
64,192,27256,128,0,27334:0:0:0:0:
448,192,27256,128,0,27334:0:0:0:0:
192,192,27647,128,0,27725:0:0:0:0:
320,192,27647,128,0,27725:0:0:0:0:
192,192,27959,128,0,28037:0:0:0:0:
448,192,27959,128,0,28037:0:0:0:0:
320,192,28194,128,0,28272:0:0:0:0:
448,192,28194,128,0,28272:0:0:0:0:
192,192,28350,128,0,28428:0:0:0:0:
64,192,28350,128,0,28428:0:0:0:0:
320,192,28584,128,0,28662:0:0:0:0:
448,192,28584,128,0,28662:0:0:0:0:
64,192,28819,128,0,28897:0:0:0:0:
192,192,28819,128,0,28897:0:0:0:0:
320,192,28897,128,0,28975:0:0:0:0:
448,192,28897,128,0,28975:0:0:0:0:
448,192,29131,128,0,29209:0:0:0:0:
192,192,29131,128,0,29209:0:0:0:0:
64,192,29287,128,0,29365:0:0:0:0:
320,192,29287,128,0,29365:0:0:0:0:
192,192,29522,128,0,29600:0:0:0:0:
448,192,29522,128,0,29600:0:0:0:0:
320,192,29834,128,0,29912:0:0:0:0:
64,192,29834,128,0,29912:0:0:0:0:
320,192,30303,128,0,30381:0:0:0:0:
64,192,30303,128,0,30381:0:0:0:0:
64,192,30537,128,0,30615:0:0:0:0:
192,192,30537,128,0,30615:0:0:0:0:
64,192,30694,128,0,30772:0:0:0:0:
320,192,30694,128,0,30772:0:0:0:0:
192,192,30772,128,0,30850:0:0:0:0:
448,192,30772,128,0,30850:0:0:0:0:
192,192,30928,128,0,31006:0:0:0:0:
320,192,30928,128,0,31006:0:0:0:0:
64,192,31006,128,0,31084:0:0:0:0:
448,192,31006,128,0,31084:0:0:0:0:
192,192,31397,128,0,31475:0:0:0:0:
320,192,31397,128,0,31475:0:0:0:0:
192,192,31709,128,0,31787:0:0:0:0:
448,192,31709,128,0,31787:0:0:0:0:
320,192,31944,128,0,32022:0:0:0:0:
448,192,31944,128,0,32022:0:0:0:0:
192,192,32100,128,0,32178:0:0:0:0:
64,192,32100,128,0,32178:0:0:0:0:
448,192,32334,128,0,32412:0:0:0:0:
192,192,32334,128,0,32412:0:0:0:0:
320,192,32412,128,0,32490:0:0:0:0:
64,192,32412,128,0,32490:0:0:0:0:
448,192,32647,128,0,32725:0:0:0:0:
64,192,32647,128,0,32725:0:0:0:0:
320,192,32881,128,0,32959:0:0:0:0:
192,192,32881,128,0,32959:0:0:0:0:
192,192,33272,128,0,33350:0:0:0:0:
64,192,33272,128,0,33350:0:0:0:0:
320,192,33350,1,0,0:0:0:0:
448,192,33350,1,0,0:0:0:0:
192,192,33467,1,0,0:0:0:0:
64,192,33467,1,0,0:0:0:0:
320,192,33584,1,0,0:0:0:0:
448,192,33584,1,0,0:0:0:0:
192,192,33701,1,0,0:0:0:0:
64,192,33701,1,0,0:0:0:0:
448,192,33819,128,0,34287:0:0:0:0:
64,192,33819,1,0,0:0:0:0:
192,192,34053,1,0,0:0:0:0:
192,192,34209,1,0,0:0:0:0:
64,192,34287,1,0,0:0:0:0:
320,192,34287,1,0,0:0:0:0:
320,192,34444,1,0,0:0:0:0:
448,192,34522,1,0,0:0:0:0:
192,192,34522,1,0,0:0:0:0:
192,192,34678,1,0,0:0:0:0:
64,192,34756,1,0,0:0:0:0:
320,192,34756,1,0,0:0:0:0:
320,192,34912,1,0,0:0:0:0:
448,192,34990,1,0,0:0:0:0:
192,192,34990,1,0,0:0:0:0:
192,192,35147,1,0,0:0:0:0:
64,192,35225,1,0,0:0:0:0:
320,192,35225,1,0,0:0:0:0:
320,192,35381,1,0,0:0:0:0:
448,192,35459,128,0,35694:0:0:0:0:
192,192,35459,1,0,0:0:0:0:
64,192,35694,1,0,0:0:0:0:
320,192,35694,1,0,0:0:0:0:
192,192,35850,1,0,0:0:0:0:
64,192,35928,1,0,0:0:0:0:
448,192,35928,1,0,0:0:0:0:
320,192,36084,1,0,0:0:0:0:
448,192,36162,1,0,0:0:0:0:
192,192,36162,1,0,0:0:0:0:
192,192,36319,1,0,0:0:0:0:
64,192,36397,1,0,0:0:0:0:
448,192,36397,1,0,0:0:0:0:
320,192,36553,1,0,0:0:0:0:
448,192,36631,1,0,0:0:0:0:
192,192,36631,1,0,0:0:0:0:
192,192,36787,1,0,0:0:0:0:
64,192,36865,1,0,0:0:0:0:
448,192,36865,1,0,0:0:0:0:
320,192,37022,1,0,0:0:0:0:
448,192,37100,1,0,0:0:0:0:
64,192,37100,1,0,0:0:0:0:
192,192,37256,1,0,0:0:0:0:
448,192,37334,128,0,37569:0:0:0:0:
320,192,37334,1,0,0:0:0:0:
64,192,37569,1,0,0:0:0:0:
192,192,37569,1,0,0:0:0:0:
448,192,37725,1,0,0:0:0:0:
320,192,37803,1,0,0:0:0:0:
64,192,37803,1,0,0:0:0:0:
64,192,37959,1,0,0:0:0:0:
192,192,38037,1,0,0:0:0:0:
320,192,38037,1,0,0:0:0:0:
448,192,38194,1,0,0:0:0:0:
320,192,38272,1,0,0:0:0:0:
64,192,38272,1,0,0:0:0:0:
64,192,38428,1,0,0:0:0:0:
192,192,38506,1,0,0:0:0:0:
320,192,38506,1,0,0:0:0:0:
448,192,38662,1,0,0:0:0:0:
320,192,38740,1,0,0:0:0:0:
192,192,38740,1,0,0:0:0:0:
64,192,38897,1,0,0:0:0:0:
192,192,38975,1,0,0:0:0:0:
320,192,38975,1,0,0:0:0:0:
320,192,39131,1,0,0:0:0:0:
448,192,39209,128,0,39444:0:0:0:0:
64,192,39209,1,0,0:0:0:0:
320,192,39444,1,0,0:0:0:0:
192,192,39444,1,0,0:0:0:0:
64,192,39600,1,0,0:0:0:0:
448,192,39600,1,0,0:0:0:0:
320,192,39678,1,0,0:0:0:0:
192,192,39678,1,0,0:0:0:0:
448,192,39834,1,0,0:0:0:0:
192,192,39834,1,0,0:0:0:0:
64,192,39912,1,0,0:0:0:0:
320,192,39912,1,0,0:0:0:0:
448,192,40069,1,0,0:0:0:0:
192,192,40069,1,0,0:0:0:0:
64,192,40147,1,0,0:0:0:0:
320,192,40147,1,0,0:0:0:0:
320,192,40303,1,0,0:0:0:0:
448,192,40303,1,0,0:0:0:0:
64,192,40381,1,0,0:0:0:0:
192,192,40381,1,0,0:0:0:0:
448,192,40537,1,0,0:0:0:0:
320,192,40537,1,0,0:0:0:0:
192,192,40615,1,0,0:0:0:0:
64,192,40615,1,0,0:0:0:0:
192,192,40772,1,0,0:0:0:0:
320,192,40772,1,0,0:0:0:0:
448,192,40772,1,0,0:0:0:0:
64,192,40850,1,0,0:0:0:0:
192,192,40850,1,0,0:0:0:0:
320,192,40967,1,0,0:0:0:0:
448,192,40967,1,0,0:0:0:0:
192,192,41084,1,0,0:0:0:0:
64,192,41084,1,0,0:0:0:0:
320,192,41201,1,0,0:0:0:0:
448,192,41201,1,0,0:0:0:0:
64,192,41319,1,0,0:0:0:0:
192,192,41319,1,0,0:0:0:0:
320,192,41475,1,0,0:0:0:0:
448,192,41475,1,0,0:0:0:0:
192,192,41553,1,0,0:0:0:0:
192,192,41709,1,0,0:0:0:0:
64,192,41709,1,0,0:0:0:0:
320,192,41787,1,0,0:0:0:0:
448,192,41787,1,0,0:0:0:0:
320,192,41944,1,0,0:0:0:0:
64,192,42022,1,0,0:0:0:0:
64,192,42178,1,0,0:0:0:0:
320,192,42256,1,0,0:0:0:0:
448,192,42412,1,0,0:0:0:0:
192,192,42412,1,0,0:0:0:0:
320,192,42490,1,0,0:0:0:0:
320,192,42647,1,0,0:0:0:0:
64,192,42647,1,0,0:0:0:0:
192,192,42725,1,0,0:0:0:0:
448,192,42725,1,0,0:0:0:0:
192,192,42881,1,0,0:0:0:0:
320,192,42959,1,0,0:0:0:0:
64,192,42959,1,0,0:0:0:0:
192,192,43115,1,0,0:0:0:0:
320,192,43194,1,0,0:0:0:0:
448,192,43194,1,0,0:0:0:0:
320,192,43350,1,0,0:0:0:0:
448,192,43350,1,0,0:0:0:0:
64,192,43428,1,0,0:0:0:0:
320,192,43584,1,0,0:0:0:0:
192,192,43662,1,0,0:0:0:0:
448,192,43662,1,0,0:0:0:0:
192,192,43819,1,0,0:0:0:0:
448,192,43819,1,0,0:0:0:0:
64,192,43897,1,0,0:0:0:0:
64,192,44053,1,0,0:0:0:0:
320,192,44131,1,0,0:0:0:0:
192,192,44131,1,0,0:0:0:0:
448,192,44287,1,0,0:0:0:0:
320,192,44365,1,0,0:0:0:0:
64,192,44522,1,0,0:0:0:0:
448,192,44522,1,0,0:0:0:0:
192,192,44600,1,0,0:0:0:0:
448,192,44756,1,0,0:0:0:0:
320,192,44834,1,0,0:0:0:0:
64,192,44990,1,0,0:0:0:0:
192,192,45069,1,0,0:0:0:0:
320,192,45069,1,0,0:0:0:0:
320,192,45225,1,0,0:0:0:0:
448,192,45225,1,0,0:0:0:0:
192,192,45303,1,0,0:0:0:0:
64,192,45459,1,0,0:0:0:0:
192,192,45459,1,0,0:0:0:0:
320,192,45537,1,0,0:0:0:0:
448,192,45537,1,0,0:0:0:0:
320,192,45694,1,0,0:0:0:0:
64,192,45772,1,0,0:0:0:0:
64,192,45928,1,0,0:0:0:0:
320,192,46006,1,0,0:0:0:0:
448,192,46162,1,0,0:0:0:0:
192,192,46162,1,0,0:0:0:0:
320,192,46240,1,0,0:0:0:0:
320,192,46397,1,0,0:0:0:0:
64,192,46397,1,0,0:0:0:0:
192,192,46475,1,0,0:0:0:0:
448,192,46475,1,0,0:0:0:0:
192,192,46631,1,0,0:0:0:0:
320,192,46709,1,0,0:0:0:0:
64,192,46709,1,0,0:0:0:0:
192,192,46865,1,0,0:0:0:0:
320,192,46944,1,0,0:0:0:0:
448,192,46944,1,0,0:0:0:0:
64,192,46944,128,0,47022:0:0:0:0:
320,192,47100,1,0,0:0:0:0:
448,192,47100,1,0,0:0:0:0:
192,192,47178,128,0,47256:0:0:0:0:
320,192,47412,1,0,0:0:0:0:
192,192,47412,1,0,0:0:0:0:
64,192,47412,128,0,47490:0:0:0:0:
192,192,47647,128,0,47725:0:0:0:0:
448,192,47881,1,0,0:0:0:0:
192,192,47881,1,0,0:0:0:0:
64,192,47881,128,0,47959:0:0:0:0:
320,192,48115,1,0,0:0:0:0:
192,192,48115,128,0,48194:0:0:0:0:
320,192,48272,1,0,0:0:0:0:
64,192,48272,1,0,0:0:0:0:
192,192,48350,128,0,48428:0:0:0:0:
448,192,48584,128,0,48662:0:0:0:0:
192,192,48819,128,0,48897:0:0:0:0:
64,192,48819,128,0,49756:0:0:0:0:
448,192,48819,1,0,0:0:0:0:
320,192,49053,128,0,49131:0:0:0:0:
448,192,49053,1,0,0:0:0:0:
192,192,49287,128,0,49365:0:0:0:0:
448,192,49287,1,0,0:0:0:0:
448,192,49444,128,0,49522:0:0:0:0:
320,192,49522,1,0,0:0:0:0:
320,192,49678,128,0,49756:0:0:0:0:
192,192,49756,128,0,49834:0:0:0:0:
448,192,49756,1,0,0:0:0:0:
320,192,49912,1,0,0:0:0:0:
192,192,49990,128,0,50069:0:0:0:0:
448,192,49990,1,0,0:0:0:0:
64,192,50147,128,0,50225:0:0:0:0:
448,192,50147,1,0,0:0:0:0:
320,192,50225,1,0,0:0:0:0:
320,192,50381,1,0,0:0:0:0:
448,192,50459,1,0,0:0:0:0:
64,192,50615,1,0,0:0:0:0:
448,192,50694,128,0,50772:0:0:0:0:
192,192,50694,1,0,0:0:0:0:
192,192,50850,1,0,0:0:0:0:
448,192,50928,128,0,51006:0:0:0:0:
320,192,50928,1,0,0:0:0:0:
320,192,51084,1,0,0:0:0:0:
64,192,51162,128,0,51240:0:0:0:0:
192,192,51162,1,0,0:0:0:0:
320,192,51319,128,0,51397:0:0:0:0:
192,192,51319,1,0,0:0:0:0:
448,192,51397,1,0,0:0:0:0:
192,192,51553,128,0,51631:0:0:0:0:
448,192,51553,1,0,0:0:0:0:
320,192,51631,128,0,51709:0:0:0:0:
64,192,51631,1,0,0:0:0:0:
64,192,51787,1,0,0:0:0:0:
320,192,51865,128,0,51944:0:0:0:0:
192,192,51865,1,0,0:0:0:0:
192,192,52022,128,0,52100:0:0:0:0:
448,192,52022,1,0,0:0:0:0:
320,192,52100,1,0,0:0:0:0:
192,192,52256,1,0,0:0:0:0:
64,192,52334,1,0,0:0:0:0:
320,192,52490,1,0,0:0:0:0:
192,192,52569,128,0,52647:0:0:0:0:
448,192,52569,1,0,0:0:0:0:
448,192,52725,1,0,0:0:0:0:
320,192,52803,128,0,52881:0:0:0:0:
64,192,52803,1,0,0:0:0:0:
64,192,52959,1,0,0:0:0:0:
192,192,53037,128,0,53115:0:0:0:0:
448,192,53037,1,0,0:0:0:0:
448,192,53194,128,0,53272:0:0:0:0:
320,192,53194,1,0,0:0:0:0:
64,192,53272,1,0,0:0:0:0:
320,192,53428,128,0,53506:0:0:0:0:
64,192,53428,1,0,0:0:0:0:
192,192,53506,128,0,53584:0:0:0:0:
448,192,53506,1,0,0:0:0:0:
448,192,53662,1,0,0:0:0:0:
192,192,53740,128,0,53819:0:0:0:0:
320,192,53740,1,0,0:0:0:0:
64,192,53897,128,0,53975:0:0:0:0:
320,192,53897,1,0,0:0:0:0:
448,192,53975,1,0,0:0:0:0:
320,192,54131,1,0,0:0:0:0:
192,192,54209,1,0,0:0:0:0:
64,192,54365,1,0,0:0:0:0:
448,192,54444,128,0,54522:0:0:0:0:
192,192,54444,1,0,0:0:0:0:
320,192,54600,1,0,0:0:0:0:
448,192,54678,128,0,54756:0:0:0:0:
192,192,54678,1,0,0:0:0:0:
64,192,54834,1,0,0:0:0:0:
320,192,54912,128,0,54990:0:0:0:0:
192,192,54912,1,0,0:0:0:0:
192,192,55069,1,0,0:0:0:0:
320,192,55147,128,0,55225:0:0:0:0:
64,192,55147,1,0,0:0:0:0:
448,192,55303,1,0,0:0:0:0:
192,192,55381,128,0,55459:0:0:0:0:
64,192,55381,1,0,0:0:0:0:
64,192,55537,1,0,0:0:0:0:
448,192,55615,1,0,0:0:0:0:
64,192,55772,128,0,55850:0:0:0:0:
320,192,55772,1,0,0:0:0:0:
192,192,55850,1,0,0:0:0:0:
64,192,56006,1,0,0:0:0:0:
192,192,56084,1,0,0:0:0:0:
320,192,56240,1,0,0:0:0:0:
192,192,56319,128,0,56397:0:0:0:0:
64,192,56319,1,0,0:0:0:0:
448,192,56319,128,0,56553:0:0:0:0:
320,192,56553,128,0,56631:0:0:0:0:
192,192,56787,128,0,56865:0:0:0:0:
64,192,56787,128,0,57022:0:0:0:0:
448,192,56944,128,0,57022:0:0:0:0:
320,192,57178,128,0,57256:0:0:0:0:
192,192,57256,128,0,57334:0:0:0:0:
448,192,57256,128,0,57490:0:0:0:0:
192,192,57490,128,0,57569:0:0:0:0:
64,192,57647,128,0,57725:0:0:0:0:
192,192,57725,128,0,57959:0:0:0:0:
320,192,57959,128,0,58194:0:0:0:0:
448,192,58194,128,0,58272:0:0:0:0:
192,192,58194,128,0,58428:0:0:0:0:
448,192,58428,128,0,58506:0:0:0:0:
64,192,58662,128,0,58740:0:0:0:0:
192,192,58662,128,0,58897:0:0:0:0:
320,192,58819,128,0,58897:0:0:0:0:
192,192,59053,128,0,59131:0:0:0:0:
320,192,59131,128,0,59209:0:0:0:0:
64,192,59131,128,0,59365:0:0:0:0:
320,192,59365,128,0,59444:0:0:0:0:
192,192,59522,128,0,59600:0:0:0:0:
64,192,59600,128,0,59834:0:0:0:0:
320,192,59834,128,0,60069:0:0:0:0:
192,192,60069,128,0,60147:0:0:0:0:
448,192,60069,128,0,60303:0:0:0:0:
320,192,60303,128,0,60381:0:0:0:0:
192,192,60537,128,0,60615:0:0:0:0:
64,192,60537,128,0,60772:0:0:0:0:
448,192,60694,128,0,60772:0:0:0:0:
320,192,60928,128,0,61006:0:0:0:0:
192,192,61006,128,0,61084:0:0:0:0:
448,192,61006,128,0,61240:0:0:0:0:
192,192,61240,128,0,61319:0:0:0:0:
64,192,61397,128,0,61475:0:0:0:0:
192,192,61475,128,0,61709:0:0:0:0:
320,192,61709,128,0,61944:0:0:0:0:
64,192,61944,1,0,0:0:0:0:
320,192,62100,1,0,0:0:0:0:
448,192,62178,128,0,62412:0:0:0:0:
64,192,62412,1,0,0:0:0:0:
320,192,62569,1,0,0:0:0:0:
448,192,62647,128,0,62881:0:0:0:0:
192,192,62803,1,0,0:0:0:0:
64,192,62881,1,0,0:0:0:0:
320,192,63037,1,0,0:0:0:0:
192,192,63037,1,0,0:0:0:0:
448,192,63115,128,0,63350:0:0:0:0:
64,192,63350,1,0,0:0:0:0:
192,192,63350,1,0,0:0:0:0:
320,192,63506,1,0,0:0:0:0:
192,192,63506,1,0,0:0:0:0:
448,192,63584,128,0,63819:0:0:0:0:
64,192,63584,1,0,0:0:0:0:
192,192,63740,1,0,0:0:0:0:
320,192,63819,128,0,64053:0:0:0:0:
64,192,63819,1,0,0:0:0:0:
64,192,64053,1,0,0:0:0:0:
448,192,64209,1,0,0:0:0:0:
320,192,64287,1,0,0:0:0:0:
192,192,64287,1,0,0:0:0:0:
448,192,64444,1,0,0:0:0:0:
64,192,64522,1,0,0:0:0:0:
448,192,64678,1,0,0:0:0:0:
320,192,64756,1,0,0:0:0:0:
64,192,64756,1,0,0:0:0:0:
192,192,64912,1,0,0:0:0:0:
448,192,64990,1,0,0:0:0:0:
192,192,65147,1,0,0:0:0:0:
448,192,65225,1,0,0:0:0:0:
64,192,65225,1,0,0:0:0:0:
320,192,65381,1,0,0:0:0:0:
192,192,65459,1,0,0:0:0:0:
448,192,65459,128,0,65694:0:0:0:0:
64,192,65615,1,0,0:0:0:0:
192,192,65694,1,0,0:0:0:0:
320,192,65694,1,0,0:0:0:0:
64,192,65850,1,0,0:0:0:0:
192,192,65928,1,0,0:0:0:0:
320,192,66084,1,0,0:0:0:0:
448,192,66162,1,0,0:0:0:0:
192,192,66162,1,0,0:0:0:0:
64,192,66319,1,0,0:0:0:0:
320,192,66397,1,0,0:0:0:0:
192,192,66553,1,0,0:0:0:0:
64,192,66631,1,0,0:0:0:0:
320,192,66631,1,0,0:0:0:0:
192,192,66787,1,0,0:0:0:0:
448,192,66865,1,0,0:0:0:0:
64,192,67022,1,0,0:0:0:0:
192,192,67100,1,0,0:0:0:0:
320,192,67100,1,0,0:0:0:0:
64,192,67256,1,0,0:0:0:0:
448,192,67334,128,0,67569:0:0:0:0:
192,192,67334,1,0,0:0:0:0:
320,192,67490,1,0,0:0:0:0:
192,192,67569,1,0,0:0:0:0:
64,192,67569,1,0,0:0:0:0:
320,192,67725,1,0,0:0:0:0:
64,192,67803,1,0,0:0:0:0:
320,192,67959,1,0,0:0:0:0:
448,192,68037,1,0,0:0:0:0:
64,192,68037,1,0,0:0:0:0:
192,192,68194,1,0,0:0:0:0:
448,192,68272,1,0,0:0:0:0:
192,192,68428,1,0,0:0:0:0:
320,192,68506,1,0,0:0:0:0:
64,192,68506,1,0,0:0:0:0:
448,192,68662,1,0,0:0:0:0:
192,192,68740,1,0,0:0:0:0:
448,192,68897,1,0,0:0:0:0:
192,192,68975,1,0,0:0:0:0:
64,192,68975,1,0,0:0:0:0:
320,192,69131,1,0,0:0:0:0:
192,192,69209,1,0,0:0:0:0:
448,192,69209,128,0,69444:0:0:0:0:
64,192,69365,1,0,0:0:0:0:
192,192,69444,1,0,0:0:0:0:
320,192,69444,1,0,0:0:0:0:
64,192,69600,1,0,0:0:0:0:
192,192,69678,1,0,0:0:0:0:
320,192,69834,1,0,0:0:0:0:
448,192,69912,1,0,0:0:0:0:
192,192,69912,1,0,0:0:0:0:
64,192,70069,1,0,0:0:0:0:
320,192,70147,1,0,0:0:0:0:
448,192,70303,1,0,0:0:0:0:
64,192,70381,1,0,0:0:0:0:
192,192,70381,1,0,0:0:0:0:
320,192,70537,1,0,0:0:0:0:
448,192,70615,1,0,0:0:0:0:
64,192,70772,1,0,0:0:0:0:
192,192,70850,1,0,0:0:0:0:
320,192,70850,1,0,0:0:0:0:
64,192,71006,1,0,0:0:0:0:
448,192,71084,128,0,71319:0:0:0:0:
192,192,71084,1,0,0:0:0:0:
320,192,71240,1,0,0:0:0:0:
64,192,71319,1,0,0:0:0:0:
192,192,71319,1,0,0:0:0:0:
64,192,71553,128,0,71631:0:0:0:0:
320,192,71553,128,0,71631:0:0:0:0:
64,192,71787,128,0,71865:0:0:0:0:
192,192,71787,128,0,71865:0:0:0:0:
64,192,71944,128,0,72022:0:0:0:0:
320,192,71944,128,0,72022:0:0:0:0:
192,192,72022,128,0,72100:0:0:0:0:
448,192,72022,128,0,72100:0:0:0:0:
192,192,72178,128,0,72256:0:0:0:0:
320,192,72178,128,0,72256:0:0:0:0:
64,192,72256,128,0,72334:0:0:0:0:
448,192,72256,128,0,72334:0:0:0:0:
192,192,72647,128,0,72725:0:0:0:0:
320,192,72647,128,0,72725:0:0:0:0:
192,192,72959,128,0,73037:0:0:0:0:
448,192,72959,128,0,73037:0:0:0:0:
320,192,73194,128,0,73272:0:0:0:0:
448,192,73194,128,0,73272:0:0:0:0:
192,192,73350,128,0,73428:0:0:0:0:
64,192,73350,128,0,73428:0:0:0:0:
320,192,73584,128,0,73662:0:0:0:0:
448,192,73584,128,0,73662:0:0:0:0:
64,192,73819,128,0,73897:0:0:0:0:
192,192,73819,128,0,73897:0:0:0:0:
320,192,73897,128,0,73975:0:0:0:0:
448,192,73897,128,0,73975:0:0:0:0:
448,192,74131,128,0,74209:0:0:0:0:
192,192,74131,128,0,74209:0:0:0:0:
64,192,74287,128,0,74365:0:0:0:0:
320,192,74287,128,0,74365:0:0:0:0:
192,192,74522,128,0,74600:0:0:0:0:
448,192,74522,128,0,74600:0:0:0:0:
320,192,74834,128,0,74912:0:0:0:0:
64,192,74834,128,0,74912:0:0:0:0:
320,192,75303,128,0,75381:0:0:0:0:
64,192,75303,128,0,75381:0:0:0:0:
64,192,75537,128,0,75615:0:0:0:0:
192,192,75537,128,0,75615:0:0:0:0:
64,192,75694,128,0,75772:0:0:0:0:
320,192,75694,128,0,75772:0:0:0:0:
192,192,75772,128,0,75850:0:0:0:0:
448,192,75772,128,0,75850:0:0:0:0:
192,192,75928,128,0,76006:0:0:0:0:
320,192,75928,128,0,76006:0:0:0:0:
64,192,76006,128,0,76084:0:0:0:0:
448,192,76006,128,0,76084:0:0:0:0:
192,192,76397,128,0,76475:0:0:0:0:
320,192,76397,128,0,76475:0:0:0:0:
192,192,76709,128,0,76787:0:0:0:0:
448,192,76709,128,0,76787:0:0:0:0:
320,192,76944,128,0,77022:0:0:0:0:
448,192,76944,128,0,77022:0:0:0:0:
192,192,77100,128,0,77178:0:0:0:0:
64,192,77100,128,0,77178:0:0:0:0:
448,192,77334,128,0,77412:0:0:0:0:
192,192,77334,128,0,77412:0:0:0:0:
320,192,77412,128,0,77490:0:0:0:0:
64,192,77412,128,0,77490:0:0:0:0:
448,192,77647,128,0,77725:0:0:0:0:
64,192,77647,128,0,77725:0:0:0:0:
320,192,77881,128,0,77959:0:0:0:0:
192,192,77881,128,0,77959:0:0:0:0:
192,192,78272,128,0,78350:0:0:0:0:
64,192,78272,128,0,78350:0:0:0:0:
320,192,78350,1,0,0:0:0:0:
448,192,78350,1,0,0:0:0:0:
192,192,78467,1,0,0:0:0:0:
64,192,78467,1,0,0:0:0:0:
320,192,78584,1,0,0:0:0:0:
448,192,78584,1,0,0:0:0:0:
192,192,78701,1,0,0:0:0:0:
64,192,78701,1,0,0:0:0:0:
448,192,78819,128,0,79287:0:0:0:0:
64,192,78819,1,0,0:0:0:0:
192,192,79053,1,0,0:0:0:0:
192,192,79209,1,0,0:0:0:0:
64,192,79287,1,0,0:0:0:0:
320,192,79287,1,0,0:0:0:0:
320,192,79444,1,0,0:0:0:0:
448,192,79522,1,0,0:0:0:0:
192,192,79522,1,0,0:0:0:0:
192,192,79678,1,0,0:0:0:0:
64,192,79756,1,0,0:0:0:0:
320,192,79756,1,0,0:0:0:0:
320,192,79912,1,0,0:0:0:0:
448,192,79990,1,0,0:0:0:0:
192,192,79990,1,0,0:0:0:0:
192,192,80147,1,0,0:0:0:0:
64,192,80225,1,0,0:0:0:0:
320,192,80225,1,0,0:0:0:0:
320,192,80381,1,0,0:0:0:0:
448,192,80459,128,0,80694:0:0:0:0:
192,192,80459,1,0,0:0:0:0:
64,192,80694,1,0,0:0:0:0:
320,192,80694,1,0,0:0:0:0:
192,192,80850,1,0,0:0:0:0:
64,192,80928,1,0,0:0:0:0:
448,192,80928,1,0,0:0:0:0:
320,192,81084,1,0,0:0:0:0:
448,192,81162,1,0,0:0:0:0:
192,192,81162,1,0,0:0:0:0:
192,192,81319,1,0,0:0:0:0:
64,192,81397,1,0,0:0:0:0:
448,192,81397,1,0,0:0:0:0:
320,192,81553,1,0,0:0:0:0:
448,192,81631,1,0,0:0:0:0:
192,192,81631,1,0,0:0:0:0:
192,192,81787,1,0,0:0:0:0:
64,192,81865,1,0,0:0:0:0:
448,192,81865,1,0,0:0:0:0:
320,192,82022,1,0,0:0:0:0:
448,192,82100,1,0,0:0:0:0:
64,192,82100,1,0,0:0:0:0:
192,192,82256,1,0,0:0:0:0:
448,192,82334,128,0,82569:0:0:0:0:
320,192,82334,1,0,0:0:0:0:
64,192,82569,1,0,0:0:0:0:
192,192,82569,1,0,0:0:0:0:
448,192,82725,1,0,0:0:0:0:
320,192,82803,1,0,0:0:0:0:
64,192,82803,1,0,0:0:0:0:
64,192,82959,1,0,0:0:0:0:
192,192,83037,1,0,0:0:0:0:
320,192,83037,1,0,0:0:0:0:
448,192,83194,1,0,0:0:0:0:
320,192,83272,1,0,0:0:0:0:
64,192,83272,1,0,0:0:0:0:
64,192,83428,1,0,0:0:0:0:
192,192,83506,1,0,0:0:0:0:
320,192,83506,1,0,0:0:0:0:
448,192,83662,1,0,0:0:0:0:
320,192,83740,1,0,0:0:0:0:
192,192,83740,1,0,0:0:0:0:
64,192,83897,1,0,0:0:0:0:
192,192,83975,1,0,0:0:0:0:
320,192,83975,1,0,0:0:0:0:
320,192,84131,1,0,0:0:0:0:
448,192,84209,128,0,84444:0:0:0:0:
64,192,84209,1,0,0:0:0:0:
320,192,84444,1,0,0:0:0:0:
192,192,84444,1,0,0:0:0:0:
64,192,84600,1,0,0:0:0:0:
448,192,84600,1,0,0:0:0:0:
320,192,84678,1,0,0:0:0:0:
192,192,84678,1,0,0:0:0:0:
448,192,84834,1,0,0:0:0:0:
192,192,84834,1,0,0:0:0:0:
64,192,84912,1,0,0:0:0:0:
320,192,84912,1,0,0:0:0:0:
448,192,85069,1,0,0:0:0:0:
192,192,85069,1,0,0:0:0:0:
64,192,85147,1,0,0:0:0:0:
320,192,85147,1,0,0:0:0:0:
64,192,85303,1,0,0:0:0:0:
192,192,85303,1,0,0:0:0:0:
320,192,85381,1,0,0:0:0:0:
448,192,85381,1,0,0:0:0:0:
192,192,85537,1,0,0:0:0:0:
64,192,85537,1,0,0:0:0:0:
448,192,85615,1,0,0:0:0:0:
320,192,85615,1,0,0:0:0:0:
192,192,85772,1,0,0:0:0:0:
64,192,85772,1,0,0:0:0:0:
448,192,85772,1,0,0:0:0:0:
320,192,85850,1,0,0:0:0:0:
448,192,85850,1,0,0:0:0:0:
64,192,85967,1,0,0:0:0:0:
192,192,85967,1,0,0:0:0:0:
448,192,86084,1,0,0:0:0:0:
320,192,86084,1,0,0:0:0:0:
64,192,86201,1,0,0:0:0:0:
192,192,86201,1,0,0:0:0:0:
320,192,86319,1,0,0:0:0:0:
448,192,86319,1,0,0:0:0:0:
320,192,86475,1,0,0:0:0:0:
448,192,86475,1,0,0:0:0:0:
192,192,86553,1,0,0:0:0:0:
192,192,86709,1,0,0:0:0:0:
64,192,86709,1,0,0:0:0:0:
320,192,86787,1,0,0:0:0:0:
448,192,86787,1,0,0:0:0:0:
320,192,86944,1,0,0:0:0:0:
64,192,87022,1,0,0:0:0:0:
64,192,87178,1,0,0:0:0:0:
320,192,87256,1,0,0:0:0:0:
448,192,87412,1,0,0:0:0:0:
192,192,87412,1,0,0:0:0:0:
320,192,87490,1,0,0:0:0:0:
320,192,87647,1,0,0:0:0:0:
64,192,87647,1,0,0:0:0:0:
192,192,87725,1,0,0:0:0:0:
448,192,87725,1,0,0:0:0:0:
192,192,87881,1,0,0:0:0:0:
320,192,87959,1,0,0:0:0:0:
64,192,87959,1,0,0:0:0:0:
192,192,88115,1,0,0:0:0:0:
320,192,88194,1,0,0:0:0:0:
448,192,88194,1,0,0:0:0:0:
320,192,88350,1,0,0:0:0:0:
448,192,88350,1,0,0:0:0:0:
64,192,88428,1,0,0:0:0:0:
320,192,88584,1,0,0:0:0:0:
192,192,88662,1,0,0:0:0:0:
448,192,88662,1,0,0:0:0:0:
192,192,88819,1,0,0:0:0:0:
448,192,88819,1,0,0:0:0:0:
64,192,88897,1,0,0:0:0:0:
64,192,89053,1,0,0:0:0:0:
320,192,89131,1,0,0:0:0:0:
192,192,89131,1,0,0:0:0:0:
448,192,89287,1,0,0:0:0:0:
320,192,89365,1,0,0:0:0:0:
64,192,89522,1,0,0:0:0:0:
448,192,89522,1,0,0:0:0:0:
192,192,89600,1,0,0:0:0:0:
448,192,89756,1,0,0:0:0:0:
320,192,89834,1,0,0:0:0:0:
64,192,89990,1,0,0:0:0:0:
192,192,90069,1,0,0:0:0:0:
320,192,90069,1,0,0:0:0:0:
320,192,90225,1,0,0:0:0:0:
448,192,90225,1,0,0:0:0:0:
192,192,90303,1,0,0:0:0:0:
64,192,90459,1,0,0:0:0:0:
192,192,90459,1,0,0:0:0:0:
320,192,90537,1,0,0:0:0:0:
448,192,90537,1,0,0:0:0:0:
320,192,90694,1,0,0:0:0:0:
64,192,90772,1,0,0:0:0:0:
64,192,90928,1,0,0:0:0:0:
320,192,91006,1,0,0:0:0:0:
448,192,91162,1,0,0:0:0:0:
192,192,91162,1,0,0:0:0:0:
320,192,91240,1,0,0:0:0:0:
320,192,91397,1,0,0:0:0:0:
64,192,91397,1,0,0:0:0:0:
192,192,91475,1,0,0:0:0:0:
448,192,91475,1,0,0:0:0:0:
192,192,91631,1,0,0:0:0:0:
320,192,91709,1,0,0:0:0:0:
64,192,91709,1,0,0:0:0:0:
192,192,91865,1,0,0:0:0:0:
320,192,91944,1,0,0:0:0:0:
448,192,91944,1,0,0:0:0:0:
64,192,91944,128,0,92022:0:0:0:0:
320,192,92100,1,0,0:0:0:0:
448,192,92100,1,0,0:0:0:0:
192,192,92178,128,0,92256:0:0:0:0:
320,192,92412,1,0,0:0:0:0:
192,192,92412,1,0,0:0:0:0:
64,192,92412,128,0,92490:0:0:0:0:
192,192,92647,128,0,92725:0:0:0:0:
448,192,92881,1,0,0:0:0:0:
192,192,92881,1,0,0:0:0:0:
64,192,92881,128,0,92959:0:0:0:0:
320,192,92998,1,0,0:0:0:0:
320,192,93115,1,0,0:0:0:0:
192,192,93115,128,0,93194:0:0:0:0:
448,192,93233,1,0,0:0:0:0:
320,192,93272,1,0,0:0:0:0:
64,192,93272,1,0,0:0:0:0:
192,192,93350,128,0,93428:0:0:0:0:
448,192,93350,1,0,0:0:0:0:
448,192,93584,128,0,93662:0:0:0:0:
320,192,93819,1,0,0:0:0:0:
448,192,93819,128,0,94053:0:0:0:0:
192,192,93975,1,0,0:0:0:0:
64,192,94053,1,0,0:0:0:0:
192,192,94209,1,0,0:0:0:0:
320,192,94287,1,0,0:0:0:0:
448,192,94287,128,0,94522:0:0:0:0:
192,192,94444,1,0,0:0:0:0:
64,192,94522,1,0,0:0:0:0:
192,192,94678,1,0,0:0:0:0:
320,192,94756,1,0,0:0:0:0:
448,192,94756,128,0,94990:0:0:0:0:
192,192,94912,1,0,0:0:0:0:
64,192,94990,1,0,0:0:0:0:
192,192,95147,1,0,0:0:0:0:
320,192,95225,1,0,0:0:0:0:
448,192,95225,128,0,95459:0:0:0:0:
192,192,95381,1,0,0:0:0:0:
64,192,95459,1,0,0:0:0:0:
320,192,95615,1,0,0:0:0:0:
448,192,95694,1,0,0:0:0:0:
64,192,95694,128,0,95928:0:0:0:0:
320,192,95850,1,0,0:0:0:0:
192,192,95928,1,0,0:0:0:0:
320,192,96084,1,0,0:0:0:0:
448,192,96162,1,0,0:0:0:0:
64,192,96162,128,0,96397:0:0:0:0:
320,192,96319,1,0,0:0:0:0:
192,192,96397,1,0,0:0:0:0:
320,192,96553,1,0,0:0:0:0:
448,192,96631,1,0,0:0:0:0:
64,192,96631,128,0,96865:0:0:0:0:
320,192,96787,1,0,0:0:0:0:
192,192,96865,1,0,0:0:0:0:
320,192,97022,1,0,0:0:0:0:
448,192,97100,1,0,0:0:0:0:
64,192,97100,128,0,97334:0:0:0:0:
320,192,97256,1,0,0:0:0:0:
192,192,97334,1,0,0:0:0:0:
192,192,97490,1,0,0:0:0:0:
448,192,97569,128,0,97803:0:0:0:0:
320,192,97569,1,0,0:0:0:0:
192,192,97725,1,0,0:0:0:0:
64,192,97803,1,0,0:0:0:0:
320,192,97959,1,0,0:0:0:0:
64,192,98037,128,0,98272:0:0:0:0:
448,192,98037,1,0,0:0:0:0:
320,192,98194,1,0,0:0:0:0:
192,192,98272,1,0,0:0:0:0:
192,192,98428,1,0,0:0:0:0:
448,192,98506,128,0,98740:0:0:0:0:
320,192,98506,1,0,0:0:0:0:
192,192,98662,1,0,0:0:0:0:
64,192,98740,1,0,0:0:0:0:
320,192,98897,1,0,0:0:0:0:
64,192,98975,128,0,99209:0:0:0:0:
448,192,98975,1,0,0:0:0:0:
320,192,99131,1,0,0:0:0:0:
192,192,99209,1,0,0:0:0:0:
448,192,99444,128,0,99678:0:0:0:0:
320,192,99444,1,0,0:0:0:0:
192,192,99600,1,0,0:0:0:0:
64,192,99678,1,0,0:0:0:0:
192,192,99834,1,0,0:0:0:0:
320,192,99912,128,0,100147:0:0:0:0:
448,192,99912,1,0,0:0:0:0:
192,192,100069,1,0,0:0:0:0:
64,192,100147,1,0,0:0:0:0:
320,192,100303,1,0,0:0:0:0:
192,192,100381,128,0,100615:0:0:0:0:
448,192,100381,1,0,0:0:0:0:
320,192,100537,1,0,0:0:0:0:
64,192,100615,1,0,0:0:0:0:
320,192,100772,1,0,0:0:0:0:
64,192,100850,128,0,101084:0:0:0:0:
448,192,100850,1,0,0:0:0:0:
320,192,101006,1,0,0:0:0:0:
192,192,101084,1,0,0:0:0:0:
320,192,101240,1,0,0:0:0:0:
448,192,101240,1,0,0:0:0:0:
64,192,101319,128,0,101553:0:0:0:0:
192,192,101319,1,0,0:0:0:0:
320,192,101475,1,0,0:0:0:0:
448,192,101553,1,0,0:0:0:0:
320,192,101709,1,0,0:0:0:0:
64,192,101787,128,0,102022:0:0:0:0:
192,192,101787,1,0,0:0:0:0:
320,192,101944,1,0,0:0:0:0:
448,192,102022,1,0,0:0:0:0:
320,192,102178,1,0,0:0:0:0:
64,192,102256,128,0,102490:0:0:0:0:
192,192,102256,1,0,0:0:0:0:
320,192,102412,1,0,0:0:0:0:
448,192,102490,1,0,0:0:0:0:
320,192,102647,1,0,0:0:0:0:
64,192,102725,128,0,102959:0:0:0:0:
192,192,102725,1,0,0:0:0:0:
320,192,102881,1,0,0:0:0:0:
448,192,102959,1,0,0:0:0:0:
192,192,103115,1,0,0:0:0:0:
448,192,103194,128,0,103428:0:0:0:0:
64,192,103194,1,0,0:0:0:0:
192,192,103350,1,0,0:0:0:0:
320,192,103428,1,0,0:0:0:0:
192,192,103584,1,0,0:0:0:0:
448,192,103662,128,0,103897:0:0:0:0:
64,192,103662,1,0,0:0:0:0:
192,192,103819,1,0,0:0:0:0:
320,192,103897,1,0,0:0:0:0:
192,192,104053,1,0,0:0:0:0:
448,192,104131,128,0,104365:0:0:0:0:
64,192,104131,1,0,0:0:0:0:
192,192,104287,1,0,0:0:0:0:
320,192,104365,1,0,0:0:0:0:
192,192,104522,1,0,0:0:0:0:
448,192,104600,128,0,104834:0:0:0:0:
64,192,104600,1,0,0:0:0:0:
192,192,104756,1,0,0:0:0:0:
320,192,104834,1,0,0:0:0:0:
320,192,104990,1,0,0:0:0:0:
192,192,105069,1,0,0:0:0:0:
64,192,105069,128,0,105303:0:0:0:0:
320,192,105225,1,0,0:0:0:0:
448,192,105303,1,0,0:0:0:0:
192,192,105459,1,0,0:0:0:0:
64,192,105537,1,0,0:0:0:0:
448,192,105537,128,0,105772:0:0:0:0:
192,192,105694,1,0,0:0:0:0:
320,192,105772,1,0,0:0:0:0:
320,192,105928,1,0,0:0:0:0:
192,192,106006,1,0,0:0:0:0:
64,192,106006,128,0,106240:0:0:0:0:
320,192,106162,1,0,0:0:0:0:
448,192,106240,1,0,0:0:0:0:
192,192,106397,1,0,0:0:0:0:
64,192,106475,1,0,0:0:0:0:
448,192,106475,128,0,106709:0:0:0:0:
192,192,106631,1,0,0:0:0:0:
320,192,106709,1,0,0:0:0:0:
192,192,106944,1,0,0:0:0:0:
64,192,106944,128,0,107178:0:0:0:0:
320,192,107100,1,0,0:0:0:0:
448,192,107178,1,0,0:0:0:0:
320,192,107334,1,0,0:0:0:0:
64,192,107412,1,0,0:0:0:0:
192,192,107412,128,0,107647:0:0:0:0:
320,192,107569,1,0,0:0:0:0:
448,192,107647,1,0,0:0:0:0:
192,192,107803,1,0,0:0:0:0:
64,192,107881,1,0,0:0:0:0:
320,192,107881,128,0,108115:0:0:0:0:
192,192,108037,1,0,0:0:0:0:
448,192,108115,1,0,0:0:0:0:
192,192,108272,1,0,0:0:0:0:
64,192,108350,1,0,0:0:0:0:
448,192,108350,128,0,108584:0:0:0:0:
192,192,108506,1,0,0:0:0:0:
320,192,108584,1,0,0:0:0:0:
64,192,108819,128,0,108897:0:0:0:0:
192,192,109053,128,0,109131:0:0:0:0:
448,192,109287,128,0,109365:0:0:0:0:
320,192,109756,128,0,109834:0:0:0:0:
64,192,109990,128,0,110069:0:0:0:0:
320,192,110147,128,0,110225:0:0:0:0:
192,192,110459,128,0,110537:0:0:0:0:
