osu file format v14

[General]
AudioFilename: audio.mp3
AudioLeadIn: 0
PreviewTime: 12104
Countdown: 1
SampleSet: Normal
StackLeniency: 0.7
Mode: 0
LetterboxInBreaks: 0
WidescreenStoryboard: 0

[Editor]
Bookmarks: 198,12198,24198
DistanceSpacing: 0.1
BeatDivisor: 4
GridSize: 4
TimelineZoom: 1.7

[Metadata]
Title:The Ratings Are In
TitleUnicode:The Ratings Are In
Artist:Pascal Michael Stiefel
ArtistUnicode:Pascal Michael Stiefel
Creator:Michiru
Version:The Real Hat
Source:A Hat in Time
Tags:Fallmorph
BeatmapID:1931355
BeatmapSetID:924676

[Difficulty]
HPDrainRate:6
CircleSize:3.8
OverallDifficulty:8.7
ApproachRate:8.5
SliderMultiplier:1.4
SliderTickRate:1

[Events]
//Background and Video events
0,0,"image.jpg",0,0
//Break Periods
//Storyboard Layer 0 (Background)
//Storyboard Layer 1 (Fail)
//Storyboard Layer 2 (Pass)
//Storyboard Layer 3 (Foreground)
//Storyboard Sound Samples

[TimingPoints]
198,375,4,1,0,60,1,0
12198,-100,4,1,0,75,0,1
24198,-100,4,1,0,70,0,0
33760,-100,4,1,0,65,0,0
33948,-100,4,1,0,60,0,0
34135,-100,4,1,0,55,0,0
34323,-100,4,1,0,50,0,0
34510,-100,4,1,0,45,0,0
34698,-100,4,1,0,40,0,0
34885,-100,4,1,0,35,0,0
35073,-100,4,1,0,30,0,0
35260,-100,4,1,0,25,0,0
35448,-100,4,1,0,20,0,0
35635,-100,4,1,0,15,0,0
35823,-100,4,1,0,10,0,0
36010,-100,4,1,0,5,0,0

[HitObjects]
112,125,198,6,0,P|153:107|202:105,1,70
292,132,573,1,0,0:0:0:0:
202,269,760,1,0,0:0:0:0:
274,25,948,1,0,0:0:0:0:
97,204,1135,6,0,P|93:238|99:273,1,70
300,341,1510,5,0,0:0:0:0:
202,87,1698,1,0,0:0:0:0:
226,312,1885,1,0,0:0:0:0:
342,83,2073,1,0,0:0:0:0:
293,260,2260,1,0,0:0:0:0:
202,87,2448,6,0,P|210:127|236:174,1,70
362,304,2823,1,0,0:0:0:0:
391,83,3010,1,0,0:0:0:0:
391,83,3104,1,0,0:0:0:0:
391,83,3198,6,0,P|345:74|303:85,1,70
186,137,3573,1,0,0:0:0:0:
362,226,3760,1,0,0:0:0:0:
218,37,3948,1,0,0:0:0:0:
154,298,4135,2,0,L|154:199,1,70
304,77,4510,6,0,L|307:165,1,70
269,299,4885,1,0,0:0:0:0:
391,83,5073,1,0,0:0:0:0:
210,225,5260,1,0,0:0:0:0:
425,270,5448,2,0,P|414:232|394:205,1,70
205,126,5823,1,0,0:0:0:0:
199,345,6010,1,0,0:0:0:0:
199,345,6104,1,0,0:0:0:0:
199,345,6198,6,0,L|199:275,1,70
205,126,6573,1,0,0:0:0:0:
126,256,6760,1,0,0:0:0:0:
349,80,6948,1,0,0:0:0:0:
102,142,7135,2,0,P|102:177|119:228,1,70
290,329,7510,5,0,0:0:0:0:
339,111,7698,1,0,0:0:0:0:
192,297,7885,1,0,0:0:0:0:
344,100,8073,1,0,0:0:0:0:
145,161,8260,1,0,0:0:0:0:
353,265,8448,6,0,P|347:230|329:200,1,70
146,235,8823,1,0,0:0:0:0:
277,33,9010,1,0,0:0:0:0:
277,33,9104,1,0,0:0:0:0:
277,33,9198,6,0,P|286:66|283:101,1,70
131,194,9573,1,0,0:0:0:0:
213,78,9760,1,0,0:0:0:0:
283,304,9948,1,0,0:0:0:0:
421,145,10135,2,0,L|421:47,1,70
213,8,10510,6,0,L|213:96,1,70
298,264,10885,1,0,0:0:0:0:
163,128,11073,1,0,0:0:0:0:
334,80,11260,1,0,0:0:0:0:
212,304,11448,2,0,L|212:234,1,70
213,45,11823,1,0,0:0:0:0:
374,197,12010,1,0,0:0:0:0:
374,197,12104,1,0,0:0:0:0:
374,197,12198,6,0,P|384:263|373:340,1,140
180,138,12760,1,0,0:0:0:0:
295,266,12948,1,0,0:0:0:0:
90,147,13135,1,0,0:0:0:0:
272,79,13323,1,0,0:0:0:0:
131,302,13510,2,0,P|166:315|226:310,1,70
327,228,13885,2,0,P|278:223|232:236,1,70
118,313,14260,1,0,0:0:0:0:
293,370,14448,2,0,L|293:272,1,70
296,79,14823,5,0,0:0:0:0:
183,246,15010,1,0,0:0:0:0:
183,246,15104,1,0,0:0:0:0:
183,246,15198,2,0,P|157:172|151:110,1,140
351,306,15760,5,0,0:0:0:0:
247,153,15948,1,0,0:0:0:0:
459,217,16135,1,0,0:0:0:0:
331,322,16323,1,0,0:0:0:0:
327,38,16510,2,0,L|327:115,1,70
246,322,16885,2,0,L|246:177,1,140
112,53,17448,2,0,P|151:44|196:52,1,70
289,97,17823,5,0,0:0:0:0:
139,180,18010,1,0,0:0:0:0:
413,230,18198,2,0,P|353:278|260:285,1,140
121,119,18760,5,0,0:0:0:0:
172,292,18948,1,0,0:0:0:0:
229,34,19135,1,0,0:0:0:0:
108,225,19323,1,0,0:0:0:0:
276,117,19510,2,0,P|274:154|282:188,1,70
403,365,19885,2,0,P|404:278|393:220,1,140
161,115,20448,2,0,P|195:105|240:112,1,70
158,246,20823,5,0,0:0:0:0:
365,99,21010,1,0,0:0:0:0:
84,53,21198,2,0,P|76:122|85:213,1,140
252,78,21760,5,0,0:0:0:0:
126,281,21948,1,0,0:0:0:0:
292,199,22135,1,0,0:0:0:0:
146,132,22323,1,0,0:0:0:0:
224,361,22510,2,0,L|229:269,1,70
139,115,22885,5,0,0:0:0:0:
310,191,23073,1,0,0:0:0:0:
88,229,23260,1,0,0:0:0:0:
120,383,23448,2,0,P|100:334|102:297,1,70
155,155,23823,2,0,P|169:195|166:241,1,70
48,149,24198,6,0,P|60:75|102:11,1,140
234,147,24760,1,0,0:0:0:0:
92,207,24948,1,0,0:0:0:0:
109,24,25135,1,0,0:0:0:0:
197,269,25323,1,0,0:0:0:0:
254,2,25510,1,0,0:0:0:0:
95,276,25698,2,0,P|90:241|92:206,1,70
261,226,26073,1,0,0:0:0:0:
390,56,26260,2,0,P|397:109|386:222,1,140
207,219,26823,5,0,0:0:0:0:
278,94,27010,1,0,0:0:0:0:
352,327,27198,2,0,P|278:350|213:348,1,140
81,240,27760,6,0,P|126:234|168:254,1,70
109,376,28135,2,0,P|104:341|111:307,1,70
264,215,28510,2,0,B|253:246|228:265|223:270,1,70
156,169,28885,1,0,0:0:0:0:
247,60,29073,1,0,0:0:0:0:
307,261,29260,1,0,0:0:0:0:
396,48,29448,2,0,P|389:93|396:140,1,70
461,294,29823,2,0,P|465:248|460:219,1,70
282,237,30198,6,0,P|254:306|257:383,1,140
389,119,30760,1,0,0:0:0:0:
155,198,30948,1,0,0:0:0:0:
460,200,31135,1,0,0:0:0:0:
161,87,31323,1,0,0:0:0:0:
459,32,31510,1,0,0:0:0:0:
215,225,31698,2,0,P|213:259|218:294,1,70
324,84,32073,1,0,0:0:0:0:
431,301,32260,2,0,P|436:231|429:161,1,140
290,30,32823,5,0,0:0:0:0:
360,212,33010,1,0,0:0:0:0:
95,105,33198,2,0,P|169:82|234:84,1,140
184,244,33760,2,0,L|171:148,1,70
155,82,34135,1,0,0:0:0:0:
93,204,34323,1,0,0:0:0:0:
264,102,34510,1,0,0:0:0:0:
297,326,34698,6,0,L|287:255,1,70
324,170,35073,1,0,0:0:0:0:
388,244,35260,1,0,0:0:0:0:
453,85,35448,2,0,P|454:119|447:154,1,70
386,325,35823,2,0,P|382:279|387:250,1,70
