osu file format v14

[General]
AudioFilename: audio.mp3
AudioLeadIn: 0
PreviewTime: -1
Countdown: 1
SampleSet: None
StackLeniency: 0.7
Mode: 0
LetterboxInBreaks: 0
WidescreenStoryboard: 1

[Editor]
DistanceSpacing: 1.5
BeatDivisor: 4
GridSize: 4
TimelineZoom: 1.8

[Metadata]
Title:Hej Hej Monika (Remix)
TitleUnicode:Hej Hej Monika (Remix)
Artist:Party In Backyard
ArtistUnicode:Party In Backyard
Creator:Ik-rai
Version:ar 8.5
Source:pewdiepie
Tags:pewdiepie Monika
BeatmapID:1520215
BeatmapSetID:715491

[Difficulty]
HPDrainRate:4
CircleSize:4
OverallDifficulty:5
ApproachRate:8.5
SliderMultiplier:1.6
SliderTickRate:1

[Events]
//Background and Video events
0,0,"Solid black.jpg",0,0
//Break Periods
//Storyboard Layer 0 (Background)
//Storyboard Layer 1 (Fail)
//Storyboard Layer 2 (Pass)
//Storyboard Layer 3 (Foreground)
//Storyboard Sound Samples

[TimingPoints]
8422.13534679124,413.793103448276,4,1,0,100,1,0

[HitObjects]
112,80,42,5,0,0:0:0:0:
408,80,456,5,0,0:0:0:0:
408,324,870,5,0,0:0:0:0:
112,320,1284,5,0,0:0:0:0:
244,192,1697,5,0,0:0:0:0:
216,100,1904,1,0,0:0:0:0:
376,144,2111,1,0,0:0:0:0:
360,248,2318,1,0,0:0:0:0:
216,272,2525,6,0,L|128:196,1,80
184,84,2939,1,0,0:0:0:0:
336,132,3146,1,0,0:0:0:0:
204,244,3353,2,0,L|296:236,2,80
100,144,3973,5,0,0:0:0:0:
232,92,4180,2,0,L|320:92,2,80
112,280,4801,2,0,L|216:256,1,80
256,284,5215,2,0,L|364:260,1,80
292,112,5629,5,0,0:0:0:0:
168,192,5835,1,0,0:0:0:0:
300,272,6042,1,0,0:0:0:0:
320,112,6249,1,0,0:0:0:0:
168,192,6456,1,0,0:0:0:0:
316,284,6663,6,0,P|268:272|236:240,2,80
384,172,7284,2,0,P|440:156|460:132,1,80
308,60,7697,1,0,0:0:0:0:
176,120,7904,1,0,0:0:0:0:
112,240,8111,1,0,0:0:0:0:
216,84,8318,6,0,P|268:56|308:64,1,80
288,188,8732,2,0,P|336:188|376:152,1,80
400,248,9146,1,0,0:0:0:0:
196,252,9353,1,0,0:0:0:0:
304,88,9560,1,0,0:0:0:0:
160,176,9766,1,0,0:0:0:0:
320,276,9973,6,0,L|348:356,2,80
136,212,10594,1,0,0:0:0:0:
292,80,10801,1,0,0:0:0:0:
304,304,11008,1,0,0:0:0:0:
384,172,11215,1,0,0:0:0:0:
104,160,12042,6,0,L|192:112,1,80
300,72,12456,1,0,0:0:0:0:
432,212,12663,1,0,0:0:0:0:
260,256,12870,1,0,0:0:0:0:
316,308,13077,2,0,P|264:332|212:320,2,80
348,156,13697,5,0,0:0:0:0:
72,160,13904,1,0,0:0:0:0:
112,284,14111,1,2,0:0:0:0:
140,308,14215,1,2,0:0:0:0:
188,320,14318,1,2,0:0:0:0:
236,316,14422,1,2,0:0:0:0:
276,292,14525,1,2,0:0:0:0:
304,256,14629,1,2,0:0:0:0:
320,208,14732,1,2,0:0:0:0:
320,156,14835,1,2,0:0:0:0:
292,112,14939,2,6,L|256:72,2,40
152,224,15353,5,0,0:0:0:0:
316,264,15560,1,2,0:0:0:0:
364,80,15766,1,0,0:0:0:0:
104,188,15973,1,2,0:0:0:0:
212,164,16180,2,0,L|288:120,1,80,0|2,0:0|0:0,0:0:0:0:
368,280,16594,5,0,0:0:0:0:
184,276,16801,1,2,0:0:0:0:
200,100,17008,2,0,P|300:104|304:108,1,80,0|2,0:0|0:0,0:0:0:0:
360,184,17422,1,0,0:0:0:0:
168,204,17629,1,0,0:0:0:0:
288,308,17835,1,0,0:0:0:0:
368,200,18042,6,0,P|368:144|332:104,1,80,0|2,0:0|0:0,0:0:0:0:
216,92,18456,2,0,P|152:124|112:112,1,80,0|2,0:0|0:0,0:0:0:0:
144,232,18870,2,0,P|200:224|240:252,1,80,0|2,0:0|0:0,0:0:0:0:
232,316,19284,2,0,P|276:308|316:256,1,80,0|2,0:0|0:0,0:0:0:0:
332,176,19697,2,0,P|332:120|380:88,1,80,0|2,0:0|0:0,0:0:0:0:
424,156,20111,2,0,P|452:220|444:252,1,80,0|2,0:0|0:0,0:0:0:0:
400,316,20525,2,0,P|348:324|292:296,1,80,0|2,0:0|0:0,0:0:0:0:
232,236,20939,5,4,0:0:0:0:
220,200,21042,1,4,0:0:0:0:
196,180,21146,1,4,0:0:0:0:
72,156,21353,1,8,0:0:0:0:
116,320,21560,1,8,0:0:0:0:
272,332,21766,2,0,P|328:328|352:292,1,80,0|2,0:0|0:0,0:0:0:0:
392,212,22180,1,0,0:0:0:0:
264,120,22387,1,0,0:0:0:0:
192,240,22594,6,0,L|180:324,1,80
68,220,23008,2,0,P|48:176|56:112,1,80
184,88,23422,1,0,0:0:0:0:
376,136,23629,1,0,0:0:0:0:
220,232,23835,2,0,L|232:136,1,80
364,104,24249,5,0,0:0:0:0:
436,296,24456,1,0,0:0:0:0:
232,128,24663,1,0,0:0:0:0:
168,308,24870,1,0,0:0:0:0:
352,104,25077,1,0,0:0:0:0:
444,272,25284,1,0,0:0:0:0:
292,328,25491,1,0,0:0:0:0:
152,152,25697,1,0,0:0:0:0:
296,68,26111,6,0,P|348:56|384:88,1,80
324,288,26525,1,0,0:0:0:0:
124,264,26732,1,0,0:0:0:0:
308,108,26939,1,0,0:0:0:0:
208,316,27146,1,0,0:0:0:0:
176,92,27353,1,0,0:0:0:0:
368,304,27560,5,0,0:0:0:0:
368,304,27663,1,0,0:0:0:0:
368,304,27766,1,0,0:0:0:0:
148,328,27973,1,0,0:0:0:0:
120,316,28077,1,0,0:0:0:0:
104,288,28180,1,0,0:0:0:0:
220,196,28387,1,0,0:0:0:0:
392,140,28594,1,0,0:0:0:0:
304,320,28801,6,0,L|244:264,1,80
240,80,29215,1,0,0:0:0:0:
56,200,29422,1,0,0:0:0:0:
256,288,29629,1,0,0:0:0:0:
176,120,29835,1,0,0:0:0:0:
408,132,30042,1,0,0:0:0:0:
268,304,30249,1,0,0:0:0:0:
204,220,30456,6,0,L|144:164,1,80
320,152,30870,2,0,L|368:84,1,80
192,84,31284,1,0,0:0:0:0:
88,268,31491,1,0,0:0:0:0:
248,232,31697,5,0,0:0:0:0:
412,328,31904,1,0,0:0:0:0:
244,232,32111,1,0,0:0:0:0:
408,328,32318,1,0,0:0:0:0:
244,236,32525,1,0,0:0:0:0:
220,80,32732,5,0,0:0:0:0:
120,264,32939,1,0,0:0:0:0:
224,80,33146,1,0,0:0:0:0:
120,264,33353,1,0,0:0:0:0:
224,80,33560,1,0,0:0:0:0:
372,144,33766,5,0,0:0:0:0:
336,332,33973,1,0,0:0:0:0:
120,324,34180,1,0,0:0:0:0:
292,308,34387,1,0,0:0:0:0:
84,288,34594,1,0,0:0:0:0:
96,100,34801,1,0,0:0:0:0:
208,124,35008,6,0,L|296:124,1,80
212,192,35422,2,0,L|212:280,1,80
280,192,35835,2,0,L|368:192,1,80
280,260,36249,2,0,L|280:340,1,80
348,260,36663,2,0,L|428:260,1,80
404,120,37077,1,0,0:0:0:0:
116,120,37284,1,0,0:0:0:0:
152,256,37491,1,0,0:0:0:0:
376,256,37697,1,0,0:0:0:0:
368,124,37904,6,0,P|340:72|296:64,1,80
264,172,38318,2,0,P|220:196|184:176,1,80
96,76,38732,1,0,0:0:0:0:
68,296,38939,1,0,0:0:0:0:
256,192,39146,1,0,0:0:0:0:
432,80,39353,1,0,0:0:0:0:
424,284,39560,1,0,0:0:0:0:
168,320,39766,6,0,P|120:276|116:244,1,80
216,224,40180,1,0,0:0:0:0:
396,328,40387,1,0,0:0:0:0:
404,120,40594,1,0,0:0:0:0:
216,224,40801,1,0,0:0:0:0:
240,48,41008,1,0,0:0:0:0:
80,152,41215,1,0,0:0:0:0:
256,184,41422,2,0,P|324:172|352:148,1,80
352,260,41835,6,0,P|400:268|428:292,1,80
196,276,42249,1,0,0:0:0:0:
324,88,42456,1,0,0:0:0:0:
392,320,42663,1,0,0:0:0:0:
248,192,42870,2,0,P|208:160|152:156,1,80
48,296,43284,1,0,0:0:0:0:
76,104,43491,1,0,0:0:0:0:
256,192,43697,2,0,P|320:156|320:136,2,80
264,44,44318,5,0,0:0:0:0:
204,192,44525,2,0,P|188:240|168:260,1,80
280,260,44939,2,0,P|280:304|304:336,1,80
452,224,45353,1,0,0:0:0:0:
272,72,45560,1,0,0:0:0:0:
224,292,45766,1,0,0:0:0:0:
408,116,45973,1,0,0:0:0:0:
184,160,46180,1,0,0:0:0:0:
376,276,46387,1,0,0:0:0:0:
340,64,46594,1,0,0:0:0:0:
184,252,46801,1,0,0:0:0:0:
424,228,47008,1,0,0:0:0:0:
224,96,47215,1,0,0:0:0:0:
160,316,47422,1,0,0:0:0:0:
224,96,47629,1,0,0:0:0:0:
192,272,47835,6,0,P|160:312|104:324,1,80
340,276,48249,2,0,P|372:312|404:324,1,80
432,136,48663,1,0,0:0:0:0:
244,48,48870,1,0,0:0:0:0:
132,228,49077,1,0,0:0:0:0:
304,284,49284,1,0,0:0:0:0:
260,88,49491,2,0,P|204:80|160:96,1,80
84,272,49904,1,0,0:0:0:0:
228,160,50111,2,0,P|272:212|272:224,1,80
408,296,50525,1,0,0:0:0:0:
440,136,50732,1,0,0:0:0:0:
232,76,50939,1,0,0:0:0:0:
100,88,51766,5,0,0:0:0:0:
376,184,51973,1,0,0:0:0:0:
152,296,52180,1,0,0:0:0:0:
224,128,52388,1,0,0:0:0:0:
348,336,52594,1,0,0:0:0:0:
456,140,52801,1,0,0:0:0:0:
216,96,53008,1,0,0:0:0:0:
144,304,53215,1,0,0:0:0:0:
368,328,53422,1,0,0:0:0:0:
192,152,53629,1,0,0:0:0:0:
320,280,53835,2,0,L|388:244,3,40
404,224,54249,2,0,L|428:176,4,40
148,156,54870,5,0,0:0:0:0:
392,244,55077,1,0,0:0:0:0:
276,44,55284,1,0,0:0:0:0:
228,304,55491,1,0,0:0:0:0:
384,128,55697,1,0,0:0:0:0:
132,228,55904,1,0,0:0:0:0:
380,256,56111,1,0,0:0:0:0:
188,96,56318,1,0,0:0:0:0:
432,112,56525,5,0,0:0:0:0:
300,308,56732,1,0,0:0:0:0:
140,96,56939,1,0,0:0:0:0:
76,308,57146,1,0,0:0:0:0:
224,92,57353,1,0,0:0:0:0:
200,316,57560,1,0,0:0:0:0:
304,88,57766,1,0,0:0:0:0:
340,304,57973,1,0,0:0:0:0:
384,68,58180,5,0,0:0:0:0:
472,252,58387,1,0,0:0:0:0:
276,328,58594,1,0,0:0:0:0:
352,100,58801,1,0,0:0:0:0:
424,276,59008,1,0,0:0:0:0:
168,184,59215,1,0,0:0:0:0:
408,76,59422,1,0,0:0:0:0:
292,296,59629,1,0,0:0:0:0:
224,64,59835,5,0,0:0:0:0:
92,244,60042,1,0,0:0:0:0:
328,120,60249,1,0,0:0:0:0:
292,328,60456,1,0,0:0:0:0:
152,184,60663,1,0,0:0:0:0:
440,208,60870,1,0,0:0:0:0:
284,56,61077,1,0,0:0:0:0:
244,296,61284,1,0,0:0:0:0:
416,128,61491,5,0,0:0:0:0:
80,252,61697,1,0,0:0:0:0:
440,300,61904,1,0,0:0:0:0:
232,68,62111,1,0,0:0:0:0:
156,328,62318,1,0,0:0:0:0:
408,144,62525,1,0,0:0:0:0:
88,152,62732,1,0,0:0:0:0:
260,304,62939,1,0,0:0:0:0:
380,56,63146,5,0,0:0:0:0:
92,244,63353,1,0,0:0:0:0:
424,180,63560,1,0,0:0:0:0:
104,80,63766,1,0,0:0:0:0:
356,324,63973,1,0,0:0:0:0:
312,44,64180,1,0,0:0:0:0:
88,324,64387,1,0,0:0:0:0:
456,160,64594,1,0,0:0:0:0:
84,72,64801,5,0,0:0:0:0:
320,348,65008,1,0,0:0:0:0:
344,32,65215,1,0,0:0:0:0:
96,300,65422,1,0,0:0:0:0:
468,240,65629,1,0,0:0:0:0:
132,44,65835,1,0,0:0:0:0:
256,344,66042,1,0,0:0:0:0:
336,32,66249,1,0,0:0:0:0:
108,120,66456,5,0,0:0:0:0:
376,80,66663,1,0,0:0:0:0:
96,256,66870,1,0,0:0:0:0:
408,160,67077,1,0,0:0:0:0:
176,348,67284,1,0,0:0:0:0:
468,208,67491,1,0,0:0:0:0:
256,192,67697,1,0,0:0:0:0:
