osu file format v14

[General]
AudioFilename: audio.mp3
AudioLeadIn: 0
PreviewTime: 36150
Countdown: 0
SampleSet: Normal
StackLeniency: 0.2
Mode: 0
LetterboxInBreaks: 0
EpilepsyWarning: 1
WidescreenStoryboard: 1

[Editor]
Bookmarks: 12950,38550,64150,89750,115350
DistanceSpacing: 0.3
BeatDivisor: 4
GridSize: 16
TimelineZoom: 0.9

[Metadata]
Title:Bitch Lasagna
TitleUnicode:Bitch Lasagna
Artist:Party In Backyard & Pewdiepie
ArtistUnicode:Party In Backyard & Pewdiepie
Creator:TheTNTBlower77
Version:(Normal) 60 million
Source:
Tags:tseries t-series t series roast lasagna youtube rap diss track disstrack
BeatmapID:1810864
BeatmapSetID:863505

[Difficulty]
HPDrainRate:1
CircleSize:3
OverallDifficulty:3
ApproachRate:7
SliderMultiplier:1.4
SliderTickRate:1

[Events]
//Background and Video events
Video,0,"T-series Diss Track.mp4"
0,0,"bl.jpg",0,0
//Break Periods
//Storyboard Layer 0 (Background)
//Storyboard Layer 1 (Fail)
//Storyboard Layer 2 (Pass)
//Storyboard Layer 3 (Foreground)
//Storyboard Sound Samples

[TimingPoints]
150,400,4,1,0,40,1,0
12950,-66.6666666666667,4,1,2,40,0,0
13050,-66.6666666666667,4,1,2,40,0,0
13150,-66.6666666666667,4,1,2,40,0,0
30950,-25,4,1,2,40,0,0
31350,-66.6666666666667,4,1,2,40,0,0
38550,-52.6315789473684,4,1,2,40,0,1
64150,-58.8235294117647,4,1,2,40,0,0
64950,-100,4,1,2,40,0,0
89750,-58.8235294117647,4,1,2,40,0,1
112150,-58.8235294117647,4,1,2,40,0,0
115350,-50,4,1,2,40,0,0

[Colours]
Combo1 : 0,255,255
Combo2 : 255,0,0
Combo3 : 255,255,0
Combo4 : 128,255,0

[HitObjects]
55,55,12950,5,12,0:0:0:0:
108,156,13150,1,8,0:0:0:0:
171,56,13350,1,8,0:0:0:0:
225,156,13550,1,8,0:0:0:0:
151,267,13750,6,0,P|254:324|272:321,1,105.000004005432,10|8,0:0|0:0,0:0:0:0:
353,283,14150,2,0,L|405:253,2,52.5000020027161,8|8|8,0:0|0:0|0:0,0:0:0:0:
312,171,14550,6,0,P|261:89|215:79,1,105.000004005432,8|8,0:0|0:0,0:0:0:0:
230,161,14950,2,0,P|237:248|259:272,1,105.000004005432,10|8,0:0|0:0,0:0:0:0:
374,269,15350,1,10,0:0:0:0:
431,174,15550,1,8,0:0:0:0:
362,77,15750,2,0,L|247:75,1,105.000004005432,8|8,0:0|0:0,0:0:0:0:
163,84,16150,5,12,0:0:0:0:
104,229,16550,1,8,0:0:0:0:
245,289,16950,2,0,P|328:230|332:215,1,105.000004005432,10|8,0:0|0:0,0:0:0:0:
344,160,17350,2,0,P|315:94|259:71,1,105.000004005432,8|10,0:0|0:0,0:0:0:0:
255,155,17750,6,0,P|190:215|194:266,1,105.000004005432,8|8,0:0|0:0,0:0:0:0:
271,236,18150,2,0,P|337:233|368:170,1,105.000004005432,10|8,0:0|0:0,0:0:0:0:
409,133,18550,2,0,P|314:77|182:87,2,210.000008010865,10|10|14,0:0|0:0|0:0,0:0:0:0:
161,209,19550,6,0,L|248:277,1,105.000004005432,8|8,0:0|0:0,0:0:0:0:
327,235,19950,2,0,L|328:116,1,105.000004005432,8|10,0:0|0:0,0:0:0:0:
261,76,20350,2,0,L|162:135,1,105.000004005432,8|8,0:0|0:0,0:0:0:0:
252,180,20750,1,10,0:0:0:0:
161,209,20950,6,0,P|199:256|248:277,1,105.000004005432,8|8,0:0|0:0,0:0:0:0:
327,235,21350,2,0,P|341:169|328:116,1,105.000004005432,10|8,0:0|0:0,0:0:0:0:
261,76,21750,1,10,0:0:0:0:
394,84,22150,2,0,P|389:151|366:206,1,105.000004005432,10|10,0:0|0:0,0:0:0:0:
339,249,22550,6,0,P|284:299|219:300,1,105.000004005432,14|8,0:0|0:0,0:0:0:0:
182,305,22950,2,0,P|126:247|136:201,1,105.000004005432,8|8,0:0|0:0,0:0:0:0:
137,147,23350,1,10,0:0:0:0:
255,189,23750,6,0,P|308:138|348:129,2,105.000004005432,8|10|8,0:0|0:0|0:0,0:0:0:0:
226,267,24350,2,0,P|195:328|135:348,2,105.000004005432,8|10|8,0:0|0:0|0:0,0:0:0:0:
269,164,24950,1,10,0:0:0:0:
343,67,25350,2,0,P|384:100|413:144,1,105.000004005432,8|10,0:0|0:0,0:0:0:0:
266,58,25750,6,0,L|148:106,1,105.000004005432,14|8,0:0|0:0,0:0:0:0:
105,133,26150,2,0,L|156:242,1,105.000004005432,8|8,0:0|0:0,0:0:0:0:
190,295,26550,2,0,L|302:255,1,105.000004005432,10|8,0:0|0:0,0:0:0:0:
366,233,26950,2,0,L|322:116,1,105.000004005432,8|8,0:0|0:0,0:0:0:0:
312,55,27350,6,0,L|199:106,1,105.000004005432,8|8,0:0|0:0,0:0:0:0:
146,122,27750,2,0,L|201:241,1,105.000004005432,10|8,0:0|0:0,0:0:0:0:
230,289,28150,1,10,0:0:0:0:
386,236,28550,1,8,0:0:0:0:
355,157,28750,1,10,0:0:0:0:
314,84,28950,6,0,P|228:146|224:178,2,105.000004005432,14|8|8,0:0|0:0|0:0,0:0:0:0:
399,90,29550,1,8,0:0:0:0:
476,162,29750,1,10,0:0:0:0:
325,264,30150,2,0,L|232:327,3,105.000004005432,8|10|8|8,0:0|0:0|0:0|0:0,0:0:0:0:
154,295,30950,5,12,0:0:0:0:
154,295,31150,1,12,0:0:0:0:
121,216,31350,2,0,L|220:160,3,105.000004005432,8|10|8|10,0:0|0:0|0:0|0:0,0:0:0:0:
281,125,32150,1,14,0:0:0:0:
410,64,32550,6,0,B|422:183,1,105.000004005432,8|8,0:0|0:0,0:0:0:0:
427,241,32950,1,10,0:0:0:0:
305,276,33350,1,8,0:0:0:0:
221,208,33750,2,0,L|137:282,1,105.000004005432,8|8,0:0|0:0,0:0:0:0:
102,165,34150,5,10,0:0:0:0:
162,95,34350,1,8,0:0:0:0:
246,60,34550,1,10,0:0:0:0:
341,69,34750,1,8,0:0:0:0:
421,100,34950,2,0,L|387:206,1,105.000004005432,8|10,0:0|0:0,0:0:0:0:
343,271,35350,2,0,P|250:292|180:204,1,210.000008010865,14|8,0:0|0:0,0:0:0:0:
273,210,36150,5,10,0:0:0:0:
346,145,36550,2,0,P|293:97|239:104,2,105.000004005432,8|8|14,0:0|0:0|0:0,0:0:0:0:
77,73,38550,5,12,0:0:0:0:
115,196,38950,1,8,0:0:0:0:
189,102,39350,1,10,0:0:0:0:
232,228,39750,1,8,0:0:0:0:
292,131,40150,5,8,0:0:0:0:
320,261,40550,1,10,0:0:0:0:
415,151,40950,2,0,P|473:209|356:295,1,262.500010013581,10|8,0:0|0:0,0:0:0:0:
395,228,41750,5,12,0:0:0:0:
347,152,42150,2,0,P|237:164|270:305,1,262.500010013581,8|10,0:0|0:0,0:0:0:0:
301,222,42950,2,0,P|408:238|408:94,1,262.500010013581,8|8,0:0|0:0,0:0:0:0:
303,63,43750,1,10,0:0:0:0:
199,96,44150,1,10,0:0:0:0:
116,178,44550,1,8,0:0:0:0:
81,287,44950,6,0,P|193:281|166:153,3,265.999992897034,14|8|10|8,0:0|0:0|0:0|0:0,0:0:0:0:
467,175,46550,2,0,P|342:237|405:304,3,262.500010013581,8|10|10|10,0:0|0:0|0:0|0:0,0:0:0:0:
256,288,48150,5,14,0:0:0:0:
256,192,48550,1,8,0:0:0:0:
256,96,48950,1,10,0:0:0:0:
352,96,49350,1,8,0:0:0:0:
352,192,49750,5,8,0:0:0:0:
448,192,50150,1,10,0:0:0:0:
448,64,50550,2,0,B|256:64|256:64|256:155,1,238.00000453949,10|8,0:0|0:0,0:0:0:0:
383,185,51350,5,14,0:0:0:0:
434,75,51750,1,8,0:0:0:0:
324,103,52150,1,10,0:0:0:0:
302,218,52550,1,8,0:0:0:0:
221,130,52950,5,8,0:0:0:0:
190,259,53350,1,10,0:0:0:0:
97,148,53750,2,0,P|38:205|167:278,1,238.00000453949,10|8,0:0|0:0,0:0:0:0:
116,225,54550,5,14,0:0:0:0:
165,150,54950,2,0,P|275:164|270:302,1,238.00000453949,8|10,0:0|0:0,0:0:0:0:
214,232,55750,2,0,P|107:246|112:73,1,297.500005674362,8|8,0:0|0:0,0:0:0:0:
211,62,56550,1,8,0:0:0:0:
276,158,56950,1,8,0:0:0:0:
367,112,57350,1,8,0:0:0:0:
448,311,57750,6,0,B|348:240|348:240|461:148,3,238.00000453949,14|8|10|8,0:0|0:0|0:0|0:0,0:0:0:0:
64,311,59350,2,0,B|164:240|164:240|51:148,3,238.00000453949,8|8|10|8,0:0|0:0|0:0|0:0,0:0:0:0:
254,287,60950,5,14,0:0:0:0:
256,192,61350,1,8,0:0:0:0:
257,96,61750,1,10,0:0:0:0:
161,94,62150,1,8,0:0:0:0:
160,190,62550,5,10,0:0:0:0:
64,188,62950,1,8,0:0:0:0:
64,64,63350,2,0,B|256:64|256:64|255:150,1,238.00000453949,8|8,0:0|0:0,0:0:0:0:
115,182,64150,5,12,0:0:0:0:
324,327,64950,6,0,L|426:202,1,140,10|8,0:0|0:0,0:0:0:0:
401,136,65750,1,8,0:0:0:0:
324,215,66150,1,10,0:0:0:0:
252,138,66550,1,10,0:0:0:0:
206,282,67350,6,0,L|157:209,3,70,12|8|8|8,0:0|0:0|0:0|0:0,0:0:0:0:
121,157,68150,6,0,L|170:84,3,70,10|8|8|10,0:0|0:0|0:0|0:0,0:0:0:0:
242,62,68950,1,8,0:0:0:0:
189,181,69350,1,10,0:0:0:0:
258,268,69750,1,10,0:0:0:0:
447,162,70550,6,0,P|404:87|339:89,1,140,14|8,0:0|0:0,0:0:0:0:
370,157,71350,2,0,P|334:204|250:198,1,140,10|8,0:0|0:0,0:0:0:0:
296,134,72150,2,0,P|234:75|165:94,1,140,8|10,0:0|0:0,0:0:0:0:
219,153,72950,1,10,0:0:0:0:
199,178,73150,1,8,0:0:0:0:
175,209,73350,1,10,0:0:0:0:
254,304,73750,6,0,L|391:251,3,140,14|8|10|8,0:0|0:0|0:0|0:0,0:0:0:0:
323,202,75350,2,0,P|417:181|411:339,1,280,8|10,0:0|0:0,0:0:0:0:
381,260,76950,5,14,0:0:0:0:
357,188,77350,1,8,0:0:0:0:
312,127,77750,1,10,0:0:0:0:
249,87,78150,1,8,0:0:0:0:
173,90,78550,5,8,0:0:0:0:
176,165,78950,1,10,0:0:0:0:
202,236,79350,1,10,0:0:0:0:
252,292,79750,1,8,0:0:0:0:
338,237,80150,6,0,P|282:128|261:113,1,140,14|8,0:0|0:0,0:0:0:0:
197,84,80950,2,0,P|106:107|62:162,1,140,10|8,0:0|0:0,0:0:0:0:
57,206,81750,2,0,P|102:287|166:311,1,140,8|8,0:0|0:0,0:0:0:0:
229,305,82550,2,0,P|305:262|328:200,1,140,8|8,0:0|0:0,0:0:0:0:
335,138,83350,5,14,0:0:0:0:
396,275,84150,1,10,0:0:0:0:
258,336,84950,1,8,0:0:0:0:
197,199,85750,2,0,P|163:110|95:100,1,140,10|8,0:0|0:0,0:0:0:0:
122,178,86550,5,14,0:0:0:0:
170,254,86950,1,8,0:0:0:0:
258,261,87350,1,10,0:0:0:0:
325,217,87750,1,8,0:0:0:0:
370,158,88150,5,10,0:0:0:0:
435,311,89750,5,12,0:0:0:0:
397,188,90150,1,8,0:0:0:0:
323,282,90550,1,10,0:0:0:0:
280,156,90950,1,8,0:0:0:0:
220,253,91350,5,8,0:0:0:0:
192,123,91750,1,10,0:0:0:0:
97,233,92150,2,0,P|39:175|156:89,1,238.00000453949,10|8,0:0|0:0,0:0:0:0:
117,156,92950,5,12,0:0:0:0:
165,232,93350,2,0,P|275:220|242:79,1,238.00000453949,8|10,0:0|0:0,0:0:0:0:
211,162,94150,2,0,P|104:146|104:290,1,238.00000453949,8|8,0:0|0:0,0:0:0:0:
209,321,94950,1,10,0:0:0:0:
311,286,95350,1,10,0:0:0:0:
394,204,95750,1,8,0:0:0:0:
431,97,96150,6,0,P|319:103|342:214,3,238.00000453949,14|8|10|8,0:0|0:0|0:0|0:0,0:0:0:0:
45,209,97750,2,0,P|170:147|107:80,3,238.00000453949,8|10|10|10,0:0|0:0|0:0|0:0,0:0:0:0:
254,94,99350,5,14,0:0:0:0:
254,190,99750,1,8,0:0:0:0:
254,286,100150,1,10,0:0:0:0:
158,286,100550,1,8,0:0:0:0:
158,190,100950,5,8,0:0:0:0:
62,190,101350,1,10,0:0:0:0:
64,320,101750,2,0,B|256:320|256:320|256:229,1,238.00000453949,10|8,0:0|0:0,0:0:0:0:
127,197,102550,5,14,0:0:0:0:
76,307,102950,1,8,0:0:0:0:
186,279,103350,1,10,0:0:0:0:
208,164,103750,1,8,0:0:0:0:
320,123,104150,5,8,0:0:0:0:
289,252,104550,1,10,0:0:0:0:
415,236,104950,2,0,P|474:179|345:106,1,238.00000453949,10|8,0:0|0:0,0:0:0:0:
394,157,105750,5,14,0:0:0:0:
347,234,106150,2,0,P|237:220|242:82,1,238.00000453949,8|10,0:0|0:0,0:0:0:0:
298,152,106950,2,0,P|405:138|423:280,1,238.00000453949,8|8,0:0|0:0,0:0:0:0:
299,320,107750,1,8,0:0:0:0:
234,224,108150,1,8,0:0:0:0:
143,270,108550,1,8,0:0:0:0:
64,73,108950,6,0,B|164:144|164:144|51:236,3,238.00000453949,14|8|10|8,0:0|0:0|0:0|0:0,0:0:0:0:
448,73,110550,2,0,B|348:144|348:144|461:236,3,238.00000453949,8|8|10|8,0:0|0:0|0:0|0:0,0:0:0:0:
256,95,112150,5,14,0:0:0:0:
55,88,115350,6,0,P|232:125|317:220,3,280,12|8|10|8,0:0|0:0|0:0|0:0,0:0:0:0:
152,173,116950,2,0,P|105:282|250:328,3,280,8|10|10|8,0:0|0:0|0:0|0:0,0:0:0:0:
193,257,118550,6,0,P|312:227|387:82,3,280,12|8|10|8,0:0|0:0|0:0|0:0,0:0:0:0:
221,57,120150,2,0,P|114:73|72:232,3,280,8|10|10|8,0:0|0:0|0:0|0:0,0:0:0:0:
150,249,121750,6,0,L|373:67,3,280,14|8|10|8,0:0|0:0|0:0|0:0,0:0:0:0:
419,111,123350,2,0,L|206:307,3,280,8|10|10|10,0:0|0:0|0:0|0:0,0:0:0:0:
256,192,124950,12,14,128150,0:0:0:0:
