osu file format v14

[General]
AudioFilename: audio.mp3
AudioLeadIn: 0
PreviewTime: 36150
Countdown: 0
SampleSet: Normal
StackLeniency: 0.2
Mode: 0
LetterboxInBreaks: 0
EpilepsyWarning: 1
WidescreenStoryboard: 1

[Editor]
Bookmarks: 12950,38550,64150,89750,115350
DistanceSpacing: 0.3
BeatDivisor: 4
GridSize: 16
TimelineZoom: 0.9

[Metadata]
Title:Bitch Lasagna
TitleUnicode:Bitch Lasagna
Artist:Party In Backyard & Pewdiepie
ArtistUnicode:Party In Backyard & Pewdiepie
Creator:TheTNTBlower77
Version:(Insane) pewds is #1
Source:
Tags:tseries t-series t series roast lasagna youtube rap disstrack diss track
BeatmapID:1847387
BeatmapSetID:863505

[Difficulty]
HPDrainRate:4
CircleSize:4
OverallDifficulty:7
ApproachRate:9
SliderMultiplier:1.4
SliderTickRate:1

[Events]
//Background and Video events
Video,0,"T-series Diss Track.mp4"
0,0,"bl.jpg",0,0
//Break Periods
2,112350,114750
//Storyboard Layer 0 (Background)
//Storyboard Layer 1 (Fail)
//Storyboard Layer 2 (Pass)
//Storyboard Layer 3 (Foreground)
//Storyboard Sound Samples

[TimingPoints]
150,400,4,1,0,40,1,0
12950,-66.6666666666667,4,1,2,40,0,0
13050,-66.6666666666667,4,1,2,40,0,0
13150,-66.6666666666667,4,1,2,40,0,0
30950,-25,4,1,2,40,0,0
31350,-66.6666666666667,4,1,2,40,0,0
38550,-40,4,1,2,40,0,1
64150,-40,4,1,2,40,0,0
64950,-66.6666666666667,4,1,2,40,0,0
89750,-40,4,1,2,40,0,1
112150,-40,4,1,2,40,0,0
115350,-50,4,1,2,40,0,0

[Colours]
Combo1 : 0,255,255
Combo2 : 255,0,0
Combo3 : 255,255,0
Combo4 : 128,255,0

[HitObjects]
87,88,12950,5,12,0:0:0:0:
153,178,13150,1,8,0:0:0:0:
207,87,13350,1,8,0:0:0:0:
278,181,13550,1,8,0:0:0:0:
356,91,13750,6,0,P|423:66|483:92,1,105.000004005432,10|8,0:0|0:0,0:0:0:0:
366,211,14150,1,8,0:0:0:0:
366,211,14250,1,8,0:0:0:0:
366,211,14350,1,8,0:0:0:0:
246,251,14550,2,0,P|284:342|317:349,1,105.000004005432,8|8,0:0|0:0,0:0:0:0:
246,251,14950,2,0,P|152:193|139:202,1,105.000004005432,10|8,0:0|0:0,0:0:0:0:
158,269,15350,1,10,0:0:0:0:
264,120,15550,1,8,0:0:0:0:
82,123,15750,2,0,P|166:59|183:66,1,105.000004005432,8|8,0:0|0:0,0:0:0:0:
165,133,16150,5,12,0:0:0:0:
114,239,16350,1,8,0:0:0:0:
246,238,16550,1,8,0:0:0:0:
312,136,16750,1,8,0:0:0:0:
394,238,16950,2,0,P|450:160|436:122,2,105.000004005432,10|8|8,0:0|0:0|0:0,0:0:0:0:
306,131,17550,5,10,0:0:0:0:
188,191,17750,1,8,0:0:0:0:
346,249,17950,1,8,0:0:0:0:
156,307,18150,1,10,0:0:0:0:
390,235,18350,1,8,0:0:0:0:
114,318,18550,5,8,0:0:0:0:
86,273,18650,1,8,0:0:0:0:
73,222,18750,1,8,0:0:0:0:
78,170,18850,1,8,0:0:0:0:
99,123,18950,5,8,0:0:0:0:
134,84,19050,1,8,0:0:0:0:
180,59,19150,1,10,0:0:0:0:
231,49,19250,1,10,0:0:0:0:
283,57,19350,5,10,0:0:0:0:
383,65,19550,2,0,L|451:144,1,105.000004005432,8|8,0:0|0:0,0:0:0:0:
365,156,19950,2,0,L|283:221,1,105.000004005432,8|10,0:0|0:0,0:0:0:0:
280,124,20349,2,0,L|214:41,1,105.000004005432,8|8,0:0|0:0,0:0:0:0:
182,131,20750,1,10,0:0:0:0:
251,190,20950,6,0,L|340:267,1,105.000004005432,8|8,0:0|0:0,0:0:0:0:
245,280,21350,2,0,L|160:366,1,105.000004005432,10|8,0:0|0:0,0:0:0:0:
56,308,21750,1,10,0:0:0:0:
78,195,21950,1,8,0:0:0:0:
164,117,22150,1,10,0:0:0:0:
265,101,22350,1,10,0:0:0:0:
329,176,22550,6,0,L|274:270,2,105.000004005432,14|8|8,0:0|0:0|0:0,0:0:0:0:
366,109,23150,1,8,0:0:0:0:
408,33,23350,2,8,L|492:118,1,105.000004005432
255,166,23750,5,8,0:0:0:0:
202,73,23950,1,10,0:0:0:0:
131,170,24150,5,8,0:0:0:0:
198,259,24350,1,8,0:0:0:0:
315,258,24550,1,10,0:0:0:0:
372,173,24750,1,8,0:0:0:0:
308,75,24950,1,10,0:0:0:0:
250,173,25350,6,0,L|337:267,1,105.000004005432,8|10,0:0|0:0,0:0:0:0:
343,160,25750,5,14,0:0:0:0:
282,198,25950,1,8,0:0:0:0:
352,144,26150,1,8,0:0:0:0:
271,215,26350,1,8,0:0:0:0:
367,119,26550,5,10,0:0:0:0:
258,237,26750,1,8,0:0:0:0:
369,89,26950,1,8,0:0:0:0:
260,263,27150,1,8,0:0:0:0:
310,68,27350,5,8,0:0:0:0:
350,253,27550,1,8,0:0:0:0:
204,134,27750,1,10,0:0:0:0:
406,141,27950,1,8,0:0:0:0:
232,248,28150,2,8,L|123:323,1,105.000004005432
212,153,28550,5,8,0:0:0:0:
297,234,28750,1,10,0:0:0:0:
145,157,28950,1,14,0:0:0:0:
369,234,29150,1,8,0:0:0:0:
152,97,29350,5,8,0:0:0:0:
370,304,29550,1,8,0:0:0:0:
211,98,29750,1,10,0:0:0:0:
172,188,30150,2,0,P|242:107|258:106,1,105.000004005432,8|10,0:0|0:0,0:0:0:0:
340,196,30550,2,0,P|270:277|254:278,1,105.000004005432,8|8,0:0|0:0,0:0:0:0:
254,191,30950,6,0,B|174:257|174:257|244:286,1,140,12|0,0:0|0:0,0:0:0:0:
254,191,31150,6,0,B|335:125|335:125|264:96,1,140,12|0,0:0|0:0,0:0:0:0:
126,182,31350,2,0,L|212:121,1,105.000004005432,8|10,0:0|0:0,0:0:0:0:
355,206,31750,2,0,L|261:288,1,105.000004005432,8|10,0:0|0:0,0:0:0:0:
251,188,32150,1,14,0:0:0:0:
464,320,32550,5,8,0:0:0:0:
401,241,32750,1,8,0:0:0:0:
338,168,32950,2,0,P|267:204|258:229,1,105.000004005432,10|8,0:0|0:0,0:0:0:0:
237,296,33350,6,0,B|144:274|125:242|135:253,1,105.000004005432,8|10,0:0|0:0,0:0:0:0:
114,184,33750,2,0,P|172:131|212:129,1,105.000004005432,8|8,0:0|0:0,0:0:0:0:
93,159,34150,2,0,P|151:106|191:104,1,105.000004005432,10|8,0:0|0:0,0:0:0:0:
151,82,34550,2,0,P|101:98|70:139,1,105.000004005432,10|8,0:0|0:0,0:0:0:0:
132,54,34950,2,0,P|82:69|50:110,1,105.000004005432,8|10,0:0|0:0,0:0:0:0:
46,214,35350,6,0,P|85:275|230:308,1,210.000008010865,14|8,0:0|0:0,0:0:0:0:
380,308,36150,1,10,0:0:0:0:
252,140,36550,1,8,0:0:0:0:
302,214,36750,1,8,0:0:0:0:
213,220,36950,1,14,0:0:0:0:
430,56,38550,6,0,P|354:109|374:204,1,175,12|8,0:0|0:0,0:0:0:0:
429,299,38950,2,0,P|460:219|425:142,1,175,8|8,0:0|0:0,0:0:0:0:
223,243,39350,2,0,P|307:263|383:223,1,175,10|8,0:0|0:0,0:0:0:0:
353,55,39750,2,0,P|286:106|297:189,1,175,8|8,0:0|0:0,0:0:0:0:
210,58,40150,6,0,P|112:86|73:173,1,175,8|8,0:0|0:0,0:0:0:0:
322,228,40550,2,0,P|310:99|240:57,1,175,10|8,0:0|0:0,0:0:0:0:
197,138,40950,2,0,L|80:269,1,175,10|8,0:0|0:0,0:0:0:0:
226,157,41350,2,0,L|109:288,1,175,8|8,0:0|0:0,0:0:0:0:
256,187,41750,5,12,0:0:0:0:
163,305,41950,1,8,0:0:0:0:
296,217,42150,1,8,0:0:0:0:
125,285,42350,1,8,0:0:0:0:
327,189,42550,6,0,P|401:129|394:42,1,175,10|8,0:0|0:0,0:0:0:0:
248,173,42950,1,8,0:0:0:0:
322,40,43150,1,8,0:0:0:0:
295,262,43350,5,8,0:0:0:0:
186,251,43550,1,8,0:0:0:0:
347,293,43750,1,10,0:0:0:0:
132,222,43950,1,8,0:0:0:0:
398,318,44150,5,8,0:0:0:0:
425,273,44250,1,8,0:0:0:0:
438,222,44350,1,8,0:0:0:0:
433,170,44450,1,8,0:0:0:0:
412,123,44550,5,8,0:0:0:0:
377,84,44650,1,8,0:0:0:0:
331,59,44750,1,10,0:0:0:0:
280,49,44850,1,10,0:0:0:0:
228,57,44950,6,8,L|60:179,1,175
292,191,45350,2,0,L|428:80,1,175,8|8,0:0|0:0,0:0:0:0:
211,326,45750,2,0,L|183:153,1,175,10|8,0:0|0:0,0:0:0:0:
448,272,46150,2,8,L|283:330,1,175
244,81,46550,6,0,L|279:268,1,175,8|8,0:0|0:0,0:0:0:0:
354,240,46950,2,0,L|320:66,1,175,10|8,0:0|0:0,0:0:0:0:
414,137,47350,2,0,L|236:176,1,175,10|8,0:0|0:0,0:0:0:0:
393,69,47750,2,0,L|215:108,1,175,10|10,0:0|0:0,0:0:0:0:
140,128,48150,5,14,0:0:0:0:
113,273,48350,1,8,0:0:0:0:
232,187,48550,1,8,0:0:0:0:
199,327,48750,1,8,0:0:0:0:
425,137,48950,6,0,P|325:92|263:106,1,175,10|8,0:0|0:0,0:0:0:0:
139,188,49350,1,8,0:0:0:0:
247,304,49550,1,10,0:0:0:0:
220,195,49750,1,8,0:0:0:0:
264,335,49950,5,8,0:0:0:0:
337,227,50150,1,10,0:0:0:0:
422,333,50350,1,8,0:0:0:0:
471,168,50550,2,0,P|448:80|372:44,1,175,10|8,0:0|0:0,0:0:0:0:
377,130,50950,2,0,P|281:97|210:68,1,175,8|10,0:0|0:0,0:0:0:0:
82,56,51350,6,0,P|158:109|138:204,1,175,12|8,0:0|0:0,0:0:0:0:
83,299,51750,2,0,P|52:219|87:142,1,175,8|8,0:0|0:0,0:0:0:0:
289,243,52150,2,0,P|205:263|129:223,1,175,10|8,0:0|0:0,0:0:0:0:
159,55,52550,2,0,P|226:106|215:189,1,175,8|8,0:0|0:0,0:0:0:0:
302,58,52950,6,0,P|400:86|439:173,1,175,8|8,0:0|0:0,0:0:0:0:
190,228,53350,2,0,P|202:99|272:57,1,175,10|8,0:0|0:0,0:0:0:0:
315,138,53750,2,0,L|432:269,1,175,10|8,0:0|0:0,0:0:0:0:
286,157,54150,6,0,L|403:288,1,175,8|8,0:0|0:0,0:0:0:0:
256,187,54550,5,12,0:0:0:0:
349,305,54750,1,8,0:0:0:0:
216,217,54950,1,8,0:0:0:0:
387,285,55150,1,8,0:0:0:0:
185,189,55350,6,0,P|111:129|118:42,1,175,10|8,0:0|0:0,0:0:0:0:
263,173,55750,1,8,0:0:0:0:
190,40,55950,1,8,0:0:0:0:
217,262,56150,5,8,0:0:0:0:
326,251,56350,1,8,0:0:0:0:
165,293,56550,1,10,0:0:0:0:
380,222,56750,1,8,0:0:0:0:
114,318,56950,5,8,0:0:0:0:
86,273,57050,1,8,0:0:0:0:
73,222,57150,1,8,0:0:0:0:
78,170,57250,5,8,0:0:0:0:
99,123,57350,5,8,0:0:0:0:
134,84,57450,1,8,0:0:0:0:
180,59,57550,1,10,0:0:0:0:
231,49,57650,1,10,0:0:0:0:
283,57,57750,6,8,L|452:179,1,175
220,191,58150,2,0,L|84:80,1,175,8|8,0:0|0:0,0:0:0:0:
301,326,58550,2,0,L|329:153,1,175,10|8,0:0|0:0,0:0:0:0:
64,272,58950,2,8,L|229:330,1,175
268,81,59350,6,0,L|233:268,1,175,8|8,0:0|0:0,0:0:0:0:
158,240,59750,2,0,L|192:66,1,175,10|8,0:0|0:0,0:0:0:0:
98,137,60150,2,0,L|276:176,1,175,10|8,0:0|0:0,0:0:0:0:
119,69,60550,2,0,L|297:108,1,175,10|10,0:0|0:0,0:0:0:0:
372,128,60950,5,14,0:0:0:0:
399,273,61150,1,8,0:0:0:0:
280,187,61350,2,8,L|321:362,1,175
87,137,61750,6,0,P|187:92|249:106,1,175,10|8,0:0|0:0,0:0:0:0:
373,188,62150,1,8,0:0:0:0:
265,304,62350,1,10,0:0:0:0:
292,195,62550,1,8,0:0:0:0:
248,335,62750,5,8,0:0:0:0:
175,227,62950,1,10,0:0:0:0:
90,333,63150,1,8,0:0:0:0:
41,168,63350,2,0,P|64:80|140:44,1,175,10|8,0:0|0:0,0:0:0:0:
135,130,63750,2,0,P|231:97|302:68,1,175,8|10,0:0|0:0,0:0:0:0:
74,64,64950,6,0,L|94:186,1,105.000004005432,10|8,0:0|0:0,0:0:0:0:
165,150,65350,2,0,L|192:263,1,105.000004005432,8|8,0:0|0:0,0:0:0:0:
299,243,65750,5,8,0:0:0:0:
370,162,65950,1,8,0:0:0:0:
372,322,66150,1,10,0:0:0:0:
451,233,66350,1,8,0:0:0:0:
363,238,66550,2,0,L|299:178,4,52.5000020027161,10|0|8|0|8,0:0|0:0|0:0|0:0|0:0,0:0:0:0:
136,109,67350,5,12,0:0:0:0:
206,125,67550,1,8,0:0:0:0:
118,113,67750,1,8,0:0:0:0:
225,121,67950,1,8,0:0:0:0:
90,121,68150,5,10,0:0:0:0:
250,114,68350,1,8,0:0:0:0:
67,140,68550,1,8,0:0:0:0:
267,94,68750,1,10,0:0:0:0:
94,197,68950,5,8,0:0:0:0:
196,38,69150,1,8,0:0:0:0:
215,225,69350,1,10,0:0:0:0:
78,77,69550,1,8,0:0:0:0:
231,135,69750,2,0,L|283:145,4,52.5000020027161,10|8|8|8|8,0:0|0:0|0:0|0:0|0:0,0:0:0:0:
222,345,70550,5,14,0:0:0:0:
294,346,70750,1,8,0:0:0:0:
190,293,70950,1,8,0:0:0:0:
326,292,71150,1,8,0:0:0:0:
161,242,71350,6,0,L|274:242,1,105.000004005432,10|8,0:0|0:0,0:0:0:0:
347,244,71750,2,0,L|225:244,1,105.000004005432,8|10,0:0|0:0,0:0:0:0:
127,177,72150,5,8,0:0:0:0:
362,176,72350,1,8,0:0:0:0:
94,118,72550,1,10,0:0:0:0:
376,111,72750,1,8,0:0:0:0:
69,52,72950,6,0,L|185:53,2,105.000004005432,10|8|10,0:0|0:0|0:0,0:0:0:0:
254,192,73750,5,14,0:0:0:0:
325,82,73950,1,8,0:0:0:0:
392,191,74150,1,8,0:0:0:0:
322,39,74350,1,8,0:0:0:0:
240,224,74550,5,10,0:0:0:0:
316,131,74750,2,0,L|389:228,1,105.000004005432,8|8,0:0|0:0,0:0:0:0:
351,109,75150,2,0,L|424:206,1,105.000004005432,10|8,0:0|0:0,0:0:0:0:
439,265,75550,5,8,0:0:0:0:
346,250,75750,1,10,0:0:0:0:
269,313,75950,1,8,0:0:0:0:
186,306,76150,2,0,L|145:267,4,52.5000020027161,10|8|8|8|8,0:0|0:0|0:0|0:0|0:0,0:0:0:0:
255,39,76950,5,14,0:0:0:0:
117,194,77150,1,8,0:0:0:0:
255,39,77350,1,8,0:0:0:0:
179,227,77550,1,8,0:0:0:0:
255,39,77750,5,10,0:0:0:0:
227,232,77950,1,8,0:0:0:0:
255,39,78150,1,8,0:0:0:0:
273,239,78350,1,8,0:0:0:0:
255,39,78550,5,8,0:0:0:0:
327,235,78750,1,8,0:0:0:0:
255,39,78950,1,10,0:0:0:0:
378,220,79150,1,8,0:0:0:0:
255,39,79350,5,10,0:0:0:0:
415,192,79550,1,8,0:0:0:0:
255,39,79750,1,8,0:0:0:0:
255,196,79950,1,10,0:0:0:0:
255,345,80150,5,14,0:0:0:0:
117,190,80350,1,8,0:0:0:0:
255,345,80550,1,8,0:0:0:0:
179,157,80750,1,8,0:0:0:0:
255,345,80950,5,10,0:0:0:0:
227,152,81150,1,8,0:0:0:0:
255,345,81350,1,8,0:0:0:0:
273,145,81550,1,10,0:0:0:0:
255,345,81750,5,8,0:0:0:0:
327,149,81950,1,8,0:0:0:0:
255,345,82150,1,8,0:0:0:0:
378,164,82350,1,8,0:0:0:0:
255,345,82550,5,8,0:0:0:0:
415,192,82750,1,8,0:0:0:0:
255,345,82950,1,8,0:0:0:0:
83,83,83350,5,14,0:0:0:0:
173,45,83550,1,8,0:0:0:0:
215,43,83650,1,0,0:0:0:0:
92,172,84150,5,10,0:0:0:0:
182,134,84350,1,8,0:0:0:0:
224,132,84450,1,0,0:0:0:0:
87,274,84950,5,8,0:0:0:0:
177,312,85150,1,8,0:0:0:0:
219,314,85250,1,0,0:0:0:0:
312,249,85750,2,0,L|384:142,1,105.000004005432,10|8,0:0|0:0,0:0:0:0:
117,92,86350,1,2,0:0:0:0:
166,119,86550,6,0,L|236:21,1,105.000004005432,14|8,0:0|0:0,0:0:0:0:
209,150,86950,2,0,L|307:77,1,105.000004005432,8|8,0:0|0:0,0:0:0:0:
238,196,87350,2,0,L|350:159,1,105.000004005432,10|8,0:0|0:0,0:0:0:0:
255,249,87750,2,0,L|383:259,1,105.000004005432,8|8,0:0|0:0,0:0:0:0:
241,305,88150,1,10,0:0:0:0:
82,328,89750,6,0,P|158:275|138:180,1,175,12|8,0:0|0:0,0:0:0:0:
83,85,90150,2,0,P|52:165|87:242,1,175,8|8,0:0|0:0,0:0:0:0:
289,141,90550,2,0,P|205:121|129:161,1,175,10|8,0:0|0:0,0:0:0:0:
159,329,90950,2,0,P|226:278|215:195,1,175,8|8,0:0|0:0,0:0:0:0:
302,326,91350,6,0,P|400:298|439:211,1,175,8|8,0:0|0:0,0:0:0:0:
190,156,91750,2,0,P|202:285|272:327,1,175,10|8,0:0|0:0,0:0:0:0:
315,246,92150,2,0,L|432:115,1,175,10|8,0:0|0:0,0:0:0:0:
286,227,92550,2,0,L|403:96,1,175,8|8,0:0|0:0,0:0:0:0:
256,197,92950,5,12,0:0:0:0:
349,79,93150,1,8,0:0:0:0:
216,167,93350,1,8,0:0:0:0:
387,99,93550,1,8,0:0:0:0:
185,195,93750,6,0,P|111:255|118:342,1,175,10|8,0:0|0:0,0:0:0:0:
263,210,94150,1,8,0:0:0:0:
190,344,94350,1,8,0:0:0:0:
217,122,94550,5,8,0:0:0:0:
326,133,94750,1,8,0:0:0:0:
165,91,94950,1,10,0:0:0:0:
380,162,95150,1,8,0:0:0:0:
114,65,95350,5,8,0:0:0:0:
86,110,95450,1,8,0:0:0:0:
73,161,95550,1,8,0:0:0:0:
78,213,95650,1,8,0:0:0:0:
99,260,95750,5,8,0:0:0:0:
134,299,95850,1,8,0:0:0:0:
180,324,95950,1,10,0:0:0:0:
231,334,96050,1,10,0:0:0:0:
283,326,96150,6,8,L|452:205,1,175
220,193,96550,2,0,L|84:304,1,175,8|8,0:0|0:0,0:0:0:0:
301,58,96950,2,0,L|329:231,1,175,10|8,0:0|0:0,0:0:0:0:
64,112,97350,2,8,L|229:54,1,175
268,303,97750,6,0,L|233:116,1,175,8|8,0:0|0:0,0:0:0:0:
158,144,98150,2,0,L|192:318,1,175,10|8,0:0|0:0,0:0:0:0:
98,247,98550,2,0,L|276:208,1,175,10|8,0:0|0:0,0:0:0:0:
119,315,98950,2,0,L|297:276,1,175,10|10,0:0|0:0,0:0:0:0:
372,256,99350,5,14,0:0:0:0:
399,111,99550,1,8,0:0:0:0:
280,197,99750,1,8,0:0:0:0:
313,57,99950,1,8,0:0:0:0:
87,247,100150,6,0,P|187:292|249:278,1,175,10|8,0:0|0:0,0:0:0:0:
373,196,100550,1,8,0:0:0:0:
265,80,100750,1,10,0:0:0:0:
292,189,100950,2,8,L|236:19,1,175
175,157,101350,1,10,0:0:0:0:
90,51,101550,1,8,0:0:0:0:
41,216,101750,2,0,P|64:304|140:340,1,175,10|8,0:0|0:0,0:0:0:0:
135,254,102150,2,0,P|231:287|302:316,1,175,8|10,0:0|0:0,0:0:0:0:
430,328,102550,6,0,P|354:275|374:180,1,175,12|8,0:0|0:0,0:0:0:0:
429,85,102950,2,0,P|460:165|425:242,1,175,8|8,0:0|0:0,0:0:0:0:
223,141,103350,2,0,P|307:121|383:161,1,175,10|8,0:0|0:0,0:0:0:0:
353,329,103750,2,0,P|286:278|297:195,1,175,8|8,0:0|0:0,0:0:0:0:
210,326,104150,6,0,P|112:298|73:211,1,175,8|8,0:0|0:0,0:0:0:0:
322,156,104550,2,0,P|310:285|240:327,1,175,10|8,0:0|0:0,0:0:0:0:
197,246,104950,2,0,L|80:115,1,175,10|8,0:0|0:0,0:0:0:0:
226,227,105350,6,0,L|109:96,1,175,8|8,0:0|0:0,0:0:0:0:
256,197,105750,5,12,0:0:0:0:
163,79,105950,1,8,0:0:0:0:
296,167,106150,1,8,0:0:0:0:
125,99,106350,1,8,0:0:0:0:
327,195,106550,6,0,P|401:255|394:342,1,175,10|8,0:0|0:0,0:0:0:0:
248,210,106950,1,8,0:0:0:0:
322,344,107150,1,8,0:0:0:0:
295,122,107350,5,8,0:0:0:0:
186,133,107550,1,8,0:0:0:0:
347,91,107750,1,10,0:0:0:0:
132,162,107950,1,8,0:0:0:0:
398,65,108150,5,8,0:0:0:0:
425,110,108250,1,8,0:0:0:0:
438,161,108350,1,8,0:0:0:0:
433,213,108450,5,8,0:0:0:0:
412,260,108550,5,8,0:0:0:0:
377,299,108650,1,8,0:0:0:0:
331,324,108750,1,10,0:0:0:0:
280,334,108850,1,10,0:0:0:0:
228,326,108950,6,8,L|60:205,1,175
292,193,109350,2,0,L|428:304,1,175,8|8,0:0|0:0,0:0:0:0:
211,58,109750,2,0,L|183:231,1,175,10|8,0:0|0:0,0:0:0:0:
448,112,110150,2,8,L|283:54,1,175
244,303,110550,6,0,L|279:116,1,175,8|8,0:0|0:0,0:0:0:0:
354,144,110950,2,0,L|320:318,1,175,10|8,0:0|0:0,0:0:0:0:
414,247,111350,2,0,L|236:208,1,175,10|8,0:0|0:0,0:0:0:0:
393,315,111750,6,0,L|215:276,1,175,10|10,0:0|0:0,0:0:0:0:
140,256,112150,5,14,0:0:0:0:
287,138,115350,6,0,P|403:138|422:198,1,140,12|8,0:0|0:0,0:0:0:0:
347,186,115750,2,0,P|388:252|351:323,1,140,8|8,0:0|0:0,0:0:0:0:
311,258,116150,2,0,P|232:286|183:258,1,140,10|8,0:0|0:0,0:0:0:0:
250,211,116550,2,0,P|201:146|224:92,1,140,8|8,0:0|0:0,0:0:0:0:
283,141,116950,6,0,L|419:84,1,140,8|8,0:0|0:0,0:0:0:0:
314,213,117350,2,0,L|386:340,1,140,10|8,0:0|0:0,0:0:0:0:
242,237,117750,2,0,L|91:293,1,140,10|8,0:0|0:0,0:0:0:0:
220,169,118150,2,0,L|157:37,1,140,8|8,0:0|0:0,0:0:0:0:
296,142,118550,6,0,B|381:104|381:104|354:53,1,140,12|8,0:0|0:0,0:0:0:0:
326,209,118950,2,0,B|410:172|410:172|451:254,1,140,8|8,0:0|0:0,0:0:0:0:
254,231,119350,2,0,B|169:269|169:269|196:320,1,140,10|8,0:0|0:0,0:0:0:0:
224,164,119750,2,0,B|140:201|140:201|99:119,1,140,8|10,0:0|0:0,0:0:0:0:
302,137,120150,6,0,B|352:115|352:115|324:48|378:35,1,140,8|8,0:0|0:0,0:0:0:0:
308,216,120550,2,0,B|358:238|358:238|330:305|384:318,1,140,10|8,0:0|0:0,0:0:0:0:
232,214,120950,2,0,B|182:236|182:236|210:303|156:316,1,140,10|8,0:0|0:0,0:0:0:0:
229,143,121350,2,0,B|179:121|179:121|207:54|153:41,1,140,8|10,0:0|0:0,0:0:0:0:
310,149,121750,6,0,B|351:105|351:105|386:140|386:140|429:116,1,140,14|8,0:0|0:0,0:0:0:0:
306,224,122150,2,0,B|350:265|350:265|315:300|315:300|339:343,1,140,8|8,0:0|0:0,0:0:0:0:
230,225,122550,2,0,B|189:269|189:269|154:234|154:234|111:258,1,140,10|8,0:0|0:0,0:0:0:0:
233,147,122950,2,0,B|189:106|189:106|224:71|224:71|200:28,1,140,8|10,0:0|0:0,0:0:0:0:
314,154,123350,6,0,B|352:83|432:177|426:68,1,140,8|8,0:0|0:0,0:0:0:0:
300,229,123750,2,0,B|371:267|277:347|386:341,1,140,10|8,0:0|0:0,0:0:0:0:
220,233,124150,2,0,B|182:304|102:210|108:319,1,140,10|8,0:0|0:0,0:0:0:0:
234,155,124550,2,0,B|163:117|257:37|148:43,1,140,10|10,0:0|0:0,0:0:0:0:
256,192,124950,12,14,128150,0:0:0:0:
