osu file format v14

[General]
AudioFilename: audio.mp3
AudioLeadIn: 0
PreviewTime: 36150
Countdown: 0
SampleSet: Normal
StackLeniency: 0.2
Mode: 0
LetterboxInBreaks: 0
EpilepsyWarning: 1
WidescreenStoryboard: 1

[Editor]
Bookmarks: 12950,38550,64150,89750,115350
DistanceSpacing: 0.3
BeatDivisor: 4
GridSize: 16
TimelineZoom: 1.3

[Metadata]
Title:Bitch Lasagna
TitleUnicode:Bitch Lasagna
Artist:Party In Backyard & Pewdiepie
ArtistUnicode:Party In Backyard & Pewdiepie
Creator:TheTNTBlower77
Version:(Extra) lasagna
Source:
Tags:tseries t-series t series roast lasagna youtube rap diss track disstrack
BeatmapID:1806218
BeatmapSetID:863505

[Difficulty]
HPDrainRate:5
CircleSize:4
OverallDifficulty:8
ApproachRate:9
SliderMultiplier:1.4
SliderTickRate:1

[Events]
//Background and Video events
Video,0,"T-series Diss Track.mp4"
0,0,"bl.jpg",0,0
//Break Periods
//Storyboard Layer 0 (Background)
//Storyboard Layer 1 (Fail)
//Storyboard Layer 2 (Pass)
//Storyboard Layer 3 (Foreground)
//Storyboard Sound Samples

[TimingPoints]
150,400,4,1,0,40,1,0
12950,-66.6666666666667,4,1,2,40,0,0
13050,-66.6666666666667,4,1,2,40,0,0
13150,-66.6666666666667,4,1,2,40,0,0
30950,-25,4,1,2,40,0,0
31350,-66.6666666666667,4,1,2,40,0,0
38550,-40,4,1,2,40,0,1
64150,-40,4,1,2,40,0,0
64950,-66.6666666666667,4,1,2,40,0,0
89750,-40,4,1,2,40,0,1
112150,-40,4,1,2,40,0,0
115350,-50,4,1,2,40,0,0

[Colours]
Combo1 : 0,255,255
Combo2 : 255,0,0
Combo3 : 255,255,0
Combo4 : 128,255,0

[HitObjects]
92,155,12950,6,0,L|145:195,1,52.5000020027161,12|0,0:0|0:0,0:0:0:0:
193,235,13150,1,8,0:0:0:0:
242,66,13350,1,8,0:0:0:0:
362,210,13550,1,8,0:0:0:0:
193,235,13750,6,0,P|148:195|138:151,1,105.000004005432,10|8,0:0|0:0,0:0:0:0:
270,80,14150,1,8,0:0:0:0:
295,110,14250,1,8,0:0:0:0:
318,136,14350,1,8,0:0:0:0:
422,309,14550,5,8,0:0:0:0:
198,312,14750,1,8,0:0:0:0:
306,122,14950,1,10,0:0:0:0:
98,122,15150,1,8,0:0:0:0:
306,122,15350,6,0,L|274:178,1,52.5000020027161,10|0,0:0|0:0,0:0:0:0:
321,138,15550,2,0,L|289:194,1,52.5000020027161,8|0,0:0|0:0,0:0:0:0:
342,167,15750,2,0,L|321:207,6,26.2500010013581,8|0|8|0|8|0|8,0:0|0:0|0:0|0:0|0:0|0:0|0:0,0:0:0:0:
316,220,16150,5,12,0:0:0:0:
183,86,16350,1,8,0:0:0:0:
361,244,16550,1,8,0:0:0:0:
138,63,16750,1,8,0:0:0:0:
398,306,16950,6,0,P|432:255|395:180,1,105.000004005432,10|8,0:0|0:0,0:0:0:0:
367,89,17350,1,8,0:0:0:0:
330,115,17450,1,8,0:0:0:0:
297,139,17550,1,10,0:0:0:0:
92,290,17750,5,8,0:0:0:0:
214,118,17950,1,8,0:0:0:0:
330,294,18150,1,10,0:0:0:0:
213,72,18350,1,8,0:0:0:0:
79,304,18550,5,10,0:0:0:0:
125,328,18650,1,8,0:0:0:0:
176,336,18750,1,8,0:0:0:0:
227,326,18850,1,8,0:0:0:0:
272,299,18950,5,8,0:0:0:0:
305,259,19050,1,8,0:0:0:0:
323,210,19150,1,10,0:0:0:0:
323,157,19250,1,10,0:0:0:0:
305,108,19350,6,0,P|250:85|197:106,1,105.000004005432,14|8,0:0|0:0,0:0:0:0:
250,158,19750,1,8,0:0:0:0:
339,43,19950,1,8,0:0:0:0:
224,184,20150,5,10,0:0:0:0:
359,22,20350,1,8,0:0:0:0:
200,204,20550,1,8,0:0:0:0:
327,107,20750,2,0,L|361:165,1,52.5000020027161,10|0,0:0|0:0,0:0:0:0:
371,186,20950,5,8,0:0:0:0:
253,88,21150,1,8,0:0:0:0:
371,186,21350,1,10,0:0:0:0:
209,76,21550,1,8,0:0:0:0:
276,275,21750,6,0,L|254:214,1,52.5000020027161,10|0,0:0|0:0,0:0:0:0:
254,276,21950,2,0,L|232:215,1,52.5000020027161,8|0,0:0|0:0,0:0:0:0:
218,273,22150,2,0,L|202:231,6,26.2500010013581,10|0|8|0|10|0|8,0:0|0:0|0:0|0:0|0:0|0:0|0:0,0:0:0:0:
195,218,22550,5,14,0:0:0:0:
391,219,22750,1,8,0:0:0:0:
250,79,22950,1,8,0:0:0:0:
428,82,23150,1,8,0:0:0:0:
195,218,23350,5,10,0:0:0:0:
458,62,23550,1,8,0:0:0:0:
167,240,23750,1,8,0:0:0:0:
131,265,23850,1,8,0:0:0:0:
97,287,23950,1,10,0:0:0:0:
151,143,24150,5,8,0:0:0:0:
360,240,24350,1,8,0:0:0:0:
304,87,24550,1,10,0:0:0:0:
207,296,24750,1,8,0:0:0:0:
431,102,24950,5,10,0:0:0:0:
385,78,25050,1,8,0:0:0:0:
334,70,25150,1,8,0:0:0:0:
283,80,25250,1,8,0:0:0:0:
238,107,25350,5,8,0:0:0:0:
205,147,25450,1,8,0:0:0:0:
187,196,25550,1,10,0:0:0:0:
187,249,25650,1,10,0:0:0:0:
207,296,25750,5,14,0:0:0:0:
348,151,25950,1,8,0:0:0:0:
400,327,26150,1,8,0:0:0:0:
190,135,26350,1,8,0:0:0:0:
207,296,26550,5,10,0:0:0:0:
370,128,26750,1,8,0:0:0:0:
429,331,26950,1,8,0:0:0:0:
187,109,27150,1,8,0:0:0:0:
207,296,27350,5,8,0:0:0:0:
393,104,27550,1,8,0:0:0:0:
462,336,27750,1,10,0:0:0:0:
185,83,27950,1,8,0:0:0:0:
207,296,28150,6,0,L|228:357,1,52.5000020027161,10|0,0:0|0:0,0:0:0:0:
228,295,28350,2,0,L|250:355,1,52.5000020027161,8|0,0:0|0:0,0:0:0:0:
264,297,28550,2,0,L|280:339,6,26.2500010013581,8|0|8|0|10|0|8,0:0|0:0|0:0|0:0|0:0|0:0|0:0,0:0:0:0:
287,353,28950,5,14,0:0:0:0:
215,152,29150,1,8,0:0:0:0:
361,304,29350,1,8,0:0:0:0:
166,119,29550,1,8,0:0:0:0:
400,280,29750,6,0,P|424:222|400:173,1,105.000004005432,10|8,0:0|0:0,0:0:0:0:
187,290,30150,1,8,0:0:0:0:
157,123,30350,1,10,0:0:0:0:
324,93,30550,1,8,0:0:0:0:
354,260,30750,1,8,0:0:0:0:
255,194,30950,6,0,P|289:154|219:119,1,140,12|0,0:0|0:0,0:0:0:0:
255,194,31150,2,0,P|228:228|322:251,1,140,12|0,0:0|0:0,0:0:0:0:
135,95,31350,5,8,0:0:0:0:
181,71,31450,1,0,0:0:0:0:
232,63,31550,1,10,0:0:0:0:
283,73,31650,1,8,0:0:0:0:
328,100,31750,5,8,0:0:0:0:
361,140,31850,1,8,0:0:0:0:
379,189,31950,1,10,0:0:0:0:
379,242,32050,1,10,0:0:0:0:
377,298,32150,5,14,0:0:0:0:
215,260,32350,1,8,0:0:0:0:
328,353,32550,1,8,0:0:0:0:
131,199,32750,1,8,0:0:0:0:
259,379,32950,5,10,0:0:0:0:
190,160,33150,1,8,0:0:0:0:
186,370,33350,1,8,0:0:0:0:
263,169,33550,1,10,0:0:0:0:
126,328,33750,5,8,0:0:0:0:
323,211,33950,1,8,0:0:0:0:
91,263,34150,1,10,0:0:0:0:
358,276,34350,1,8,0:0:0:0:
122,184,34550,6,0,L|182:207,1,52.5000020027161,10|0,0:0|0:0,0:0:0:0:
134,167,34750,2,0,L|194:188,1,52.5000020027161,8|0,0:0|0:0,0:0:0:0:
159,140,34950,2,0,L|201:154,6,26.2500010013581,8|0|8|0|10|0|8,0:0|0:0|0:0|0:0|0:0|0:0|0:0,0:0:0:0:
217,159,35350,5,14,0:0:0:0:
256,192,35450,12,14,36950,0:0:0:0:
155,280,38550,6,0,P|287:334|360:305,1,175,12|8,0:0|0:0,0:0:0:0:
144,124,38950,2,0,P|110:204|165:284,1,175,8|8,0:0|0:0,0:0:0:0:
301,87,39350,2,0,P|188:87|142:125,1,175,10|8,0:0|0:0,0:0:0:0:
288,242,39750,2,0,P|261:162|301:87,1,175,8|8,0:0|0:0,0:0:0:0:
259,251,40150,6,0,P|231:170|271:95,1,175,8|8,0:0|0:0,0:0:0:0:
220,265,40550,2,0,P|192:184|232:109,1,175,10|8,0:0|0:0,0:0:0:0:
277,193,40950,2,0,L|351:248,1,87.5,10|0,0:0|0:0,0:0:0:0:
302,163,41150,2,0,L|376:218,1,87.5,8|0,0:0|0:0,0:0:0:0:
333,127,41350,2,0,L|366:155,6,43.75,8|0|8|0|8|0|8,0:0|0:0|0:0|0:0|0:0|0:0|0:0,0:0:0:0:
396,177,41750,5,12,0:0:0:0:
248,81,41950,1,8,0:0:0:0:
435,267,42150,1,8,0:0:0:0:
342,42,42350,1,8,0:0:0:0:
342,306,42550,5,10,0:0:0:0:
435,81,42750,1,8,0:0:0:0:
248,267,42950,1,8,0:0:0:0:
474,174,43150,1,10,0:0:0:0:
210,174,43350,6,0,P|122:224|113:313,1,175,8|8,0:0|0:0,0:0:0:0:
291,46,43750,2,0,P|219:90|210:174,1,175,10|8,0:0|0:0,0:0:0:0:
291,128,44150,5,10,0:0:0:0:
309,176,44250,1,8,0:0:0:0:
310,228,44350,1,8,0:0:0:0:
294,277,44450,1,8,0:0:0:0:
262,318,44550,5,8,0:0:0:0:
218,346,44650,1,8,0:0:0:0:
167,358,44750,1,10,0:0:0:0:
115,352,44850,1,10,0:0:0:0:
74,326,44950,6,0,P|65:209|123:155,1,175,14|8,0:0|0:0,0:0:0:0:
230,315,45350,2,0,P|154:354|74:326,1,175,8|8,0:0|0:0,0:0:0:0:
233,151,45750,2,0,P|204:233|230:315,1,175,10|8,0:0|0:0,0:0:0:0:
396,171,46150,2,0,P|311:187|233:151,1,175,8|10,0:0|0:0,0:0:0:0:
411,317,46550,6,0,P|444:240|396:171,1,175,8|8,0:0|0:0,0:0:0:0:
378,328,46950,2,0,P|410:250|362:182,1,175,10|8,0:0|0:0,0:0:0:0:
334,260,47350,2,0,L|260:205,1,87.5,10|0,0:0|0:0,0:0:0:0:
309,290,47550,2,0,L|235:235,1,87.5,8|0,0:0|0:0,0:0:0:0:
278,326,47750,2,0,L|245:298,6,43.75,10|0|8|0|10|0|8,0:0|0:0|0:0|0:0|0:0|0:0|0:0,0:0:0:0:
215,276,48150,5,14,0:0:0:0:
213,131,48350,1,8,0:0:0:0:
347,177,48550,2,0,P|406:255|349:342,1,175,8|8,0:0|0:0,0:0:0:0:
326,257,48950,1,0,0:0:0:0:
288,124,49150,1,0,0:0:0:0:
350,180,49350,5,8,0:0:0:0:
168,298,49550,1,10,0:0:0:0:
186,72,49750,1,8,0:0:0:0:
394,323,49950,1,8,0:0:0:0:
183,113,50150,1,10,0:0:0:0:
443,296,50350,1,8,0:0:0:0:
163,298,50550,5,10,0:0:0:0:
145,249,50650,1,8,0:0:0:0:
144,198,50750,1,8,0:0:0:0:
160,149,50850,1,8,0:0:0:0:
192,108,50950,5,8,0:0:0:0:
236,80,51050,1,8,0:0:0:0:
287,68,51150,1,10,0:0:0:0:
339,74,51250,1,10,0:0:0:0:
379,103,51350,6,0,P|247:49|174:78,1,175,14|8,0:0|0:0,0:0:0:0:
390,259,51750,2,0,P|355:146|404:83,1,175,8|8,0:0|0:0,0:0:0:0:
233,296,52150,2,0,P|346:296|392:258,1,175,10|8,0:0|0:0,0:0:0:0:
246,141,52550,2,0,P|273:221|233:296,1,175,8|8,0:0|0:0,0:0:0:0:
275,132,52950,6,0,P|303:213|263:288,1,175,8|8,0:0|0:0,0:0:0:0:
314,118,53350,2,0,P|342:199|302:274,1,175,10|8,0:0|0:0,0:0:0:0:
257,190,53750,2,0,L|183:135,1,87.5,10|0,0:0|0:0,0:0:0:0:
232,220,53950,2,0,L|158:165,1,87.5,8|0,0:0|0:0,0:0:0:0:
201,256,54150,2,0,L|168:228,6,43.75,8|0|8|0|10|0|8,0:0|0:0|0:0|0:0|0:0|0:0|0:0,0:0:0:0:
138,206,54550,5,14,0:0:0:0:
286,302,54750,1,8,0:0:0:0:
99,116,54950,1,8,0:0:0:0:
192,341,55150,1,8,0:0:0:0:
192,77,55350,5,10,0:0:0:0:
99,302,55550,1,8,0:0:0:0:
286,116,55750,1,8,0:0:0:0:
60,209,55950,1,10,0:0:0:0:
324,209,56150,6,0,P|412:159|421:70,1,175,8|8,0:0|0:0,0:0:0:0:
242,336,56550,2,0,P|314:292|323:208,1,175,8|8,0:0|0:0,0:0:0:0:
243,255,56950,5,8,0:0:0:0:
225,207,57050,1,0,0:0:0:0:
224,155,57150,1,8,0:0:0:0:
240,106,57250,1,8,0:0:0:0:
272,65,57350,5,8,0:0:0:0:
316,37,57450,1,8,0:0:0:0:
367,25,57550,1,10,0:0:0:0:
419,31,57650,1,10,0:0:0:0:
460,57,57750,6,0,P|469:174|411:228,1,175,14|8,0:0|0:0,0:0:0:0:
303,67,58150,2,0,P|378:28|459:56,1,175,8|8,0:0|0:0,0:0:0:0:
300,231,58550,2,0,P|328:149|303:67,1,175,10|8,0:0|0:0,0:0:0:0:
137,211,58950,2,0,P|221:194|299:230,1,175,8|10,0:0|0:0,0:0:0:0:
122,65,59350,6,0,P|89:142|137:210,1,175,8|8,0:0|0:0,0:0:0:0:
156,55,59750,2,0,P|123:132|171:200,1,175,10|8,0:0|0:0,0:0:0:0:
200,123,60150,2,0,L|274:178,1,87.5,10|0,0:0|0:0,0:0:0:0:
225,93,60350,2,0,L|299:148,1,87.5,8|0,0:0|0:0,0:0:0:0:
256,57,60550,2,0,L|289:85,6,43.75,8|0|8|0|10|0|8,0:0|0:0|0:0|0:0|0:0|0:0|0:0,0:0:0:0:
319,107,60950,5,14,0:0:0:0:
370,250,61150,1,8,0:0:0:0:
187,206,61350,2,0,P|128:128|185:41,1,175,8|8,0:0|0:0,0:0:0:0:
208,126,61750,2,0,P|268:201|209:280,1,175,10|8,0:0|0:0,0:0:0:0:
184,203,62150,5,8,0:0:0:0:
366,85,62350,1,8,0:0:0:0:
333,299,62550,1,10,0:0:0:0:
140,60,62750,1,8,0:0:0:0:
382,287,62950,1,8,0:0:0:0:
87,92,63150,1,8,0:0:0:0:
371,85,63350,5,8,0:0:0:0:
389,134,63450,1,0,0:0:0:0:
390,185,63550,1,8,0:0:0:0:
374,234,63650,1,0,0:0:0:0:
342,275,63750,5,8,0:0:0:0:
298,303,63850,1,0,0:0:0:0:
247,315,63950,1,10,0:0:0:0:
195,309,64050,1,10,0:0:0:0:
153,288,64150,5,12,0:0:0:0:
254,190,64950,5,10,0:0:0:0:
346,57,65150,1,8,0:0:0:0:
426,237,65350,1,8,0:0:0:0:
446,271,65450,1,8,0:0:0:0:
463,303,65550,5,8,0:0:0:0:
354,132,65750,2,0,P|289:74|255:85,1,105.000004005432,8|8,0:0|0:0,0:0:0:0:
139,242,66150,2,0,P|178:296|246:293,1,105.000004005432,10|8,0:0|0:0,0:0:0:0:
252,184,66550,6,0,L|312:228,1,52.5000020027161,10|0,0:0|0:0,0:0:0:0:
276,151,66750,2,0,L|334:190,1,52.5000020027161,8|0,0:0|0:0,0:0:0:0:
303,118,66950,1,8,0:0:0:0:
89,310,67350,5,12,0:0:0:0:
287,199,67550,1,8,0:0:0:0:
230,346,67750,1,8,0:0:0:0:
71,161,67950,1,8,0:0:0:0:
89,310,68150,5,10,0:0:0:0:
307,186,68350,1,8,0:0:0:0:
244,348,68550,1,8,0:0:0:0:
69,144,68750,1,10,0:0:0:0:
89,310,68950,5,8,0:0:0:0:
331,172,69150,1,8,0:0:0:0:
261,352,69350,1,10,0:0:0:0:
67,126,69550,1,8,0:0:0:0:
179,293,69750,5,10,0:0:0:0:
215,330,69850,1,8,0:0:0:0:
261,352,69950,1,8,0:0:0:0:
312,358,70050,1,8,0:0:0:0:
363,347,70150,5,8,0:0:0:0:
69,162,70550,5,14,0:0:0:0:
190,30,70750,1,8,0:0:0:0:
166,228,70950,1,8,0:0:0:0:
281,80,71150,1,8,0:0:0:0:
283,274,71350,5,10,0:0:0:0:
370,150,71550,1,8,0:0:0:0:
265,295,71750,1,8,0:0:0:0:
238,325,71850,1,8,0:0:0:0:
213,353,71950,5,10,0:0:0:0:
392,252,72150,2,0,P|419:180|401:122,1,105.000004005432,8|8,0:0|0:0,0:0:0:0:
115,116,72550,2,0,P|122:167|158:203,1,105.000004005432,10|8,0:0|0:0,0:0:0:0:
192,135,72950,6,0,L|252:179,1,52.5000020027161,10|0,0:0|0:0,0:0:0:0:
216,101,73150,2,0,L|274:140,1,52.5000020027161,8|0,0:0|0:0,0:0:0:0:
246,64,73350,2,0,L|273:80,6,26.2500010013581,10|0|8|0|10|0|8,0:0|0:0|0:0|0:0|0:0|0:0|0:0,0:0:0:0:
302,98,73750,5,14,0:0:0:0:
201,242,73950,1,8,0:0:0:0:
381,202,74150,2,0,P|427:144|420:96,1,105.000004005432,8|8,0:0|0:0,0:0:0:0:
259,60,74550,5,10,0:0:0:0:
201,242,74750,1,8,0:0:0:0:
384,195,74950,1,8,0:0:0:0:
416,179,75050,1,8,0:0:0:0:
451,161,75150,1,10,0:0:0:0:
259,60,75350,5,8,0:0:0:0:
176,263,75550,1,8,0:0:0:0:
296,42,75750,1,10,0:0:0:0:
136,281,75950,1,8,0:0:0:0:
345,275,76150,5,10,0:0:0:0:
393,254,76250,1,8,0:0:0:0:
429,217,76350,1,8,0:0:0:0:
448,169,76450,1,8,0:0:0:0:
446,116,76550,5,8,0:0:0:0:
276,154,76750,1,10,0:0:0:0:
249,199,76850,1,10,0:0:0:0:
223,244,76950,5,14,0:0:0:0:
363,144,77150,1,8,0:0:0:0:
143,242,77350,1,8,0:0:0:0:
379,195,77550,1,8,0:0:0:0:
126,188,77750,5,10,0:0:0:0:
375,252,77950,1,8,0:0:0:0:
134,129,78150,1,8,0:0:0:0:
338,300,78350,1,8,0:0:0:0:
169,78,78550,5,8,0:0:0:0:
284,332,78750,1,8,0:0:0:0:
226,45,78950,1,10,0:0:0:0:
219,337,79150,1,8,0:0:0:0:
283,99,79350,6,0,L|343:143,1,52.5000020027161,10|0,0:0|0:0,0:0:0:0:
307,66,79550,2,0,L|365:105,1,52.5000020027161,8|0,0:0|0:0,0:0:0:0:
337,28,79750,2,0,L|364:44,6,26.2500010013581,8|0|8|0|10|0|8,0:0|0:0|0:0|0:0|0:0|0:0|0:0,0:0:0:0:
393,62,80150,5,14,0:0:0:0:
156,252,80350,1,8,0:0:0:0:
363,128,80550,1,8,0:0:0:0:
188,295,80750,1,8,0:0:0:0:
328,83,80950,5,10,0:0:0:0:
237,323,81150,1,8,0:0:0:0:
275,57,81350,1,8,0:0:0:0:
298,321,81550,1,10,0:0:0:0:
213,56,81750,5,8,0:0:0:0:
355,295,81950,1,8,0:0:0:0:
153,83,82150,1,8,0:0:0:0:
397,245,82350,1,8,0:0:0:0:
119,59,82550,5,8,0:0:0:0:
170,47,82650,1,0,0:0:0:0:
222,49,82750,1,8,0:0:0:0:
272,65,82850,1,8,0:0:0:0:
316,92,82950,5,8,0:0:0:0:
352,130,83050,1,8,0:0:0:0:
377,176,83150,1,10,0:0:0:0:
389,227,83250,1,10,0:0:0:0:
388,280,83350,5,14,0:0:0:0:
185,178,83550,1,8,0:0:0:0:
147,153,83650,1,0,0:0:0:0:
292,234,83950,1,0,0:0:0:0:
388,280,84150,5,10,0:0:0:0:
164,167,84350,1,8,0:0:0:0:
126,142,84450,1,0,0:0:0:0:
323,244,84750,1,0,0:0:0:0:
388,280,84950,5,8,0:0:0:0:
113,133,85150,1,8,0:0:0:0:
138,95,85250,1,0,0:0:0:0:
316,240,85550,1,0,0:0:0:0:
270,212,85750,6,0,L|315:152,1,52.5000020027161,10|0,0:0|0:0,0:0:0:0:
237,187,85950,2,0,L|277:129,1,52.5000020027161,8|0,0:0|0:0,0:0:0:0:
199,156,86150,2,0,L|215:129,6,26.2500010013581,8|0|8|0|10|0|8,0:0|0:0|0:0|0:0|0:0|0:0|0:0,0:0:0:0:
234,101,86550,5,14,0:0:0:0:
256,192,86650,12,10,88150,0:0:0:0:
129,148,89750,6,0,P|148:289|210:338,1,175,12|8,0:0|0:0,0:0:0:0:
258,61,90150,2,0,P|178:147|99:136,1,175,8|8,0:0|0:0,0:0:0:0:
369,178,90550,2,0,P|312:80|257:59,1,175,10|8,0:0|0:0,0:0:0:0:
228,244,90950,2,0,P|284:181|369:178,1,175,8|8,0:0|0:0,0:0:0:0:
206,224,91350,6,0,P|262:159|347:156,1,175,8|8,0:0|0:0,0:0:0:0:
174,197,91750,2,0,P|230:132|315:129,1,175,10|8,0:0|0:0,0:0:0:0:
265,210,92150,2,0,L|255:302,1,87.5,10|0,0:0|0:0,0:0:0:0:
304,217,92350,2,0,L|293:308,1,87.5,8|0,0:0|0:0,0:0:0:0:
350,226,92550,2,0,L|343:268,6,43.75,8|0|8|0|8|0|8,0:0|0:0|0:0|0:0|0:0|0:0|0:0,0:0:0:0:
338,305,92950,5,12,0:0:0:0:
353,199,93150,1,8,0:0:0:0:
262,279,93350,2,8,L|436:188,1,175
192,273,93750,5,10,0:0:0:0:
486,243,93950,1,8,0:0:0:0:
150,212,94150,1,8,0:0:0:0:
473,323,94350,1,10,0:0:0:0:
248,143,94550,6,0,P|161:91|79:128,1,175,8|8,0:0|0:0,0:0:0:0:
399,149,94950,2,0,P|325:108|248:143,1,175,10|8,0:0|0:0,0:0:0:0:
328,190,95350,5,10,0:0:0:0:
296,229,95450,1,8,0:0:0:0:
251,256,95550,1,8,0:0:0:0:
201,267,95650,1,8,0:0:0:0:
149,260,95750,5,8,0:0:0:0:
103,236,95850,1,8,0:0:0:0:
67,197,95950,1,10,0:0:0:0:
46,149,96050,1,10,0:0:0:0:
48,101,96150,6,0,P|145:35|221:58,1,175,14|8,0:0|0:0,0:0:0:0:
136,230,96550,2,0,P|64:184|48:101,1,175,8|8,0:0|0:0,0:0:0:0:
280,151,96950,2,0,P|194:167|136:230,1,175,10|8,0:0|0:0,0:0:0:0:
343,301,97350,2,0,P|286:236|279:150,1,175,8|10,0:0|0:0,0:0:0:0:
225,388,97750,6,0,P|308:378|344:302,1,175,8|8,0:0|0:0,0:0:0:0:
199,365,98150,2,0,P|282:354|317:278,1,175,10|8,0:0|0:0,0:0:0:0:
236,293,98550,2,0,L|246:201,1,87.5,10|0,0:0|0:0,0:0:0:0:
197,286,98750,2,0,L|208:195,1,87.5,8|0,0:0|0:0,0:0:0:0:
150,278,98950,2,0,L|158:235,6,43.75,10|0|8|0|10|0|8,0:0|0:0|0:0|0:0|0:0|0:0|0:0,0:0:0:0:
162,198,99350,5,14,0:0:0:0:
314,133,99550,1,8,0:0:0:0:
207,364,99750,1,8,0:0:0:0:
314,263,99950,1,8,0:0:0:0:
224,283,100150,1,8,0:0:0:0:
337,188,100350,1,8,0:0:0:0:
313,267,100550,5,8,0:0:0:0:
120,168,100750,1,10,0:0:0:0:
322,90,100950,1,8,0:0:0:0:
211,377,101150,1,8,0:0:0:0:
287,53,101350,1,10,0:0:0:0:
248,379,101550,1,8,0:0:0:0:
117,164,101750,5,10,0:0:0:0:
151,124,101850,1,8,0:0:0:0:
194,98,101950,1,8,0:0:0:0:
245,87,102050,1,8,0:0:0:0:
296,94,102150,5,8,0:0:0:0:
342,118,102250,1,8,0:0:0:0:
378,156,102350,1,10,0:0:0:0:
399,204,102450,1,10,0:0:0:0:
394,254,102550,6,0,P|375:112|313:63,1,175,14|8,0:0|0:0,0:0:0:0:
264,341,102950,2,0,P|345:254|424:265,1,175,8|8,0:0|0:0,0:0:0:0:
154,224,103350,2,0,P|210:321|266:342,1,175,10|8,0:0|0:0,0:0:0:0:
295,157,103750,2,0,P|239:221|154:224,1,175,8|8,0:0|0:0,0:0:0:0:
317,178,104150,6,0,P|261:243|176:246,1,175,8|8,0:0|0:0,0:0:0:0:
349,205,104550,2,0,P|292:269|207:272,1,175,10|8,0:0|0:0,0:0:0:0:
258,191,104950,2,0,L|268:100,1,87.5,10|0,0:0|0:0,0:0:0:0:
219,185,105150,2,0,L|230:93,1,87.5,8|0,0:0|0:0,0:0:0:0:
173,176,105350,2,0,L|180:133,6,43.75,8|0|8|0|10|0|8,0:0|0:0|0:0|0:0|0:0|0:0|0:0,0:0:0:0:
184,96,105750,5,14,0:0:0:0:
175,272,105950,1,8,0:0:0:0:
243,18,106150,2,0,L|121:178,1,175,8|8,0:0|0:0,0:0:0:0:
323,79,106550,5,10,0:0:0:0:
82,111,106750,1,8,0:0:0:0:
336,179,106950,1,8,0:0:0:0:
143,30,107150,1,10,0:0:0:0:
275,259,107350,6,0,P|362:310|444:273,1,175,8|8,0:0|0:0,0:0:0:0:
124,251,107750,2,0,P|198:292|275:258,1,175,8|8,0:0|0:0,0:0:0:0:
194,212,108150,5,8,0:0:0:0:
227,172,108250,1,0,0:0:0:0:
272,145,108350,1,8,0:0:0:0:
322,135,108450,1,8,0:0:0:0:
373,142,108550,5,8,0:0:0:0:
420,166,108650,1,8,0:0:0:0:
456,204,108750,1,10,0:0:0:0:
476,252,108850,1,10,0:0:0:0:
474,301,108950,6,0,P|378:367|302:344,1,175,14|8,0:0|0:0,0:0:0:0:
387,170,109350,2,0,P|459:215|475:299,1,175,8|8,0:0|0:0,0:0:0:0:
244,249,109750,2,0,P|329:232|387:170,1,175,10|8,0:0|0:0,0:0:0:0:
180,98,110150,2,0,P|236:162|244:248,1,175,8|10,0:0|0:0,0:0:0:0:
298,12,110550,6,0,P|215:22|180:97,1,175,8|8,0:0|0:0,0:0:0:0:
324,36,110950,2,0,P|241:46|206:122,1,175,10|8,0:0|0:0,0:0:0:0:
287,109,111350,2,0,L|277:200,1,87.5,10|0,0:0|0:0,0:0:0:0:
326,115,111550,2,0,L|315:207,1,87.5,8|0,0:0|0:0,0:0:0:0:
372,124,111750,2,0,L|365:167,6,43.75,8|0|8|0|10|0|8,0:0|0:0|0:0|0:0|0:0|0:0|0:0,0:0:0:0:
361,204,112150,5,12,0:0:0:0:
210,262,112350,1,8,0:0:0:0:
226,69,112550,1,8,0:0:0:0:
184,212,112750,1,8,0:0:0:0:
289,117,112950,1,8,0:0:0:0:
144,251,113150,1,8,0:0:0:0:
210,135,113350,1,8,0:0:0:0:
370,197,113550,1,8,0:0:0:0:
261,229,113750,5,8,0:0:0:0:
300,121,113950,1,8,0:0:0:0:
349,295,114150,1,8,0:0:0:0:
272,89,114350,1,8,0:0:0:0:
90,107,114550,2,8,P|45:28|54:16,7,87.5,8|8|8|8|8|8|10|10,0:0|0:0|0:0|0:0|0:0|0:0|0:0|0:0,0:0:0:0:
120,150,115350,6,0,P|169:100|237:89,1,140,12|8,0:0|0:0,0:0:0:0:
189,257,115750,2,0,P|133:217|121:149,1,140,8|8,0:0|0:0,0:0:0:0:
272,158,116150,2,0,P|213:192|189:256,1,140,10|8,0:0|0:0,0:0:0:0:
356,253,116550,2,0,P|295:222|272:157,1,140,8|8,0:0|0:0,0:0:0:0:
429,357,116950,6,0,P|413:290|356:252,1,140,8|8,0:0|0:0,0:0:0:0:
303,323,117350,2,0,P|360:361|428:357,1,140,10|8,0:0|0:0,0:0:0:0:
228,210,117750,2,0,P|279:258|302:323,1,140,10|8,0:0|0:0,0:0:0:0:
328,124,118150,2,0,P|266:152|229:210,1,140,8|8,0:0|0:0,0:0:0:0:
267,32,118550,6,0,P|328:57|328:123,1,140,12|8,0:0|0:0,0:0:0:0:
165,100,118950,2,0,P|232:90|267:31,1,140,8|8,0:0|0:0,0:0:0:0:
194,219,119350,2,0,P|152:166|165:99,1,140,10|8,0:0|0:0,0:0:0:0:
310,255,119750,2,0,P|260:209|193:220,1,140,8|10,0:0|0:0,0:0:0:0:
427,219,120150,6,0,P|378:265|310:255,1,140,8|8,0:0|0:0,0:0:0:0:
473,101,120550,2,0,P|426:150|427:219,1,140,10|8,0:0|0:0,0:0:0:0:
348,72,120950,2,0,P|416:62|472:100,1,140,10|8,0:0|0:0,0:0:0:0:
372,194,121350,2,0,P|386:128|347:71,1,140,8|10,0:0|0:0,0:0:0:0:
258,260,121750,6,0,P|303:208|371:195,1,140,14|8,0:0|0:0,0:0:0:0:
181,171,122150,2,0,P|194:237|258:258,1,140,8|8,0:0|0:0,0:0:0:0:
242,63,122550,2,0,P|235:131|180:172,1,140,10|8,0:0|0:0,0:0:0:0:
362,102,122950,2,0,P|309:59|241:62,1,140,8|10,0:0|0:0,0:0:0:0:
474,140,123350,6,0,P|429:91|362:103,1,140,8|8,0:0|0:0,0:0:0:0:
418,253,123750,2,0,P|422:185|474:140,1,140,10|8,0:0|0:0,0:0:0:0:
293,269,124150,2,0,P|359:286|418:251,1,140,10|8,0:0|0:0,0:0:0:0:
341,148,124550,2,0,P|338:217|292:269,1,140,10|10,0:0|0:0,0:0:0:0:
256,192,124950,12,14,128150,0:0:0:0:
