osu file format v14

[General]
AudioFilename: audio.mp3
AudioLeadIn: 0
PreviewTime: 36150
Countdown: 0
SampleSet: Normal
StackLeniency: 0.2
Mode: 0
LetterboxInBreaks: 0
EpilepsyWarning: 1
WidescreenStoryboard: 1

[Editor]
Bookmarks: 12950,38550,64150,89750,115350
DistanceSpacing: 0.3
BeatDivisor: 4
GridSize: 16
TimelineZoom: 0.9

[Metadata]
Title:Bitch Lasagna
TitleUnicode:Bitch Lasagna
Artist:Party In Backyard & Pewdiepie
ArtistUnicode:Party In Backyard & Pewdiepie
Creator:TheTNTBlower77
Version:(Easy) easy subs
Source:
Tags:tseries t-series t series roast lasagna youtube rap diss track disstrack
BeatmapID:1806216
BeatmapSetID:863505

[Difficulty]
HPDrainRate:0
CircleSize:3
OverallDifficulty:1
ApproachRate:2
SliderMultiplier:1.4
SliderTickRate:1

[Events]
//Background and Video events
Video,0,"T-series Diss Track.mp4"
0,0,"bl.jpg",0,0
//Break Periods
//Storyboard Layer 0 (Background)
//Storyboard Layer 1 (Fail)
//Storyboard Layer 2 (Pass)
//Storyboard Layer 3 (Foreground)
//Storyboard Sound Samples

[TimingPoints]
150,400,4,1,0,40,1,0
12950,-100,4,1,2,40,0,0
13050,-100,4,1,2,40,0,0
13150,-100,4,1,2,40,0,0
30950,-66.6666666666667,4,1,2,40,0,0
31350,-100,4,1,2,40,0,0
38550,-80,4,1,2,40,0,1
64150,-80,4,1,2,40,0,0
64950,-100,4,1,2,40,0,0
89750,-80,4,1,2,40,0,1
112150,-80,4,1,2,40,0,0
115350,-87.719298245614,4,1,2,40,0,0

[Colours]
Combo1 : 0,255,255
Combo2 : 255,0,0
Combo3 : 255,255,0
Combo4 : 128,255,0

[HitObjects]
162,70,12950,5,12,0:0:0:0:
100,289,13750,1,10,0:0:0:0:
295,286,14550,1,8,0:0:0:0:
352,79,15350,1,10,0:0:0:0:
152,73,16150,6,0,P|77:178|56:337,1,280,12|10,0:0|0:0,0:0:0:0:
335,338,17750,2,0,P|343:184|420:56,1,280,8|10,0:0|0:0,0:0:0:0:
255,193,19350,5,14,0:0:0:0:
280,101,20150,1,10,0:0:0:0:
192,122,20950,1,8,0:0:0:0:
254,194,21750,1,10,0:0:0:0:
162,200,22550,6,0,P|246:104|344:215,1,280,14|10,0:0|0:0,0:0:0:0:
440,176,24150,2,0,P|356:272|258:161,1,280,8|10,0:0|0:0,0:0:0:0:
436,328,25750,5,14,0:0:0:0:
410,207,26550,1,10,0:0:0:0:
339,96,27350,1,8,0:0:0:0:
179,60,28150,1,10,0:0:0:0:
181,163,28950,5,14,0:0:0:0:
102,207,29750,1,10,0:0:0:0:
173,96,30550,1,8,0:0:0:0:
333,60,31350,1,8,0:0:0:0:
459,62,32150,6,0,P|448:233|170:119,1,560,14|8,0:0|0:0,0:0:0:0:
72,276,35350,2,0,P|83:105|360:219,1,560,14|14,0:0|0:0,0:0:0:0:
254,197,38550,6,0,P|425:289|468:164,1,350,12|10,0:0|0:0,0:0:0:0:
372,205,40150,2,0,P|313:69|145:173,1,350,8|10,0:0|0:0,0:0:0:0:
259,151,41750,5,12,0:0:0:0:
128,249,42550,1,10,0:0:0:0:
255,340,43350,1,8,0:0:0:0:
367,243,44150,1,10,0:0:0:0:
255,195,44950,6,0,P|212:42|74:199,1,350,14|10,0:0|0:0,0:0:0:0:
168,128,46550,2,0,P|125:301|309:331,1,350,8|10,0:0|0:0,0:0:0:0:
210,239,48150,5,14,0:0:0:0:
310,146,48950,2,0,P|485:224|425:313,1,350,10|8,0:0|0:0,0:0:0:0:
384,214,50550,1,10,0:0:0:0:
258,187,51350,6,0,P|87:95|44:220,1,350,14|10,0:0|0:0,0:0:0:0:
140,179,52950,2,0,P|199:315|367:211,1,350,8|10,0:0|0:0,0:0:0:0:
253,233,54550,5,14,0:0:0:0:
384,135,55350,1,10,0:0:0:0:
257,44,56150,1,8,0:0:0:0:
145,141,56950,1,8,0:0:0:0:
257,189,57750,6,0,P|300:342|438:185,1,350,14|10,0:0|0:0,0:0:0:0:
344,256,59350,2,0,P|387:83|203:53,1,350,8|10,0:0|0:0,0:0:0:0:
302,145,60950,5,14,0:0:0:0:
202,238,61750,2,0,P|27:160|87:71,1,350,10|10,0:0|0:0,0:0:0:0:
128,170,63350,1,8,0:0:0:0:
240,188,64150,5,12,0:0:0:0:
348,156,64950,1,10,0:0:0:0:
467,158,65750,2,0,P|347:55|220:174,1,280,8|10,0:0|0:0,0:0:0:0:
104,288,67350,5,12,0:0:0:0:
282,264,68150,1,10,0:0:0:0:
435,149,68950,2,0,P|328:48|188:131,1,280,8|10,0:0|0:0,0:0:0:0:
387,256,70550,5,14,0:0:0:0:
198,94,71350,1,10,0:0:0:0:
135,284,72150,1,8,0:0:0:0:
375,82,72950,1,10,0:0:0:0:
397,248,73750,6,0,L|154:77,1,280,14|10,0:0|0:0,0:0:0:0:
121,162,75350,2,0,L|353:326,1,280,8|10,0:0|0:0,0:0:0:0:
254,60,76950,5,14,0:0:0:0:
387,186,77750,1,10,0:0:0:0:
144,192,78550,1,8,0:0:0:0:
270,298,79350,1,10,0:0:0:0:
167,256,80150,5,14,0:0:0:0:
191,103,80950,1,10,0:0:0:0:
344,127,81750,1,8,0:0:0:0:
320,280,82550,1,8,0:0:0:0:
258,195,83350,6,0,P|183:52|43:153,1,280,14|10,0:0|0:0,0:0:0:0:
167,142,84950,2,0,P|106:288|261:319,1,280,8|10,0:0|0:0,0:0:0:0:
257,192,86550,5,14,0:0:0:0:
424,108,87350,1,10,0:0:0:0:
216,253,88150,1,10,0:0:0:0:
259,187,89750,6,0,P|120:52|44:160,1,350,12|10,0:0|0:0,0:0:0:0:
148,147,91350,2,0,P|167:294|357:240,1,350,8|10,0:0|0:0,0:0:0:0:
241,230,92950,5,12,0:0:0:0:
394,172,93750,1,10,0:0:0:0:
297,50,94550,1,8,0:0:0:0:
163,112,95350,1,10,0:0:0:0:
257,189,96150,6,0,P|256:348|432:235,1,350,14|10,0:0|0:0,0:0:0:0:
322,277,97750,2,0,P|411:123|243:43,1,350,8|10,0:0|0:0,0:0:0:0:
313,159,99350,5,14,0:0:0:0:
191,221,100150,2,0,P|44:98|126:29,1,350,10|8,0:0|0:0,0:0:0:0:
139,135,101750,1,10,0:0:0:0:
252,196,102550,6,0,P|391:331|467:223,1,350,14|10,0:0|0:0,0:0:0:0:
363,236,104150,2,0,P|344:89|154:143,1,350,8|10,0:0|0:0,0:0:0:0:
270,153,105750,5,14,0:0:0:0:
117,211,106550,1,10,0:0:0:0:
214,333,107350,1,8,0:0:0:0:
348,271,108150,1,8,0:0:0:0:
254,194,108950,6,0,P|255:35|79:148,1,350,14|10,0:0|0:0,0:0:0:0:
189,106,110550,2,0,P|100:260|268:340,1,350,8|10,0:0|0:0,0:0:0:0:
198,224,112150,5,14,0:0:0:0:
320,162,112950,2,0,P|467:285|385:354,1,350,10|10,0:0|0:0,0:0:0:0:
372,248,114550,1,8,0:0:0:0:
270,200,115350,5,12,0:0:0:0:
163,121,116150,1,0,0:0:0:0:
278,73,116950,1,0,0:0:0:0:
378,143,117750,1,0,0:0:0:0:
255,193,118550,6,0,P|210:253|357:253,1,319.199996103516
357,169,120150,2,0,P|310:63|168:155,1,319.199996103516
86,69,121750,5,14,0:0:0:0:
136,255,122550,1,10,0:0:0:0:
65,175,123350,2,0,P|242:264|196:351,1,319.199996103516
415,75,124950,5,14,0:0:0:0:
260,191,125750,1,10,0:0:0:0:
157,46,126550,1,8,0:0:0:0:
87,239,127350,1,10,0:0:0:0:
257,193,128150,5,14,0:0:0:0:
