osu file format v14

[General]
AudioFilename: Party Favor - Bap U (Not Sorry Remix).mp3
AudioLeadIn: 0
PreviewTime: 65258
Countdown: 0
SampleSet: None
StackLeniency: 0.5
Mode: 0
LetterboxInBreaks: 0
WidescreenStoryboard: 0

[Editor]
Bookmarks: 11198,20853,22232,44301,55336,61543,63612,66370,74646,77405,85681,88439,96715,99474,100163,107750,110508
DistanceSpacing: 1.3
BeatDivisor: 8
GridSize: 4
TimelineZoom: 1.7

[Metadata]
Title:BAP U (not sorry Remix)
TitleUnicode:BAP U (not sorry Remix)
Artist:Party Favor
ArtistUnicode:Party Favor
Creator:Shadren
Version:Hard
Source:
Tags:drumstep trap edm cut short version
BeatmapID:872597
BeatmapSetID:385288

[Difficulty]
HPDrainRate:6
CircleSize:4
OverallDifficulty:6.5
ApproachRate:8
SliderMultiplier:2.3
SliderTickRate:2

[Events]
//Background and Video events
0,0,"BG.jpg",0,0
//Break Periods
2,22440,40801
//Storyboard Layer 0 (Background)
//Storyboard Layer 1 (Fail)
//Storyboard Layer 2 (Pass)
//Storyboard Layer 3 (Foreground)
//Storyboard Sound Samples

[TimingPoints]
172,689.655172413793,4,3,1,60,1,0
10775,-100,4,3,1,10,0,0
10861,-100,4,3,1,60,0,0
11120,-100,4,3,1,10,0,0
11206,-100,4,3,1,60,0,0
41551,-100,4,2,1,30,0,0
49827,-100,4,2,1,40,0,0
55344,-100,4,3,1,50,0,0
66378,-90.9090909090909,4,3,1,60,0,1
74654,-100,4,3,1,60,0,0
77413,-90.9090909090909,4,3,1,60,0,1
85689,-100,4,3,1,60,0,0
88447,-90.9090909090909,4,3,1,60,0,1
96723,-100,4,3,1,60,0,0
100171,-90.9090909090909,4,3,1,60,0,1
107758,-100,4,3,1,60,0,0
113275,-100,4,3,1,10,0,0

[Colours]
Combo1 : 43,72,162
Combo2 : 0,117,117
Combo3 : 84,120,194
Combo4 : 80,126,116

[HitObjects]
72,108,172,6,0,B|68:148|68:148|72:180|72:180|68:232,1,115,6|2,0:0|0:0,0:0:0:0:
116,280,689,1,0,0:0:0:0:
188,304,861,2,0,P|220:300|252:288,1,57.5,8|0,1:0|0:0,0:0:0:0:
312,328,1206,2,0,P|346:329|376:336,1,57.5,0|0,0:0|0:0,0:0:0:0:
444,232,1551,6,0,P|392:252|320:240,1,115,2|2,0:0|0:0,0:0:0:0:
284,188,2068,1,0,0:0:0:0:
244,124,2240,2,0,P|244:92|252:64,1,57.5,8|0,1:0|0:0,0:0:0:0:
144,36,2585,2,0,P|160:68|164:104,1,57.5,0|0,0:0|0:0,0:0:0:0:
132,156,2930,6,0,B|96:180|56:168|56:168|60:236,1,115,6|2,0:0|0:0,0:0:0:0:
76,276,3447,1,0,0:0:0:0:
136,324,3620,2,0,P|168:328|208:344,1,57.5,8|0,1:0|0:0,0:0:0:0:
252,292,3965,2,0,P|284:288|308:280,1,57.5,0|0,0:0|0:0,0:0:0:0:
336,144,4309,5,0,0:0:0:0:
276,188,4482,1,0,0:0:0:0:
408,160,4654,1,0,0:0:0:0:
388,88,4827,1,0,0:0:0:0:
384,240,4999,2,0,P|390:271|400:296,1,57.5,8|0,1:0|0:0,0:0:0:0:
308,348,5344,2,0,P|316:324|312:280,1,57.5,2|2,0:0|0:0,0:0:0:0:
252,252,5689,6,0,L|124:256,1,115,6|2,0:0|0:0,0:0:0:0:
76,296,6206,1,0,0:0:0:0:
16,252,6378,2,0,P|8:224|8:192,1,57.5,8|0,1:0|0:0,0:0:0:0:
52,136,6723,2,0,P|64:104|64:76,1,57.5,0|0,0:0|0:0,0:0:0:0:
148,32,7068,6,0,P|144:84|176:164,1,115,2|2,0:0|0:0,0:0:0:0:
220,192,7585,1,0,0:0:0:0:
284,152,7758,2,0,L|344:148,1,57.5,8|0,1:0|0:0,0:0:0:0:
400,196,8103,2,0,L|460:200,1,57.5,0|0,0:0|0:0,0:0:0:0:
368,264,8447,6,0,B|324:268|324:268|292:264|292:264|236:268,1,115,6|2,0:0|0:0,0:0:0:0:
192,312,8965,1,0,0:0:0:0:
128,276,9137,2,0,P|119:252|120:216,1,57.5,8|0,1:0|0:0,0:0:0:0:
56,184,9482,2,0,P|80:160|112:148,1,57.5,0|0,0:0|0:0,0:0:0:0:
248,188,9827,5,0,0:0:0:0:
192,236,9999,1,0,0:0:0:0:
240,112,10171,1,0,0:0:0:0:
308,140,10344,1,0,0:0:0:0:
188,60,10516,2,2,P|148:52|80:60,1,86.25,10|2,1:0|0:0,0:0:0:0:
80,64,10861,2,2,L|84:160,1,86.25,2|2,0:0|0:0,0:0:0:0:
72,172,11206,6,2,P|64:228|76:304,1,115,6|2,0:0|0:0,0:0:0:0:
128,336,11723,2,0,L|196:332,1,57.5,0|8,0:0|1:0,0:0:0:0:
248,288,12068,1,0,0:0:0:0:
260,292,12154,1,0,0:0:0:0:
272,296,12240,2,0,P|303:294|336:284,1,57.5,0|0,0:0|0:0,0:0:0:0:
396,256,12585,6,0,L|400:128,1,115,2|2,0:0|0:0,0:0:0:0:
352,84,13103,1,0,0:0:0:0:
284,52,13275,2,0,P|248:52|208:68,1,57.5,8|0,1:0|0:0,0:0:0:0:
172,108,13620,2,0,L|168:152,3,28.75,0|0|0|0,0:0|0:0|0:0|0:0,0:0:0:0:
160,156,13965,6,0,B|120:160|84:148|84:148|88:176|80:192,1,115,6|2,0:0|0:0,0:0:0:0:
48,252,14482,1,0,0:0:0:0:
84,316,14654,2,0,P|120:316|160:304,1,57.5,8|0,1:0|0:0,0:0:0:0:
220,204,14999,1,0,0:0:0:0:
156,240,15171,1,0,0:0:0:0:
292,236,15344,5,0,0:0:0:0:
284,164,15516,2,0,P|272:136|248:108,1,57.5,0|0,0:0|0:0,0:0:0:0:
188,84,15861,1,0,0:0:0:0:
320,68,16034,2,0,L|380:72,1,57.5,8|0,1:0|0:0,0:0:0:0:
496,108,16378,2,0,L|428:116,1,57.5,2|2,0:0|0:0,0:0:0:0:
380,160,16723,6,0,P|372:224|384:288,1,115,6|2,0:0|0:0,0:0:0:0:
304,288,17240,2,0,P|276:292|236:308,1,57.5,0|8,0:0|1:0,0:0:0:0:
192,348,17585,1,0,0:0:0:0:
180,348,17671,1,0,0:0:0:0:
168,348,17758,2,0,P|136:344|96:324,1,57.5,0|0,0:0|0:0,0:0:0:0:
68,276,18103,6,0,P|76:212|64:136,1,115,2|2,0:0|0:0,0:0:0:0:
20,108,18620,1,0,0:0:0:0:
156,148,18792,2,0,L|224:140,1,57.5,8|0,1:0|0:0,0:0:0:0:
276,180,19137,2,0,L|312:184,3,28.75,0|0|0|0,0:0|0:0|0:0|0:0,0:0:0:0:
320,196,19482,6,0,P|372:208|448:192,1,115,6|2,0:0|0:0,0:0:0:0:
492,156,19999,1,0,0:0:0:0:
448,284,20171,2,0,P|420:280|380:280,1,57.5,8|0,1:0|0:0,0:0:0:0:
328,320,20516,2,0,L|264:324,1,57.5,0|0,0:0|0:0,0:0:0:0:
160,260,20861,5,4,0:0:0:0:
256,192,21034,12,4,22240,0:0:0:0:
256,192,41551,12,0,43620,0:0:0:0:
148,248,44309,5,0,0:0:0:0:
128,240,44654,2,0,P|118:214|116:172,1,57.5,0|0,0:0|0:0,0:0:0:0:
164,128,44999,2,0,P|172:96|172:60,1,57.5,0|0,0:0|0:0,0:0:0:0:
244,48,45344,2,0,L|320:44,1,57.5,0|0,0:0|0:0,0:0:0:0:
292,120,45689,6,0,L|368:116,1,57.5,0|0,0:0|0:0,0:0:0:0:
416,156,46034,1,0,0:0:0:0:
416,156,46206,1,0,0:0:0:0:
384,224,46378,1,0,0:0:0:0:
384,224,46551,1,0,0:0:0:0:
444,272,46723,2,0,P|450:304|448:336,1,57.5,0|0,0:0|0:0,0:0:0:0:
324,368,47068,5,0,0:0:0:0:
308,352,47413,2,0,L|244:348,1,57.5,0|0,0:0|0:0,0:0:0:0:
188,304,47758,2,0,L|128:308,1,57.5,0|0,0:0|0:0,0:0:0:0:
72,260,48103,2,0,P|64:228|64:188,1,57.5,0|0,0:0|0:0,0:0:0:0:
116,152,48447,6,0,L|124:88,1,57.5,0|0,0:0|0:0,0:0:0:0:
188,60,48792,1,0,0:0:0:0:
188,60,48965,1,0,0:0:0:0:
260,84,49137,1,0,0:0:0:0:
260,84,49309,1,0,0:0:0:0:
324,44,49482,2,0,P|356:46|400:64,1,57.5,0|0,0:0|0:0,0:0:0:0:
468,132,49827,5,0,3:0:0:0:
344,216,50172,2,0,P|344:248|356:280,1,57.5,8|0,0:0|0:0,0:0:0:0:
420,304,50516,1,0,0:0:0:0:
460,240,50689,1,0,3:0:0:0:
368,360,50861,2,0,L|296:356,1,57.5,8|0,0:0|0:0,0:0:0:0:
252,308,51206,6,0,P|196:288|124:296,1,115,0|8,3:0|0:0,0:0:0:0:
80,336,51723,1,0,0:0:0:0:
132,204,51896,2,0,L|128:140,1,57.5,0|0,0:0|3:0,0:0:0:0:
192,108,52240,2,0,L|200:48,1,57.5,8|0,0:0|0:0,0:0:0:0:
320,28,52585,6,0,B|360:32|360:32|396:28|396:28|452:32,1,115,0|8,3:0|0:0,0:0:0:0:
488,84,53103,1,0,0:0:0:0:
452,148,53275,2,0,P|440:176|436:208,1,57.5,0|0,0:0|3:0,0:0:0:0:
476,264,53620,2,0,P|488:300|488:332,1,57.5,8|0,0:0|0:0,0:0:0:0:
360,360,53965,5,0,3:0:0:0:
340,344,54309,2,0,P|307:337|272:336,1,57.5,8|0,0:0|0:0,0:0:0:0:
212,356,54654,2,0,L|144:360,1,57.5,0|0,0:0|3:0,0:0:0:0:
88,324,54999,2,0,L|28:320,1,57.5,8|0,0:0|0:0,0:0:0:0:
124,240,55344,6,0,P|180:236|244:248,1,115,6|10,0:0|0:0,0:0:0:0:
300,288,55861,1,0,0:0:0:0:
368,320,56034,2,0,P|402:317|432:308,1,57.5,0|4,0:0|0:0,0:0:0:0:
472,252,56378,2,0,L|476:180,1,57.5,8|0,0:0|0:0,0:0:0:0:
376,108,56723,6,0,L|384:228,1,115,6|10,0:0|0:0,0:0:0:0:
316,256,57240,1,0,0:0:0:0:
248,228,57413,2,0,P|216:220|168:220,1,57.5,0|4,0:0|0:0,0:0:0:0:
132,264,57758,2,0,L|72:268,1,57.5,8|0,0:0|0:0,0:0:0:0:
24,212,58103,6,0,P|36:144|28:88,1,115,6|10,0:0|0:0,0:0:0:0:
76,40,58620,1,0,0:0:0:0:
76,40,58706,1,0,0:0:0:0:
76,40,58792,2,0,L|152:44,1,57.5,0|4,0:0|0:0,0:0:0:0:
204,64,59137,2,0,L|264:60,1,57.5,8|0,0:0|0:0,0:0:0:0:
336,76,59482,6,0,P|344:132|336:204,1,115,6|10,0:0|0:0,0:0:0:0:
276,232,59999,1,0,0:0:0:0:
276,232,60085,1,0,0:0:0:0:
276,232,60171,2,0,L|208:224,1,57.5,0|4,0:0|0:0,0:0:0:0:
344,264,60516,2,0,L|408:260,1,57.5,8|0,0:0|0:0,0:0:0:0:
392,336,60861,6,0,L|260:344,1,115,6|10,0:0|0:0,0:0:0:0:
208,312,61378,1,0,0:0:0:0:
208,312,61465,1,0,0:0:0:0:
208,312,61551,2,0,L|128:304,1,57.5,6|0,0:0|0:0,0:0:0:0:
88,268,61896,2,0,L|52:268,2,28.75,10|0|0,0:0|0:0|0:0,0:0:0:0:
140,216,62240,6,0,P|144:164|124:96,1,115,6|10,0:0|0:0,0:0:0:0:
64,64,62758,1,0,0:0:0:0:
200,84,62930,2,0,L|276:76,1,57.5,6|0,0:0|0:0,0:0:0:0:
324,108,63275,1,10,0:0:0:0:
392,76,63447,1,0,0:0:0:0:
392,76,63534,1,0,0:0:0:0:
392,76,63620,6,0,P|424:82|460:100,1,57.5,10|6,0:0|0:0,0:0:0:0:
492,152,63965,2,0,L|488:220,1,57.5,10|6,0:0|0:0,0:0:0:0:
436,312,64309,2,0,L|428:252,1,57.5,10|6,0:0|0:0,0:0:0:0:
360,220,64654,2,0,P|328:216|300:216,1,57.5,10|4,0:0|0:0,0:0:0:0:
292,220,64913,1,4,0:0:0:0:
282,225,64999,5,4,0:0:0:0:
104,88,66378,5,4,0:0:0:0:
232,188,66723,2,0,P|268:184|308:168,1,63.2500019302369,2|2,0:0|0:0,0:0:0:0:
348,112,67068,1,10,0:0:0:0:
392,256,67240,2,0,P|360:252|320:252,1,63.2500019302369,2|2,0:0|0:0,0:0:0:0:
264,304,67585,1,2,0:0:0:0:
244,308,67671,1,2,0:0:0:0:
224,312,67758,5,2,0:0:0:0:
148,284,67930,1,2,0:0:0:0:
176,136,68103,1,2,0:0:0:0:
108,184,68275,1,2,0:0:0:0:
272,160,68447,1,8,0:0:0:0:
240,84,68620,1,0,0:0:0:0:
243,64,68706,1,0,0:0:0:0:
246,44,68792,2,0,L|288:40,2,31.6250009651184,0|0|0,0:0|0:0|0:0,0:0:0:0:
392,88,69137,6,0,P|408:148|404:236,1,126.500003860474,4|2,0:0|0:0,0:0:0:0:
360,280,69654,1,2,0:0:0:0:
280,260,69827,2,0,P|244:265|200:284,1,63.2500019302369,10|2,0:0|0:0,0:0:0:0:
168,340,70171,1,2,0:0:0:0:
96,300,70344,1,2,0:0:0:0:
92,280,70430,1,2,0:0:0:0:
88,260,70516,6,0,L|96:192,1,63.2500019302369,0|2,0:0|0:0,0:0:0:0:
168,156,70861,2,0,L|164:88,1,63.2500019302369,2|2,0:0|0:0,0:0:0:0:
84,68,71206,1,8,0:0:0:0:
252,52,71378,1,8,0:0:0:0:
228,208,71551,2,0,P|224:244|228:280,1,63.2500019302369,8|0,0:0|0:0,0:0:0:0:
288,324,71896,6,0,L|428:316,1,126.500003860474,12|2,0:0|0:0,0:0:0:0:
468,252,72413,1,2,0:0:0:0:
432,180,72585,2,0,P|432:148|448:104,1,63.2500019302369,10|2,0:0|0:0,0:0:0:0:
488,48,72930,1,2,0:0:0:0:
408,32,73103,1,2,0:0:0:0:
388,36,73189,1,2,0:0:0:0:
368,40,73275,6,0,L|304:36,1,63.2500019302369,2|2,0:0|0:0,0:0:0:0:
296,116,73620,1,2,0:0:0:0:
288,196,73792,1,2,0:0:0:0:
276,276,73965,1,8,0:0:0:0:
220,336,74137,2,0,P|196:264|224:212,1,126.500003860474,0|0,0:0|0:0,0:0:0:0:
276,276,74654,6,0,P|336:268|392:276,1,115,4|0,0:0|0:0,0:0:0:0:
456,312,75171,1,0,0:0:0:0:
496,248,75344,2,0,L|500:188,1,57.5,8|0,0:0|0:0,0:0:0:0:
440,148,75689,2,0,L|432:72,1,57.5,0|0,0:0|0:0,0:0:0:0:
376,44,76034,6,0,P|312:40|248:68,1,115,8|0,0:0|0:0,0:0:0:0:
228,120,76551,1,0,0:0:0:0:
164,160,76723,2,0,P|128:160|88:148,1,57.5,8|0,0:0|0:0,0:0:0:0:
212,220,77068,2,0,P|246:210|288:211,1,57.5,0|0,0:0|0:0,0:0:0:0:
348,224,77413,6,0,L|352:80,1,126.500003860474,4|2,0:0|0:0,0:0:0:0:
408,36,77930,1,2,0:0:0:0:
272,100,78103,2,0,P|232:108|200:108,1,63.2500019302369,10|2,0:0|0:0,0:0:0:0:
128,92,78447,2,0,P|88:104|52:136,1,63.2500019302369,2|2,0:0|0:0,0:0:0:0:
64,136,78706,1,2,0:0:0:0:
60,156,78792,5,2,0:0:0:0:
104,224,78965,2,0,L|100:272,2,31.6250009651184,2|2|2,0:0|0:0|0:0,0:0:0:0:
172,180,79309,1,2,0:0:0:0:
244,224,79482,2,0,P|288:232|328:232,1,63.2500019302369,8|0,0:0|0:0,0:0:0:0:
324,228,79740,1,0,0:0:0:0:
340,220,79827,2,0,L|376:216,2,31.6250009651184,0|0|0,0:0|0:0|0:0,0:0:0:0:
412,100,80171,5,4,0:0:0:0:
256,48,80516,2,0,P|224:56|192:72,1,63.2500019302369,2|2,0:0|0:0,0:0:0:0:
120,104,80861,2,0,P|84:104|36:88,1,63.2500019302369,10|2,0:0|0:0,0:0:0:0:
4,32,81206,1,2,0:0:0:0:
24,172,81378,2,0,L|20:212,2,31.6250009651184,2|2|2,0:0|0:0|0:0,0:0:0:0:
104,188,81723,5,2,0:0:0:0:
188,188,81896,2,0,L|256:180,1,63.2500019302369,2|2,0:0|0:0,0:0:0:0:
408,164,82240,1,8,0:0:0:0:
320,88,82413,1,8,0:0:0:0:
376,240,82585,2,0,P|380:280|376:312,1,63.2500019302369,8|0,0:0|0:0,0:0:0:0:
304,340,82930,6,0,L|176:336,1,126.500003860474,4|2,0:0|0:0,0:0:0:0:
96,336,83447,1,2,0:0:0:0:
40,276,83620,2,0,P|40:240|56:200,1,63.2500019302369,10|2,0:0|0:0,0:0:0:0:
120,172,83965,1,2,0:0:0:0:
192,208,84137,2,0,L|196:252,2,31.6250009651184,2|2|2,0:0|0:0|0:0,0:0:0:0:
260,160,84482,6,0,L|264:128,2,31.6250009651184,2|2|2,0:0|0:0|0:0,0:0:0:0:
320,216,84827,1,2,0:0:0:0:
388,172,84999,2,0,P|432:176|472:192,1,63.2500019302369,8|0,0:0|0:0,0:0:0:0:
500,248,85344,2,0,L|496:332,1,63.2500019302369,0|0,0:0|0:0,0:0:0:0:
432,352,85689,6,0,P|400:360|352:356,1,57.5,4|0,0:0|0:0,0:0:0:0:
308,328,86034,1,8,0:0:0:0:
240,356,86206,2,0,L|120:352,1,115,4|0,0:0|0:0,0:0:0:0:
88,288,86723,1,8,0:0:0:0:
140,232,86896,1,0,0:0:0:0:
140,232,86982,1,0,0:0:0:0:
140,232,87068,6,0,P|136:196|124:156,1,57.5,0|0,0:0|0:0,0:0:0:0:
164,108,87413,2,0,P|220:100|300:112,1,115,8|0,0:0|0:0,0:0:0:0:
336,152,87930,1,0,0:0:0:0:
404,120,88103,2,0,P|432:132|464:160,1,57.5,0|0,0:0|0:0,0:0:0:0:
440,264,88447,6,0,B|392:268|392:268|356:264|356:264|288:268,1,126.500003860474,4|2,0:0|0:0,0:0:0:0:
248,316,88965,1,2,0:0:0:0:
168,320,89137,1,10,0:0:0:0:
100,272,89309,2,0,P|88:232|88:200,1,63.2500019302369,2|0,0:0|0:0,0:0:0:0:
116,132,89654,1,2,0:0:0:0:
280,192,89999,5,2,0:0:0:0:
300,196,90085,1,2,0:0:0:0:
320,200,90171,2,0,L|388:196,1,63.2500019302369,2|2,0:0|0:0,0:0:0:0:
448,144,90516,2,0,P|452:100|448:72,1,63.2500019302369,8|0,0:0|0:0,0:0:0:0:
436,68,90775,1,0,0:0:0:0:
420,60,90861,2,0,L|368:56,2,31.6250009651184,0|0|0,0:0|0:0|0:0,0:0:0:0:
324,96,91206,6,0,P|256:100|184:72,1,126.500003860474,4|2,0:0|0:0,0:0:0:0:
124,48,91723,1,2,0:0:0:0:
180,164,91896,2,0,P|188:196|188:240,1,63.2500019302369,10|2,0:0|0:0,0:0:0:0:
124,276,92240,2,0,P|116:312|116:344,1,63.2500019302369,2|2,0:0|0:0,0:0:0:0:
256,352,92585,6,0,P|292:356|336:348,1,63.2500019302369,2|2,0:0|0:0,0:0:0:0:
480,256,93103,2,0,L|404:260,1,63.2500019302369,2|2,0:0|0:0,0:0:0:0:
336,240,93447,1,8,0:0:0:0:
256,216,93620,1,8,0:0:0:0:
176,192,93792,1,8,0:0:0:0:
96,168,93965,6,0,P|88:96|100:40,1,126.500003860474,4|2,0:0|0:0,0:0:0:0:
180,24,94482,1,2,0:0:0:0:
240,144,94654,1,10,0:0:0:0:
312,104,94827,1,2,0:0:0:0:
384,252,95171,2,0,L|380:320,1,63.2500019302369,2|0,0:0|0:0,0:0:0:0:
304,352,95516,5,2,0:0:0:0:
284,356,95603,1,2,0:0:0:0:
264,360,95689,2,0,L|192:356,1,63.2500019302369,2|2,0:0|0:0,0:0:0:0:
56,280,96034,1,10,0:0:0:0:
92,352,96206,1,2,0:0:0:0:
92,200,96378,1,2,0:0:0:0:
12,208,96551,1,2,0:0:0:0:
160,156,96723,6,0,P|164:96|152:28,1,115,4|0,0:0|0:0,0:0:0:0:
80,32,97240,1,0,0:0:0:0:
236,68,97413,2,0,P|280:72|308:68,1,57.5,8|0,0:0|0:0,0:0:0:0:
420,40,97758,2,0,P|384:40|340:48,1,57.5,0|0,0:0|0:0,0:0:0:0:
352,116,98103,6,0,P|364:176|356:248,1,115,8|0,0:0|0:0,0:0:0:0:
296,264,98620,1,0,0:0:0:0:
224,240,98792,2,0,L|152:236,1,57.5,8|0,0:0|0:0,0:0:0:0:
48,196,99137,2,0,L|112:192,1,57.5,0|0,0:0|0:0,0:0:0:0:
204,112,99482,5,4,0:0:0:0:
336,180,99827,2,0,P|372:176|404:164,1,57.5,2|2,0:0|0:0,0:0:0:0:
444,104,100171,5,2,0:0:0:0:
372,60,100344,1,2,0:0:0:0:
464,196,100689,1,2,0:0:0:0:
344,308,101034,5,2,0:0:0:0:
324,312,101120,1,2,0:0:0:0:
304,316,101206,2,0,L|240:312,1,63.2500019302369,2|2,0:0|0:0,0:0:0:0:
92,296,101551,1,8,0:0:0:0:
140,228,101723,1,0,0:0:0:0:
136,208,101809,1,0,0:0:0:0:
132,188,101896,2,0,L|136:152,2,31.6250009651184,0|0|0,0:0|0:0|0:0,0:0:0:0:
208,120,102240,6,0,P|268:116|348:144,1,126.500003860474,4|2,0:0|0:0,0:0:0:0:
400,180,102758,1,2,0:0:0:0:
472,144,102930,2,0,L|476:72,1,63.2500019302369,10|2,0:0|0:0,0:0:0:0:
400,180,103275,2,0,L|408:256,1,63.2500019302369,2|2,0:0|0:0,0:0:0:0:
352,308,103620,5,2,0:0:0:0:
276,280,103792,1,2,0:0:0:0:
124,340,104137,2,0,P|84:344|52:340,1,63.2500019302369,2|2,0:0|0:0,0:0:0:0:
28,264,104482,1,8,0:0:0:0:
68,192,104654,1,8,0:0:0:0:
24,124,104827,1,8,0:0:0:0:
80,64,104999,6,0,P|140:48|216:60,1,126.500003860474,4|2,0:0|0:0,0:0:0:0:
264,112,105516,1,2,0:0:0:0:
336,68,105689,2,0,L|408:64,1,63.2500019302369,10|2,0:0|0:0,0:0:0:0:
484,204,106206,2,0,L|412:200,1,63.2500019302369,2|0,0:0|0:0,0:0:0:0:
352,244,106551,6,0,L|320:248,2,31.6250009651184,2|2|2,0:0|0:0|0:0,0:0:0:0:
416,296,106896,1,2,0:0:0:0:
360,356,107068,2,0,P|316:364|276:360,1,63.2500019302369,10|2,0:0|0:0,0:0:0:0:
232,312,107413,2,0,P|200:304|148:304,1,63.2500019302369,2|2,0:0|0:0,0:0:0:0:
72,240,107758,6,0,P|81:209|106:176,1,57.5,4|0,0:0|0:0,0:0:0:0:
164,156,108103,1,8,0:0:0:0:
236,180,108275,2,0,P|300:184|364:156,1,115,4|0,0:0|0:0,0:0:0:0:
384,104,108792,2,8,L|448:108,1,57.5,8|0,0:0|0:0,0:0:0:0:
460,112,109051,1,0,0:0:0:0:
472,124,109137,6,0,P|480:168|476:208,1,57.5,4|0,0:0|0:0,0:0:0:0:
424,232,109482,2,0,B|412:268|416:296,1,57.5,0|0,0:0|0:0,0:0:0:0:
356,336,109827,2,0,P|264:344|208:280,1,172.5,0|0,0:0|0:0,0:0:0:0:
240,156,110516,5,12,0:0:0:0:
256,192,110689,12,0,113275,0:0:0:0:
