osu file format v14

[General]
AudioFilename: audio.mp3
AudioLeadIn: 0
PreviewTime: 53496
Countdown: 0
SampleSet: Normal
StackLeniency: 0.7
Mode: 0
LetterboxInBreaks: 0
WidescreenStoryboard: 0

[Editor]
Bookmarks: 34639,34706,34746,64706,107496
DistanceSpacing: 0.5
BeatDivisor: 4
GridSize: 16
TimelineZoom: 1.8

[Metadata]
Title:PEARLYxPARTY
TitleUnicode:PEARLYĂ—PARTY
Artist:Party Fairy
ArtistUnicode:Party Fairy
Creator:Eqeminiv
Version:Insane
Source:
Tags:
BeatmapID:2039372
BeatmapSetID:974279

[Difficulty]
HPDrainRate:6
CircleSize:4.2
OverallDifficulty:7
ApproachRate:9.2
SliderMultiplier:1.4
SliderTickRate:1

[Events]
//Background and Video events
0,0,"zKNtkbg.jpg",0,0
//Break Periods
//Storyboard Layer 0 (Background)
//Storyboard Layer 1 (Fail)
//Storyboard Layer 2 (Pass)
//Storyboard Layer 3 (Foreground)
//Storyboard Layer 4 (Overlay)
//Storyboard Sound Samples

[TimingPoints]
2068,428.571428571429,4,1,0,100,1,0
2068,-66.6666666666667,4,1,0,100,0,0
9353,-28.5714285714286,4,1,0,100,0,0
9782,-66.6666666666667,4,1,0,100,0,0
14068,-133.333333333333,4,1,0,100,0,0
14496,-100,4,1,0,100,0,0
14925,-80,4,1,0,100,0,0
15353,-66.6666666666667,4,1,0,100,0,0
15782,-100,4,1,0,100,0,0
18568,-50,4,1,0,100,0,0
19210,-100,4,1,0,100,0,0
21996,-50,4,1,0,100,0,0
22639,-100,4,1,0,100,0,0
25425,-50,4,1,0,100,0,0
27782,-133.333333333333,4,1,0,100,0,0
28210,-100,4,1,0,100,0,0
28639,-80,4,1,0,100,0,0
29068,-66.6666666666667,4,1,0,100,0,0
29496,-31.25,4,1,0,100,0,0
30353,-100,4,1,0,100,0,0
32925,-31.25,4,1,0,100,0,0
33782,-100,4,1,0,100,0,0
36353,-31.25,4,1,0,100,0,0
37210,-100,4,1,0,100,0,0
39782,-31.25,4,1,0,100,0,0
41925,-41.6666666666667,4,1,0,100,0,0
42353,-66.6666666666667,4,1,0,100,0,0
43210,-500,4,1,0,100,0,0
44496,-100,4,1,0,100,0,0
44925,-500,4,1,0,100,0,0
56925,-66.6666666666667,4,1,0,100,0,1
87782,-100,4,1,0,100,0,0
97853,-83.3333333333333,4,1,0,100,0,0
101496,-31.25,4,1,0,100,0,0
102353,-100,4,1,0,100,0,0
102996,-76.9230769230769,4,1,0,100,0,0
104925,-31.25,4,1,0,100,0,0
105782,-100,4,1,0,100,0,0

[HitObjects]
256,192,353,12,0,1853,0:0:0:0:
113,63,2068,6,0,P|129:133|177:203,1,157.500006008148
206,232,2496,1,0,0:0:0:0:
383,102,2710,1,0,0:0:0:0:
375,300,2925,2,0,P|328:312|270:315,1,105.000004005432
232,311,3246,1,0,0:0:0:0:
264,183,3353,2,0,P|300:189|320:210,1,52.5000020027161
336,230,3568,1,0,0:0:0:0:
183,209,3782,6,0,P|162:144|99:84,1,157.500006008148
58,63,4210,1,0,0:0:0:0:
331,123,4425,1,0,0:0:0:0:
251,170,4638,5,0,0:0:0:0:
213,196,4745,1,0,0:0:0:0:
196,245,4853,1,0,0:0:0:0:
208,297,4960,2,0,P|278:328|364:320,1,157.500006008148
274,204,5493,6,0,P|204:153|182:89,1,157.500006008148
180,45,5922,1,0,0:0:0:0:
122,291,6136,1,0,0:0:0:0:
361,275,6350,2,0,P|306:268|257:253,1,105.000004005432
221,240,6672,1,0,0:0:0:0:
168,321,6781,2,0,P|132:327|101:324,1,52.5000020027161
79,321,6995,1,0,0:0:0:0:
161,99,7210,6,0,L|170:177,3,52.5000020027161
228,152,7639,2,0,P|287:177|317:216,1,105.000004005432
301,305,8068,5,0,0:0:0:0:
333,332,8175,1,0,0:0:0:0:
382,341,8282,1,0,0:0:0:0:
429,325,8389,2,0,P|435:228|421:153,1,157.500006008148
266,61,8925,6,0,P|254:113|213:213,1,157.500006008148
188,252,9353,2,0,P|179:332|196:254,1,245.000002336502
182,292,9782,2,0,P|251:304|305:304,1,105.000004005432
327,299,10103,1,0,0:0:0:0:
257,192,10211,2,0,P|293:180|316:181,1,52.5000020027161
357,182,10425,1,0,0:0:0:0:
389,323,10639,6,0,P|301:326|216:309,1,157.500006008148
197,298,11068,1,0,0:0:0:0:
343,158,11282,1,0,0:0:0:0:
148,91,11496,5,0,0:0:0:0:
104,83,11604,1,0,0:0:0:0:
59,93,11711,1,0,0:0:0:0:
33,131,11818,2,0,P|48:202|102:283,1,157.500006008148
248,245,12353,6,0,L|312:235,3,52.5000020027161
213,136,12781,2,0,P|150:145|115:168,1,105.000004005432
73,290,13210,6,0,P|135:309|185:312,1,105.000004005432
212,306,13531,1,0,0:0:0:0:
308,231,13638,2,0,P|349:236|378:226,1,52.5000020027161
396,222,13853,1,0,0:0:0:0:
118,139,14068,5,0,0:0:0:0:
132,183,14175,2,0,L|200:165,1,52.5000020027161
290,226,14495,5,0,0:0:0:0:
300,276,14603,2,0,L|223:299,1,70
84,214,14925,5,0,0:0:0:0:
87,162,15032,2,0,L|96:56,1,87.5
243,47,15354,5,0,0:0:0:0:
241,105,15461,2,0,L|235:217,1,105.000004005432
94,287,15782,5,0,0:0:0:0:
167,303,15996,1,0,0:0:0:0:
235,308,16211,1,0,0:0:0:0:
304,310,16425,1,0,0:0:0:0:
378,305,16639,2,0,P|432:280|450:256,1,70
462,236,16961,1,0,0:0:0:0:
291,64,17175,6,0,L|250:135,1,70
232,165,17496,1,0,0:0:0:0:
183,220,17711,1,0,0:0:0:0:
131,270,17925,1,0,0:0:0:0:
67,299,18139,1,0,0:0:0:0:
67,299,18353,6,0,P|46:284|35:265,1,35
125,200,18568,2,0,P|210:221|316:211,1,140
425,206,18996,1,0,0:0:0:0:
353,84,19210,6,0,L|305:96,1,35
237,115,19424,1,0,0:0:0:0:
75,280,19638,2,0,L|119:269,1,35
194,246,19853,1,0,0:0:0:0:
419,171,20067,6,0,L|435:128,1,35
465,58,20281,1,0,0:0:0:0:
256,148,20495,2,0,L|227:200,1,35
187,258,20710,1,0,0:0:0:0:
83,67,20924,5,0,0:0:0:0:
90,94,21031,1,0,0:0:0:0:
103,127,21138,1,0,0:0:0:0:
119,155,21245,1,0,0:0:0:0:
137,185,21353,1,0,0:0:0:0:
163,212,21460,2,0,P|189:226|220:230,1,35
286,110,21782,2,0,P|312:123|341:138,1,35
285,215,21996,2,0,P|221:181|155:146,1,140
261,40,22425,1,0,0:0:0:0:
392,44,22639,5,0,0:0:0:0:
395,114,22854,1,0,0:0:0:0:
393,187,23068,1,0,0:0:0:0:
382,256,23282,1,0,0:0:0:0:
365,324,23496,2,0,P|331:346|285:349,1,70
259,346,23818,1,0,0:0:0:0:
152,196,24031,5,0,0:0:0:0:
128,160,24138,1,0,0:0:0:0:
117,114,24245,1,0,0:0:0:0:
131,69,24353,2,0,P|192:58|221:58,1,70
344,108,24781,1,0,0:0:0:0:
260,207,24995,1,0,0:0:0:0:
418,334,25210,2,0,P|439:311|445:291,1,35
366,217,25425,2,0,P|326:269|255:308,1,140
226,102,25853,1,0,0:0:0:0:
94,210,26068,5,0,0:0:0:0:
94,210,26175,1,0,0:0:0:0:
94,210,26282,1,0,0:0:0:0:
288,291,26495,5,0,0:0:0:0:
288,291,26603,1,0,0:0:0:0:
288,291,26710,1,0,0:0:0:0:
265,89,26925,5,0,0:0:0:0:
265,89,27032,1,0,0:0:0:0:
265,89,27139,1,0,0:0:0:0:
427,208,27354,5,0,0:0:0:0:
427,208,27461,1,0,0:0:0:0:
427,208,27568,1,0,0:0:0:0:
175,16,27782,6,0,P|187:39|219:69,1,52.5000020027161
61,97,28211,2,0,P|103:129|124:134,1,70
12,216,28639,2,0,P|68:238|123:229,1,87.5
16,362,29068,2,0,P|102:367|161:350,1,105.000004005432
329,148,29496,2,0,B|235:37|166:71|36:66|234:354|371:165|232:17|56:283,1,448
226,163,30353,5,0,0:0:0:0:
226,163,30782,1,0,0:0:0:0:
379,222,30996,6,0,L|374:276,1,35
277,313,31211,2,0,L|219:309,1,35
383,176,31425,2,0,L|343:111,1,70
127,161,31854,6,0,L|159:212,1,35
394,224,32175,2,0,L|344:251,1,35
159,344,32496,2,0,L|81:307,1,70
112,168,32925,6,0,B|135:215|234:204|223:42|223:42|279:195|379:169|381:118,1,448
157,313,33782,5,0,0:0:0:0:
267,287,33996,5,0,0:0:0:0:
108,78,34210,1,0,0:0:0:0:
123,104,34638,5,0,0:0:0:0:
337,191,34853,2,0,L|316:206,1,17.5
287,232,35067,5,0,0:0:0:0:
141,130,35281,2,0,L|162:149,1,17.5
195,173,35495,5,0,0:0:0:0:
326,52,35710,2,0,L|304:50,1,17.5
415,147,35924,2,0,L|412:224,1,70
198,278,36353,6,0,B|222:171|192:69|192:69|71:108|65:261,1,448
158,95,37210,5,0,0:0:0:0:
359,168,37425,5,0,0:0:0:0:
126,262,37639,1,0,0:0:0:0:
341,294,37853,5,0,0:0:0:0:
341,294,37960,1,0,0:0:0:0:
341,294,38067,2,0,P|286:314|249:320,1,70
105,218,38495,5,0,0:0:0:0:
223,68,38710,1,0,0:0:0:0:
223,68,38817,1,0,0:0:0:0:
400,173,39031,1,0,0:0:0:0:
400,173,39138,1,0,0:0:0:0:
293,71,39353,2,0,P|241:66|203:74,1,70
47,128,39782,6,0,B|122:242|215:263|249:12|430:233,1,448
109,306,40425,5,0,0:0:0:0:
143,94,40639,1,0,0:0:0:0:
305,216,40854,1,0,0:0:0:0:
317,33,41068,1,0,0:0:0:0:
114,172,41282,1,0,0:0:0:0:
421,200,41496,6,0,L|145:258,1,224
28,151,41925,2,0,L|203:114,1,167.999994873047
388,82,42354,2,0,L|423:204,1,105.000004005432
222,186,42782,1,0,0:0:0:0:
86,141,43211,6,0,L|97:145,1,7
153,307,43425,5,0,0:0:0:0:
257,172,43639,1,0,0:0:0:0:
96,105,43854,2,0,L|126:93,1,28
348,67,44496,2,0,P|347:113|331:148,1,70
250,269,44925,6,0,L|259:267,1,7
192,101,45139,1,0,0:0:0:0:
391,275,45354,1,0,0:0:0:0:
397,139,45568,2,0,L|365:134,1,28
225,268,46211,1,0,0:0:0:0:
128,80,46425,1,0,0:0:0:0:
68,108,46854,6,0,L|85:111,1,14
263,288,47496,2,0,L|245:284,1,14
375,58,48139,2,0,L|375:75,1,14
256,188,48782,2,0,L|250:204,1,14
179,78,49639,2,0,L|208:89,1,28
115,299,50496,5,0,0:0:0:0:
392,89,50925,1,0,0:0:0:0:
168,331,51354,1,0,0:0:0:0:
409,328,51782,5,0,0:0:0:0:
80,91,52211,1,0,0:0:0:0:
374,342,52639,1,0,0:0:0:0:
343,84,52854,1,0,0:0:0:0:
197,147,53068,1,0,0:0:0:0:
169,302,53282,1,0,0:0:0:0:
319,151,53710,5,0,0:0:0:0:
319,151,53924,1,0,0:0:0:0:
59,132,54353,1,0,0:0:0:0:
59,132,54567,1,0,0:0:0:0:
197,297,54995,1,0,0:0:0:0:
197,297,55210,1,0,0:0:0:0:
365,157,55638,1,0,0:0:0:0:
365,157,55853,1,0,0:0:0:0:
256,192,56068,12,0,56925,0:0:0:0:
126,109,57353,6,0,P|192:66|276:60,1,157.500006008148
302,66,57781,1,0,0:0:0:0:
231,273,57995,2,0,P|178:248|149:191,1,105.000004005432
392,137,58424,6,0,P|377:202|286:243,1,157.500006008148
256,248,58853,1,0,0:0:0:0:
294,50,59067,1,0,0:0:0:0:
115,158,59281,1,0,0:0:0:0:
348,182,59495,1,0,0:0:0:0:
115,71,59710,1,0,0:0:0:0:
399,196,59925,2,0,P|356:230|341:285,1,105.000004005432
233,331,60354,6,0,P|136:337|72:322,1,157.500006008148
79,324,60782,2,0,P|89:267|143:222,1,105.000004005432
283,63,61211,2,0,P|235:41|178:53,1,105.000004005432
213,215,61639,1,0,0:0:0:0:
461,182,61854,6,0,P|431:253|368:304,1,157.500006008148
328,306,62282,1,0,0:0:0:0:
164,133,62496,1,0,0:0:0:0:
78,316,62711,1,0,0:0:0:0:
282,223,62925,1,0,0:0:0:0:
4,136,63139,1,0,0:0:0:0:
280,47,63354,2,0,P|303:93|296:152,1,105.000004005432
56,190,63782,6,0,P|136:245|201:248,1,157.500006008148
195,250,64211,2,0,P|253:275|321:271,1,105.000004005432
386,169,64639,6,0,L|355:182,1,26.2500010013581
140,144,64854,2,0,L|165:168,1,26.2500010013581
298,269,65068,1,0,0:0:0:0:
458,102,65282,6,0,P|351:75|288:74,1,157.500006008148
305,74,65711,2,0,P|300:122|271:176,1,105.000004005432
177,292,66139,1,0,0:0:0:0:
418,181,66354,1,0,0:0:0:0:
367,345,66568,1,0,0:0:0:0:
282,138,66782,1,0,0:0:0:0:
494,343,66996,1,0,0:0:0:0:
407,315,67425,6,0,L|312:257,1,105.000004005432
247,210,67854,1,0,0:0:0:0:
407,315,68068,2,0,L|312:257,1,105.000004005432
247,210,68496,1,0,0:0:0:0:
84,110,68711,6,0,L|183:175,1,105.000004005432
247,210,69139,1,0,0:0:0:0:
84,110,69354,2,0,L|183:175,1,105.000004005432
382,217,69782,5,0,0:0:0:0:
450,91,69925,1,0,0:0:0:0:
315,111,70068,1,0,0:0:0:0:
446,222,70211,1,0,0:0:0:0:
397,84,70354,1,0,0:0:0:0:
288,204,70496,1,0,0:0:0:0:
68,265,70639,6,0,B|130:303|192:311,1,105.000004005432
369,265,71068,2,0,P|399:195|390:104,1,157.500006008148
381,79,71496,1,0,0:0:0:0:
128,143,71711,2,0,P|48:166|0:142,1,105.000004005432
339,131,72139,6,0,B|331:189|305:240|272:271,1,157.500006008148
235,293,72568,1,0,0:0:0:0:
208,62,72782,1,0,0:0:0:0:
110,266,72996,1,0,0:0:0:0:
385,178,73211,1,0,0:0:0:0:
103,154,73425,1,0,0:0:0:0:
410,275,73639,2,0,P|425:197|417:158,1,105.000004005432
73,133,74068,6,0,P|124:156|168:189,1,105.000004005432
209,208,74389,1,0,0:0:0:0:
263,193,74496,2,0,P|346:140|389:125,1,105.000004005432
348,345,74925,2,0,P|294:344|238:320,1,105.000004005432
108,205,75354,1,0,0:0:0:0:
108,205,75568,6,0,P|175:166|274:128,1,157.500006008148
248,135,75996,2,0,P|293:189|309:249,1,105.000004005432
350,71,76425,1,0,0:0:0:0:
141,265,76639,1,0,0:0:0:0:
430,152,76854,1,0,0:0:0:0:
219,365,77068,1,0,0:0:0:0:
503,250,77282,1,0,0:0:0:0:
305,209,77496,6,0,P|256:178|162:138,1,157.500006008148
164,138,77925,2,0,P|141:192|90:231,1,105.000004005432
183,325,78354,6,0,L|228:308,1,26.2500010013581
487,293,78568,2,0,L|458:289,1,26.2500010013581
310,167,78782,1,0,0:0:0:0:
140,52,78996,6,0,P|158:111|239:200,1,157.500006008148
217,184,79425,2,0,P|183:251|152:271,1,105.000004005432
377,315,79854,1,0,0:0:0:0:
330,93,80068,1,0,0:0:0:0:
278,331,80282,1,0,0:0:0:0:
233,48,80496,1,0,0:0:0:0:
189,259,80711,1,0,0:0:0:0:
105,69,81139,6,0,L|200:127,1,105.000004005432
265,174,81568,1,0,0:0:0:0:
105,69,81782,2,0,L|200:127,1,105.000004005432
265,174,82210,1,0,0:0:0:0:
428,274,82425,6,0,L|329:209,1,105.000004005432
265,174,82853,1,0,0:0:0:0:
428,274,83068,2,0,L|329:209,1,105.000004005432
144,255,83496,5,0,0:0:0:0:
9,290,83639,1,0,0:0:0:0:
67,154,83782,1,0,0:0:0:0:
179,252,83925,1,0,0:0:0:0:
40,288,84068,1,0,0:0:0:0:
84,125,84211,1,0,0:0:0:0:
73,54,84568,6,0,P|57:123|71:171,1,105.000004005432
180,288,84996,1,0,0:0:0:0:
268,50,85211,6,0,P|284:119|270:167,1,105.000004005432
191,263,85639,1,0,0:0:0:0:
425,313,85854,6,0,P|451:253|455:188,1,105.000004005432
376,57,86282,1,0,0:0:0:0:
269,295,86496,2,0,P|274:227|294:175,1,105.000004005432
113,105,87139,6,0,P|156:92|188:88,1,52.5000020027161
311,89,87460,1,0,0:0:0:0:
347,98,87568,1,0,0:0:0:0:
438,239,87782,6,0,P|388:257|318:258,1,105
166,158,88210,2,0,P|234:142|259:150,1,70
242,280,88639,2,0,P|304:284|345:246,1,105
249,145,89068,2,0,P|280:108|331:103,1,70
92,60,89496,6,0,P|72:113|82:186,1,105
238,135,89925,2,0,P|246:191|240:220,1,70
51,276,90353,2,0,B|104:319|163:300|161:300,1,105
119,155,90782,2,0,P|170:141|199:117,1,70
403,74,91210,6,0,P|415:153|436:180,1,105
311,66,91639,2,0,P|316:128|332:166,1,70
79,276,92068,5,0,0:0:0:0:
272,299,92389,1,0,0:0:0:0:
272,299,92496,1,0,0:0:0:0:
99,157,92710,1,0,0:0:0:0:
303,124,92925,5,0,0:0:0:0:
385,294,93246,1,0,0:0:0:0:
385,294,93353,1,0,0:0:0:0:
410,111,93568,1,0,0:0:0:0:
192,175,93782,1,0,0:0:0:0:
192,175,93889,2,0,L|144:181,1,35
146,328,94210,2,0,P|204:322|226:306,1,70
329,106,94639,5,0,0:0:0:0:
444,218,94853,2,0,L|462:275,1,35
316,329,95068,2,0,L|303:281,10,35
115,324,96246,2,0,P|72:269|72:217,1,105
233,60,96782,6,0,P|246:105|259:131,2,70
329,287,97425,1,0,0:0:0:0:
329,287,97639,1,0,0:0:0:0:
85,184,97853,5,0,0:0:0:0:
85,184,97960,1,0,0:0:0:0:
85,184,98068,2,0,P|111:192|143:173,1,41.9999987182618
223,165,98282,2,0,P|220:142|192:119,1,41.9999987182618
285,70,98496,2,0,P|303:83|330:76,1,41.9999987182618
308,193,98710,2,0,P|317:174|344:166,1,41.9999987182618
410,89,98925,2,0,P|411:118|437:128,1,41.9999987182618
423,216,99139,2,0,P|392:220|381:238,1,41.9999987182618
432,307,99353,2,0,P|459:321|462:347,1,41.9999987182618
358,322,99568,2,0,P|342:304|308:309,1,41.9999987182618
308,214,99782,2,0,P|285:217|269:190,1,41.9999987182618
211,314,99996,2,0,P|222:287|210:263,1,41.9999987182618
119,221,100210,2,0,P|111:194|118:176,1,41.9999987182618
242,140,100425,2,0,P|210:147|188:142,1,41.9999987182618
62,118,100639,5,0,0:0:0:0:
103,78,100746,1,0,0:0:0:0:
146,57,100853,2,0,P|181:46|228:51,2,83.9999974365235
450,232,101496,6,0,B|348:150|366:305|203:95|148:268|148:268|46:165,1,448
200,67,102353,5,0,0:0:0:0:
200,67,102782,1,0,0:0:0:0:
189,272,102996,6,0,L|220:236,1,45.4999979171754
344,109,103210,2,0,P|323:182|337:236,1,90.9999958343508
334,331,103639,1,0,0:0:0:0:
463,183,103853,1,0,0:0:0:0:
463,183,103960,2,0,P|451:126|418:68,1,90.9999958343508
415,62,104282,1,0,0:0:0:0:
260,223,104496,2,0,P|320:252|374:229,1,90.9999958343508
28,224,104925,6,0,B|76:111|108:230|156:109|195:226|282:32|282:32|324:208,1,448
388,271,105782,5,0,0:0:0:0:
266,290,105996,5,0,0:0:0:0:
344,63,106210,1,0,0:0:0:0:
77,148,106639,6,0,L|86:178,1,17.5
251,249,106853,1,0,0:0:0:0:
248,57,107068,2,0,L|279:65,1,17.5
396,160,107282,1,0,0:0:0:0:
323,301,107496,2,0,L|344:296,1,17.5
218,144,107710,2,0,L|196:125,1,17.5
451,74,107925,2,0,P|409:64|377:31,1,70
