osu file format v14

[General]
AudioFilename: audio.mp3
AudioLeadIn: 0
PreviewTime: -1
Countdown: 1
SampleSet: Soft
StackLeniency: 0.7
Mode: 0
LetterboxInBreaks: 0
WidescreenStoryboard: 1

[Editor]
DistanceSpacing: 4.6
BeatDivisor: 6
GridSize: 4
TimelineZoom: 1

[Metadata]
Title:Guinea Pig Olympics
TitleUnicode:Guinea Pig Olympics
Artist:ParryGripp
ArtistUnicode:ParryGripp
Creator:AwfulAccuracy
Version:Jumping the stick!
Source:ParryGripp youtube channel
Tags:ParryGripp, Guinea Pig, Guinea Pig Olympics
BeatmapID:2138923
BeatmapSetID:1013129

[Difficulty]
HPDrainRate:6.1
CircleSize:3.7
OverallDifficulty:9
ApproachRate:9.1
SliderMultiplier:1.8
SliderTickRate:1

[Events]
//Background and Video events
0,0,"27e9ba054c915b8b509ce216355f9888.jpg",0,0
//Break Periods
//Storyboard Layer 0 (Background)
//Storyboard Layer 1 (Fail)
//Storyboard Layer 2 (Pass)
//Storyboard Layer 3 (Foreground)
//Storyboard Layer 4 (Overlay)
//Storyboard Sound Samples

[TimingPoints]
15027,375,4,2,0,100,1,0
15027,-80,4,2,0,100,0,0
15277,375,4,2,0,100,1,0
15277.0096574226,375,4,2,0,100,1,1
17125,375,4,2,0,100,1,0
21187,375,4,2,0,100,1,1
23208,375,4,2,0,100,1,0
23208,375,4,2,0,100,1,1
27152,375,4,2,0,100,1,0
27152,-66.6666666666667,4,2,0,100,0,0
27277,375,4,2,0,100,1,1
28152,375,4,2,0,100,1,0
28714,375,4,2,0,100,1,1
29714,375,4,2,0,100,1,0
30225,375,4,2,0,100,1,1
33688,375,4,2,0,100,1,0
33688,-80,4,2,0,100,0,0
34625,375,4,2,0,100,1,1
34625,375,4,2,0,100,1,1
36375,375,4,2,0,100,1,0
40687,375,4,2,0,100,1,1
42678,375,4,2,0,100,1,0
46534,-200,4,2,0,100,0,0
49125,-100,4,2,0,100,0,0
49615,375,4,2,0,100,1,1
51490,375,4,2,0,100,1,0

[HitObjects]
332,60,89,5,0,0:0:0:0:
331,68,152,1,0,0:0:0:0:
331,76,214,1,0,0:0:0:0:
331,83,277,1,0,0:0:0:0:
330,90,339,2,0,L|330:212,1,120
205,41,777,1,0,0:0:0:0:
272,315,964,1,0,0:0:0:0:
307,16,1339,1,0,0:0:0:0:
321,350,1527,2,0,L|317:251,1,90
206,34,2402,5,0,0:0:0:0:
211,305,2652,1,0,0:0:0:0:
279,27,2839,1,0,0:0:0:0:
293,326,3027,1,0,0:0:0:0:
313,19,3214,2,0,L|312:112,1,90
315,317,3589,1,0,0:0:0:0:
503,151,3777,1,0,0:0:0:0:
311,330,3964,1,0,0:0:0:0:
390,51,4152,1,0,0:0:0:0:
484,264,4339,1,0,0:0:0:0:
256,98,4527,1,0,0:0:0:0:
401,347,4714,2,0,L|401:241,1,90
390,51,5089,5,0,0:0:0:0:
290,319,5277,1,0,0:0:0:0:
231,22,5464,2,0,L|229:132,1,90
222,319,5839,1,0,0:0:0:0:
362,112,6027,1,0,0:0:0:0:
166,304,6214,1,0,0:0:0:0:
426,179,6402,1,0,0:0:0:0:
158,152,6589,1,0,0:0:0:0:
362,331,6777,1,0,0:0:0:0:
206,57,6964,2,0,P|257:79|337:82,1,120
366,90,7339,6,0,P|325:138|256:162,1,120
242,162,7714,2,0,L|240:273,1,90
124,83,8089,1,0,0:0:0:0:
411,294,8277,1,0,0:0:0:0:
296,44,8464,1,0,0:0:0:0:
246,325,8652,1,0,0:0:0:0:
230,46,8839,1,0,0:0:0:0:
314,333,9027,1,0,0:0:0:0:
384,48,9214,2,0,P|366:132|320:157,1,120
422,94,9589,2,0,P|390:159|355:180,2,90
184,289,10152,5,0,0:0:0:0:
256,38,10339,1,0,0:0:0:0:
283,320,10527,1,0,0:0:0:0:
340,31,10714,1,0,0:0:0:0:
285,351,10902,2,0,L|287:245,1,90
298,62,11277,1,0,0:0:0:0:
393,317,11464,1,0,0:0:0:0:
135,162,11652,1,0,0:0:0:0:
447,72,11839,1,0,0:0:0:0:
295,321,12027,1,0,0:0:0:0:
404,41,12214,6,0,P|359:62|305:60,1,90
89,38,12589,2,0,P|134:59|188:57,1,90
450,156,12964,2,0,P|405:177|351:175,1,90
55,148,13339,2,0,P|100:169|154:167,1,90
385,121,13714,1,0,0:0:0:0:
110,279,13902,1,0,0:0:0:0:
285,28,14089,1,0,0:0:0:0:
299,311,14277,2,0,P|281:264|272:240,2,60
207,41,14652,5,0,0:0:0:0:
235,312,14839,1,0,0:0:0:0:
261,28,15027,1,0,0:0:0:0:
175,341,15214,1,0,0:0:0:0:
415,134,15402,1,0,0:0:0:0:
77,228,15589,1,0,0:0:0:0:
346,51,15777,1,0,0:0:0:0:
263,362,15964,2,0,L|213:283,1,90
213,14,16339,2,0,L|263:93,1,90
404,324,16714,5,0,0:0:0:0:
305,61,16902,1,0,0:0:0:0:
307,332,17089,2,0,L|305:243,1,90
301,56,17500,1,0,0:0:0:0:
232,311,17687,1,0,0:0:0:0:
251,35,17875,1,0,0:0:0:0:
313,328,18062,1,0,0:0:0:0:
224,20,18250,6,0,P|227:78|206:120,1,90
93,278,18625,1,0,0:0:0:0:
339,121,18812,1,0,0:0:0:0:
99,67,19000,1,0,0:0:0:0:
269,284,19187,1,0,0:0:0:0:
210,22,19375,1,0,0:0:0:0:
143,331,19562,1,0,0:0:0:0:
155,334,19750,2,0,P|224:332|255:331,1,90
446,321,20125,5,0,0:0:0:0:
189,203,20312,1,0,0:0:0:0:
463,167,20500,1,0,0:0:0:0:
310,335,20687,1,0,0:0:0:0:
375,65,20875,1,0,0:0:0:0:
393,337,21062,1,0,0:0:0:0:
324,39,21249,1,0,0:0:0:0:
304,42,21437,2,0,L|209:44,1,90
50,45,21812,5,0,0:0:0:0:
279,181,21999,1,0,0:0:0:0:
119,11,22187,1,0,0:0:0:0:
158,279,22374,1,0,0:0:0:0:
193,10,22562,1,0,0:0:0:0:
216,312,22749,1,0,0:0:0:0:
268,25,22937,1,0,0:0:0:0:
332,328,23124,1,0,0:0:0:0:
339,322,23270,2,0,L|371:227,1,90
411,115,23645,5,0,0:0:0:0:
431,299,23833,1,0,0:0:0:0:
345,91,24020,1,0,0:0:0:0:
384,310,24208,1,0,0:0:0:0:
416,52,24395,1,0,0:0:0:0:
416,351,24583,2,0,L|417:257,1,90
417,29,24958,1,0,0:0:0:0:
426,292,25145,1,0,0:0:0:0:
472,32,25333,1,0,0:0:0:0:
485,291,25520,1,0,0:0:0:0:
200,327,25708,6,0,L|202:244,1,60
235,307,25958,2,0,L|236:225,1,60
249,41,26270,2,0,L|265:6,3,30
160,306,26645,2,0,L|193:217,1,90
254,25,27020,1,0,0:0:0:0:
300,254,27214,1,0,0:0:0:0:
288,6,27402,1,0,0:0:0:0:
233,275,27589,1,0,0:0:0:0:
340,10,27777,1,0,0:0:0:0:
341,19,27964,6,0,L|346:120,1,90
354,345,28339,2,0,L|350:237,1,90
343,46,28714,1,0,0:0:0:0:
201,276,28901,1,0,0:0:0:0:
494,134,29089,1,0,0:0:0:0:
189,36,29276,1,0,0:0:0:0:
406,318,29464,1,0,0:0:0:0:
392,29,29651,1,0,0:0:0:0:
186,327,29839,2,0,L|186:221,1,90
190,42,30225,5,0,0:0:0:0:
271,319,30412,1,0,0:0:0:0:
264,36,30600,1,0,0:0:0:0:
165,330,30787,1,0,0:0:0:0:
219,11,30975,1,0,0:0:0:0:
219,352,31162,1,0,0:0:0:0:
231,80,31350,6,0,P|239:137|277:172,1,90
420,322,31725,1,0,0:0:0:0:
29,53,31912,1,0,0:0:0:0:
507,227,32100,1,0,0:0:0:0:
22,331,32287,1,0,0:0:0:0:
309,0,32475,1,0,0:0:0:0:
328,375,32662,1,0,0:0:0:0:
135,0,32850,1,0,0:0:0:0:
480,355,33037,1,0,0:0:0:0:
31,17,33225,1,0,0:0:0:0:
191,334,34000,5,0,0:0:0:0:
295,20,34188,1,0,0:0:0:0:
289,338,34375,1,0,0:0:0:0:
203,21,34563,1,0,0:0:0:0:
349,328,34750,1,0,0:0:0:0:
371,27,34937,1,0,0:0:0:0:
385,309,35125,1,0,0:0:0:0:
314,37,35312,1,0,0:0:0:0:
301,298,35500,1,0,0:0:0:0:
376,26,35687,2,0,L|376:135,1,90
135,343,36062,2,0,L|135:234,1,90
121,27,36437,5,0,0:0:0:0:
242,243,36625,1,0,0:0:0:0:
42,119,36812,1,0,0:0:0:0:
350,99,37000,1,0,0:0:0:0:
107,290,37187,1,0,0:0:0:0:
207,10,37375,1,0,0:0:0:0:
277,299,37562,1,0,0:0:0:0:
116,44,37750,6,0,L|116:144,1,90
396,340,38125,2,0,L|396:240,1,90
392,48,38500,1,0,0:0:0:0:
300,309,38687,1,0,0:0:0:0:
284,33,38875,1,0,0:0:0:0:
376,320,39062,1,0,0:0:0:0:
444,26,39250,2,0,L|445:116,1,90
451,321,39625,1,0,0:0:0:0:
366,25,39812,1,0,0:0:0:0:
364,320,40000,1,0,0:0:0:0:
301,20,40187,1,0,0:0:0:0:
290,305,40375,1,0,0:0:0:0:
354,10,40562,1,0,0:0:0:0:
281,332,40749,2,0,P|232:312|184:293,1,90
50,255,41124,5,0,0:0:0:0:
296,284,41312,1,0,0:0:0:0:
133,70,41499,1,0,0:0:0:0:
172,358,41687,1,0,0:0:0:0:
201,74,41874,1,0,0:0:0:0:
108,370,42062,1,0,0:0:0:0:
169,34,42249,1,0,0:0:0:0:
208,293,42437,6,0,L|276:219,1,90
356,63,42803,1,0,0:0:0:0:
442,331,42990,1,0,0:0:0:0:
433,46,43178,1,0,0:0:0:0:
352,349,43365,1,0,0:0:0:0:
392,27,43553,1,0,0:0:0:0:
313,319,43740,6,0,L|206:300,1,90
199,65,44115,2,0,L|306:84,1,90
472,106,44490,1,0,0:0:0:0:
231,257,44678,1,0,0:0:0:0:
351,27,44865,1,0,0:0:0:0:
301,339,45053,2,0,B|326:308|326:308|262:297|262:297|292:261|292:261|256:227|256:227,1,180
120,29,45615,1,0,0:0:0:0:
120,313,45803,1,0,0:0:0:0:
194,30,45990,1,0,0:0:0:0:
220,308,46240,1,0,0:0:0:0:
298,34,46490,1,0,0:0:0:0:
298,34,46678,6,0,B|271:99|276:207|229:278,1,255
196,65,47990,1,0,0:0:0:0:
214,350,48178,6,0,B|241:284|236:177|269:104,1,240
419,360,49303,2,0,L|334:245,1,120
155,9,49740,1,0,0:0:0:0:
148,371,49927,1,0,0:0:0:0:
305,10,50115,1,0,0:0:0:0:
329,362,50302,1,0,0:0:0:0:
35,102,50490,1,0,0:0:0:0:
480,287,50677,1,0,0:0:0:0:
22,279,50865,1,0,0:0:0:0:
481,105,51052,1,0,0:0:0:0:
0,177,51240,1,0,0:0:0:0:
