osu file format v14

[General]
AudioFilename: audio.mp3
AudioLeadIn: 0
PreviewTime: 9589
Countdown: 0
SampleSet: Soft
StackLeniency: 0.7
Mode: 0
LetterboxInBreaks: 0
WidescreenStoryboard: 1

[Editor]
Bookmarks: 35634
DistanceSpacing: 1.4
BeatDivisor: 4
GridSize: 32
TimelineZoom: 1

[Metadata]
Title:There's A Cat Licking Your Birthday Cake
TitleUnicode:There's A Cat Licking Your Birthday Cake
Artist:Parry Gripp
ArtistUnicode:Parry Gripp
Creator:Tristan
Version::light_insane:
Source:
Tags:English Male Vocal Electronic Piano Novelty Theres Bday
BeatmapID:3311083
BeatmapSetID:1607656

[Difficulty]
HPDrainRate:4
CircleSize:3
OverallDifficulty:6
ApproachRate:7
SliderMultiplier:2.4
SliderTickRate:1

[Events]
//Background and Video events
0,0,"birthday kity.jpg",0,0
Video,76,"cat.avi"
//Break Periods
//Storyboard Layer 0 (Background)
//Storyboard Layer 1 (Fail)
//Storyboard Layer 2 (Pass)
//Storyboard Layer 3 (Foreground)
//Storyboard Layer 4 (Overlay)
//Storyboard Sound Samples

[TimingPoints]
-976,545.454545454546,4,2,0,60,1,0
9933,-90.9090909090909,4,2,0,70,0,0
11296,-83.3333333333333,4,2,0,70,0,0
11501,-83.3333333333333,4,2,0,5,0,0
11569,-83.3333333333333,4,2,0,70,0,0
11774,-83.3333333333333,4,2,0,5,0,0
11842,-83.3333333333333,4,2,0,70,0,0
12114,-90.9090909090909,4,2,0,70,0,0
13478,-83.3333333333333,4,2,0,70,0,0
13683,-83.3333333333333,4,2,0,5,0,0
13751,-83.3333333333333,4,2,0,70,0,0
13955,-83.3333333333333,4,2,0,5,0,0
14024,-83.3333333333333,4,2,0,70,0,0
14296,-86.9565217391304,4,2,0,70,0,0
17705,-86.9565217391304,4,2,0,5,0,0
17842,-86.9565217391304,4,2,0,70,0,0
17978,-86.9565217391304,4,2,0,5,0,0
18114,-86.9565217391304,4,2,0,70,0,0
18660,-100,4,2,0,70,0,0
27933,-100,4,2,0,60,0,0
28751,-90.9090909090909,4,2,0,60,0,0
28955,-90.9090909090909,4,2,0,5,0,0
29024,-90.9090909090909,4,2,0,60,0,0
29228,-90.9090909090909,4,2,0,5,0,0
29296,-100,4,2,0,60,0,0
30933,-90.9090909090909,4,2,0,60,0,0
31137,-90.9090909090909,4,2,0,5,0,0
31205,-90.9090909090909,4,2,0,60,0,0
31410,-90.9090909090909,4,2,0,5,0,0
31478,-100,4,2,0,60,0,0

[Colours]
Combo1 : 221,125,125
Combo2 : 204,157,255
SliderBorder : 124,239,239

[HitObjects]
42,270,114,6,0,P|27:228|36:199,1,60.0000000000001,0|2,2:0|2:0,0:0:0:0:
112,198,387,2,0,P|126:239|117:268,1,60,0|2,2:0|2:0,0:0:0:0:
95,334,660,1,0,2:0:0:0:
256,286,933,6,0,L|339:279,1,60.0000000000001,0|0,2:0|2:0,2:0:0:0:
385,327,1205,2,0,P|401:263|356:210,1,120,2|0,2:0|2:0,2:0:0:0:
241,114,1751,2,0,B|177:114|190:160|123:152,1,120,2|0,2:0|2:0,2:0:0:0:
70,94,2160,1,0,2:0:0:0:
16,158,2296,6,0,L|9:291,2,120,2|0|2,2:0|2:0|2:0,2:0:0:0:
132,37,3114,102,0,L|215:44,1,60.0000000000001,0|0,2:0|2:0,0:0:0:0:
265,1,3387,2,0,P|280:58|245:114,1,120,2|0,2:0|2:0,2:0:0:0:
108,197,3933,2,0,P|93:254|128:310,1,120,2|0,2:0|2:0,2:0:0:0:
194,345,4342,1,0,2:0:0:0:
265,301,4478,6,0,L|406:312,2,120,2|0|2,2:0|2:0|2:0,2:0:0:0:
151,177,5296,6,0,P|140:128|150:102,1,60,0|0,2:0|2:0,0:0:0:0:
200,58,5569,2,0,L|385:77,1,180,2|0,2:0|2:0,2:0:0:0:
467,59,6114,1,2,2:0:0:0:
467,59,6251,1,0,2:0:0:0:
467,59,6387,2,0,P|468:99|446:132,1,60,0|0,2:0|2:0,0:0:0:0:
389,163,6660,2,0,L|242:146,1,120,2|2,2:0|2:0,2:0:0:0:
103,124,7205,1,2,2:0:0:0:
173,288,7478,5,0,2:0:0:0:
173,288,7614,1,0,2:0:0:0:
173,288,7751,2,0,B|242:283|208:333|291:332,1,120,2|0,2:0|2:0,2:0:0:0:
416,234,8296,2,0,P|443:174|425:113,1,120,2|0,2:0|2:0,2:0:0:0:
392,48,8705,1,0,2:0:0:0:
316,89,8842,2,0,B|255:93|255:93|244:103|244:103|170:107,2,120,2|0|2,2:0|2:0|2:0,2:0:0:0:
465,11,9660,6,0,P|474:61|461:91,1,60,0|0,2:0|2:0,0:0:0:0:
404,132,9933,2,0,P|383:203|406:278,1,132.00000402832,10|0,3:2|2:0,2:0:0:0:
454,329,10342,1,0,2:0:0:0:
371,370,10478,2,0,L|211:378,1,132.00000402832,10|0,2:0|2:0,2:0:0:0:
173,311,10887,1,0,2:0:0:0:
173,311,11024,2,0,L|168:236,1,66.0000020141602,10|0,3:2|2:0,0:0:0:0:
162,157,11296,5,12,2:0:0:0:
362,272,11569,1,14,2:0:0:0:
362,272,11842,1,0,2:0:0:0:
480,141,12114,6,0,P|496:94|489:62,1,66.0000020141602,10|0,3:2|2:0,0:0:0:0:
420,22,12387,2,0,P|387:22|357:36,1,66.0000020141602,0|0,2:0|2:0,0:0:0:0:
291,102,12660,2,0,P|233:128|147:93,1,132.00000402832,10|0,2:0|2:0,2:0:0:0:
93,164,13069,1,0,2:0:0:0:
93,164,13205,2,0,L|83:238,1,66.0000020141602,10|0,3:2|2:0,2:0:0:0:
23,311,13478,5,12,2:0:0:0:
238,222,13751,1,14,2:0:0:0:
238,222,14024,2,0,P|277:211|321:233,1,71.9999978027344,0|0,2:0|2:0,0:0:0:0:
365,296,14296,6,0,P|291:334|171:291,1,207.000003948212,10|0,3:2|2:0,2:0:0:0:
128,228,14842,1,10,2:0:0:0:
128,228,14978,1,0,2:0:0:0:
128,228,15114,2,0,L|122:148,1,69.0000013160706,0|0,2:0|2:0,0:0:0:0:
180,81,15387,2,0,P|116:58|44:107,2,138.000002632141,10|2|10,3:2|2:0|2:0,2:0:0:0:
371,150,16205,5,0,2:0:0:0:
371,150,16342,1,0,2:0:0:0:
371,150,16478,2,0,L|383:318,1,138.000002632141,10|0,3:2|2:0,2:0:0:0:
311,355,16887,1,0,2:0:0:0:
311,355,17024,2,0,P|270:367|223:358,1,69.0000013160706,10|0,2:0|2:0,2:0:0:0:
184,289,17296,2,0,P|146:269|98:270,1,69.0000013160706,0|0,2:0|2:0,0:0:0:0:
38,318,17569,37,10,3:2:0:0:
143,156,17842,1,2,2:0:0:0:
308,255,18114,2,0,P|422:268|460:273,1,138.000002632141,14|0,2:0|2:0,2:0:0:0:
505,195,18524,1,8,2:0:0:0:
505,195,18660,2,0,B|513:67,2,120,14|0|10,3:2|2:0|2:0,2:0:0:0:
347,231,19478,5,0,2:0:0:0:
347,231,19615,1,0,2:0:0:0:
347,231,19751,2,0,B|334:143|334:143|358:92,2,120,10|2|10,3:2|2:0|2:0,2:0:0:0:
492,335,20569,5,0,2:0:0:0:
492,335,20705,1,0,2:0:0:0:
492,335,20842,2,0,B|499:246|499:246|455:274,2,120,10|0|10,3:2|2:0|2:0,2:0:0:0:
325,361,21660,1,0,2:0:0:0:
179,275,21933,2,0,P|108:271|68:317,1,120,10|0,3:2|2:0,2:0:0:0:
237,354,22478,6,0,B|270:286|270:286|226:138,1,180,14|0,2:0|2:0,2:0:0:0:
166,144,23024,6,0,P|219:104|295:124,2,120,10|0|10,3:2|2:0|2:0,2:0:0:0:
40,250,23842,1,0,2:0:0:0:
176,346,24114,2,0,P|242:351|288:314,2,120,10|2|10,3:2|2:0|2:0,2:0:0:0:
46,256,24933,5,0,2:0:0:0:
46,256,25069,1,0,2:0:0:0:
46,256,25205,2,0,L|39:108,2,120,10|2|10,3:2|2:0|2:0,2:0:0:0:
180,355,26024,1,2,2:0:0:0:
350,265,26296,6,0,P|386:245|429:253,1,60,12|2,3:2|2:0,0:0:0:0:
436,322,26569,2,0,P|400:342|357:336,1,60,12|2,2:0|2:0,0:0:0:0:
297,336,26842,1,12,2:0:0:0:
134,213,27114,6,0,P|92:206|59:222,1,60,0|0,2:0|2:0,2:0:0:0:
45,289,27387,2,0,P|117:314|167:286,1,120,10|0,2:0|2:0,2:0:0:0:
206,138,27933,2,0,P|269:114|328:132,1,120,2|0,2:0|2:0,2:0:0:0:
393,163,28342,1,0,2:0:0:0:
327,215,28478,2,0,L|332:289,1,60,2|0,2:0|2:0,2:0:0:0:
395,340,28751,6,0,P|330:366|262:330,1,132.00000402832,2|2,2:0|2:0,2:0:0:0:
154,228,29296,6,0,P|111:217|72:227,1,60,0|0,2:0|2:0,2:0:0:0:
26,170,29569,2,0,L|15:31,1,120,2|0,2:0|2:0,2:0:0:0:
180,11,30114,2,0,L|191:150,1,120,2|0,2:0|2:0,2:0:0:0:
252,188,30524,1,0,2:0:0:0:
314,131,30660,2,0,P|342:118|384:123,1,60,2|0,2:0|2:0,2:0:0:0:
429,189,30933,102,0,P|462:133|433:53,1,132.00000402832,2|2,2:0|2:0,2:0:0:0:
287,26,31478,6,0,P|243:17|203:27,1,60,0|0,2:0|2:0,2:0:0:0:
164,73,31751,2,0,B|169:155|169:155|174:159|174:159|181:260,1,180,2|0,2:0|2:0,2:0:0:0:
248,316,32296,1,2,2:0:0:0:
248,316,32433,1,0,2:0:0:0:
248,316,32569,2,0,L|347:329,1,60,0|0,2:0|2:0,0:0:0:0:
378,277,32842,2,0,B|401:224|401:224|379:154,2,120,2|2|2,2:0|2:0|2:0,2:0:0:0:
248,316,33660,5,0,2:0:0:0:
248,316,33796,1,0,2:0:0:0:
248,316,33933,2,0,B|173:315|198:364|111:353,1,120,2|0,2:0|2:0,2:0:0:0:
38,187,34478,102,0,P|21:142|31:117,1,60,2|0,2:0|2:0,2:0:0:0:
106,116,34751,2,0,P|122:160|112:185,1,60,2|0,2:0|2:0,2:0:0:0:
96,256,35024,5,6,2:0:0:0:
256,192,35296,1,2,2:0:0:0:
416,256,35569,1,6,2:0:0:0:
