osu file format v14

[General]
AudioFilename: audio.mp3
AudioLeadIn: 0
PreviewTime: 9589
Countdown: 0
SampleSet: Soft
StackLeniency: 0.7
Mode: 0
LetterboxInBreaks: 0
WidescreenStoryboard: 1

[Editor]
Bookmarks: 12452,35634
DistanceSpacing: 1
BeatDivisor: 4
GridSize: 32
TimelineZoom: 1

[Metadata]
Title:There's A Cat Licking Your Birthday Cake
TitleUnicode:There's A Cat Licking Your Birthday Cake
Artist:Parry Gripp
ArtistUnicode:Parry Gripp
Creator:Tristan
Version::hard:
Source:
Tags:English Male Vocal Electronic Piano Novelty Theres Bday
BeatmapID:3429943
BeatmapSetID:1607656

[Difficulty]
HPDrainRate:4
CircleSize:2.8
OverallDifficulty:5.5
ApproachRate:6.8
SliderMultiplier:2
SliderTickRate:1

[Events]
//Background and Video events
0,0,"birthday kity.jpg",0,0
Video,76,"cat.avi"
//Break Periods
//Storyboard Layer 0 (Background)
//Storyboard Layer 1 (Fail)
//Storyboard Layer 2 (Pass)
//Storyboard Layer 3 (Foreground)
//Storyboard Layer 4 (Overlay)
//Storyboard Sound Samples

[TimingPoints]
-976,545.454545454546,4,2,0,60,1,0
9933,-100,4,2,0,70,0,0
11501,-100,4,2,0,5,0,0
11569,-100,4,2,0,70,0,0
11774,-100,4,2,0,5,0,0
11842,-100,4,2,0,70,0,0
13683,-100,4,2,0,5,0,0
13751,-100,4,2,0,70,0,0
13955,-100,4,2,0,5,0,0
14024,-100,4,2,0,70,0,0
17705,-100,4,2,0,5,0,0
17842,-100,4,2,0,70,0,0
17978,-100,4,2,0,5,0,0
18114,-100,4,2,0,70,0,0
27933,-100,4,2,0,60,0,0
28955,-100,4,2,0,5,0,0
29024,-100,4,2,0,60,0,0
29228,-100,4,2,0,5,0,0
29296,-100,4,2,0,60,0,0
31137,-100,4,2,0,5,0,0
31205,-100,4,2,0,60,0,0
31410,-100,4,2,0,5,0,0
31478,-100,4,2,0,60,0,0

[Colours]
Combo1 : 221,125,125
Combo2 : 204,157,255
SliderBorder : 124,239,239

[HitObjects]
91,153,114,6,0,L|102:82,4,50,0|2|0|2|0,2:0|2:0|2:0|2:0|2:0,0:0:0:0:
28,245,933,1,0,2:0:0:0:
28,245,1069,1,0,2:0:0:0:
28,245,1205,2,0,P|67:265|138:247,1,100,2|0,2:0|2:0,2:0:0:0:
189,184,1751,2,0,P|226:159|295:154,1,100,2|0,2:0|2:0,2:0:0:0:
354,219,2296,2,0,L|348:349,2,100,2|0|2,2:0|2:0|2:0,2:0:0:0:
444,170,3114,5,0,2:0:0:0:
444,170,3251,1,0,2:0:0:0:
444,170,3387,2,0,P|464:117|454:76,1,100,2|0,2:0|2:0,2:0:0:0:
367,25,3933,2,0,P|347:70|357:118,1,100,2|0,2:0|2:0,2:0:0:0:
317,209,4478,2,0,L|194:225,2,100,2|0|2,2:0|2:0|2:0,2:0:0:0:
411,269,5296,5,0,2:0:0:0:
411,269,5433,1,0,2:0:0:0:
411,269,5569,2,0,P|423:321|396:382,1,100,2|0,2:0|0:0,2:0:0:0:
310,381,6114,2,0,L|229:387,2,50,2|0|0,2:0|2:0|2:0,0:0:0:0:
409,364,6660,2,0,L|527:373,2,100,2|2|2,2:0|2:0|2:0,2:0:0:0:
329,303,7478,5,0,2:0:0:0:
329,303,7614,1,0,2:0:0:0:
329,303,7751,2,0,P|310:235|336:188,1,100,2|0,2:0|2:0,2:0:0:0:
401,152,8296,2,0,P|420:84|394:37,1,100,2|0,2:0|2:0,2:0:0:0:
318,20,8842,2,0,L|198:26,2,100,2|0|2,2:0|2:0|2:0,2:0:0:0:
408,63,9660,5,0,2:0:0:0:
408,63,9796,1,0,2:0:0:0:
408,63,9933,2,0,P|426:116|411:166,1,100,10|0,3:2|2:0,2:0:0:0:
344,228,10478,1,10,2:0:0:0:
260,172,10751,2,0,L|174:176,2,50,0|0|10,2:0|2:0|3:2,0:0:0:0:
344,228,11296,6,0,B|356:272|356:272|346:296|346:296|364:366,2,100,12|14|0,2:0|2:0|2:0,2:0:0:0:
260,172,12114,6,0,P|208:166|144:205,1,100,10|0,3:2|2:0,0:0:0:0:
126,216,12524,1,0,2:0:0:0:
78,200,12660,2,0,B|58:152|58:152|73:93,1,100,10|0,2:0|2:0,2:0:0:0:
144,38,13205,1,10,3:2:0:0:
233,83,13478,6,0,B|278:88|278:88|296:80|296:80|358:89,2,100,12|14|0,2:0|2:0|2:0,2:0:0:0:
144,38,14296,6,0,P|80:38|33:152,1,200,10|10,3:2|2:0,2:0:0:0:
82,235,15114,1,0,2:0:0:0:
145,312,15387,2,0,P|96:337|28:321,1,100,10|2,3:2|2:0,2:0:0:0:
82,235,15933,1,10,2:0:0:0:
154,166,16205,5,0,2:0:0:0:
154,166,16342,1,0,2:0:0:0:
154,166,16478,2,0,L|266:176,1,100,10|0,3:2|2:0,2:0:0:0:
327,243,17024,2,0,L|439:233,1,100,10|0,2:0|2:0,2:0:0:0:
502,168,17569,1,10,3:2:0:0:
414,119,17842,1,2,2:0:0:0:
491,59,18114,2,0,P|441:22|372:41,1,100,14|0,2:0|2:0,2:0:0:0:
358,42,18524,1,8,2:0:0:0:
320,74,18660,6,0,L|208:87,2,100,14|0|10,3:2|2:0|2:0,2:0:0:0:
406,23,19478,1,0,2:0:0:0:
414,119,19751,2,0,L|431:229,2,100,10|2|10,3:2|2:0|2:0,2:0:0:0:
335,76,20569,5,0,2:0:0:0:
335,76,20705,1,0,2:0:0:0:
335,76,20842,2,0,L|225:93,1,100,10|0,3:2|2:0,2:0:0:0:
157,29,21387,2,0,L|47:12,1,100,10|0,2:0|2:0,2:0:0:0:
89,109,21933,1,10,3:2:0:0:
33,301,22478,1,14,2:0:0:0:
231,325,23024,6,0,L|341:308,2,100,10|0|10,3:2|2:0|2:0,2:0:0:0:
142,367,23842,1,0,2:0:0:0:
134,271,24115,2,0,L|117:161,2,100,10|2|10,3:2|2:0|2:0,2:0:0:0:
229,327,24933,5,0,2:0:0:0:
229,327,25069,1,0,2:0:0:0:
229,327,25205,2,0,L|339:310,1,100,10|2,3:2|2:0,2:0:0:0:
411,366,25751,2,0,L|521:383,1,100,10|2,2:0|2:0,2:0:0:0:
478,286,26296,1,12,3:2:0:0:
409,213,26569,1,12,2:0:0:0:
506,189,26842,1,12,2:0:0:0:
439,132,27114,5,0,2:0:0:0:
439,132,27251,1,0,2:0:0:0:
439,132,27387,2,0,L|317:121,1,100,10|0,2:0|2:0,2:0:0:0:
252,72,27933,2,0,L|130:83,1,100,2|0,2:0|2:0,2:0:0:0:
83,153,28478,1,2,2:0:0:0:
83,153,28751,2,0,L|70:288,1,100,2|2,2:0|2:0,2:0:0:0:
10,330,29296,5,0,2:0:0:0:
10,330,29433,1,0,2:0:0:0:
10,330,29569,2,0,P|55:355|122:335,1,100,2|0,2:0|2:0,2:0:0:0:
171,276,30114,2,0,P|216:251|283:271,1,100,2|0,2:0|2:0,2:0:0:0:
327,341,30660,1,2,2:0:0:0:
327,341,30933,2,0,L|459:351,1,100,2|2,2:0|2:0,2:0:0:0:
509,290,31478,5,0,2:0:0:0:
509,290,31614,1,0,2:0:0:0:
509,290,31751,2,0,P|517:216|496:180,1,100,2|0,2:0|0:0,2:0:0:0:
448,113,32296,2,0,L|457:41,2,50,2|0|0,2:0|2:0|2:0,0:0:0:0:
387,193,32842,2,0,L|400:298,2,100,2|2|2,2:0|2:0|2:0,2:0:0:0:
326,129,33660,5,0,2:0:0:0:
326,129,33796,1,0,2:0:0:0:
326,129,33933,2,0,P|268:128|222:182,1,100,2|0,2:0|2:0,2:0:0:0:
160,217,34478,2,0,P|111:220|70:193,1,100,2|2,2:0|2:0,2:0:0:0:
25,102,35024,5,6,2:0:0:0:
94,30,35296,1,2,2:0:0:0:
132,122,35569,1,6,2:0:0:0:
