osu file format v14

[General]
AudioFilename: audio.mp3
AudioLeadIn: 0
PreviewTime: 9589
Countdown: 0
SampleSet: Soft
StackLeniency: 0.7
Mode: 0
LetterboxInBreaks: 0
WidescreenStoryboard: 0

[Editor]
Bookmarks: 35634
DistanceSpacing: 2.3
BeatDivisor: 8
GridSize: 4
TimelineZoom: 3.599999

[Metadata]
Title:There's A Cat Licking Your Birthday Cake
TitleUnicode:There's A Cat Licking Your Birthday Cake
Artist:Parry Gripp
ArtistUnicode:Parry Gripp
Creator:Tristan
Version::cat: :birthday:
Source:
Tags:English Male Vocal Electronic Piano Novelty Theres Bday
BeatmapID:3311088
BeatmapSetID:1607656

[Difficulty]
HPDrainRate:5.5
CircleSize:3
OverallDifficulty:8
ApproachRate:9
SliderMultiplier:2.6
SliderTickRate:1

[Events]
//Background and Video events
0,0,"birthday kity.jpg",0,0
Video,76,"cat.avi"
//Break Periods
//Storyboard Layer 0 (Background)
//Storyboard Layer 1 (Fail)
//Storyboard Layer 2 (Pass)
//Storyboard Layer 3 (Foreground)
//Storyboard Layer 4 (Overlay)
//Storyboard Sound Samples

[TimingPoints]
-976,545.454545454546,4,2,0,60,1,0
9933,-71.4285714285714,4,2,0,70,0,0
11296,-35.7142857142857,4,2,0,70,0,0
11501,-35.7142857142857,4,2,0,5,0,0
11569,-33.3333333333333,4,2,0,70,0,0
11774,-33.3333333333333,4,2,0,5,0,0
11842,-71.4285714285714,4,2,0,70,0,0
12114,-71.4285714285714,4,2,0,70,0,0
13478,-35.7142857142857,4,2,0,70,0,0
13683,-35.7142857142857,4,2,0,5,0,0
13751,-33.3333333333333,4,2,0,70,0,0
13955,-33.3333333333333,4,2,0,5,0,0
14024,-33.3333333333333,4,2,0,70,0,0
14296,-55.5555555555556,4,2,0,70,0,0
14842,-71.4285714285714,4,2,0,70,0,0
17569,-50,4,2,0,70,0,0
17705,-50,4,2,0,5,0,0
17842,-50,4,2,0,70,0,0
17978,-50,4,2,0,5,0,0
18114,-43.4782608695652,4,2,0,70,0,0
18660,-100,4,2,0,70,0,0
22478,-43.4782608695652,4,2,0,70,0,0
23024,-100,4,2,0,70,0,0
27933,-100,4,2,0,60,0,0
28751,-71.4285714285714,4,2,0,60,0,0
28955,-71.4285714285714,4,2,0,5,0,0
29024,-71.4285714285714,4,2,0,60,0,0
29228,-71.4285714285714,4,2,0,5,0,0
29296,-100,4,2,0,60,0,0
29569,-100,4,2,0,60,0,0
30933,-71.4285714285714,4,2,0,60,0,0
31137,-71.4285714285714,4,2,0,5,0,0
31205,-71.4285714285714,4,2,0,60,0,0
31410,-71.4285714285714,4,2,0,5,0,0
31478,-100,4,2,0,60,0,0

[Colours]
Combo1 : 221,125,125
Combo2 : 204,157,255
SliderBorder : 124,239,239

[HitObjects]
185,269,114,5,0,2:0:0:0:
144,351,251,1,2,2:0:0:0:
39,246,387,1,0,2:0:0:0:
53,336,524,1,2,2:0:0:0:
121,205,660,1,0,2:0:0:0:
370,367,933,6,0,L|451:374,1,65,0|0,2:0|2:0,2:0:0:0:
474,294,1205,2,0,P|409:285|344:282,1,130,2|0,2:0|2:0,2:0:0:0:
290,90,1751,2,0,P|225:98|160:101,1,130,2|0,2:0|2:0,2:0:0:0:
44,243,2160,1,0,2:0:0:0:
1,161,2296,2,0,P|63:152|130:214,1,130,2|0,2:0|2:0,2:0:0:0:
226,338,2842,2,0,P|278:373|341:364,1,130,2|0,2:0|2:0,2:0:0:0:
448,161,3251,1,0,2:0:0:0:
490,268,3387,102,0,P|404:241|323:234,1,130,2|0,2:0|2:0,2:0:0:0:
133,143,3933,2,0,P|219:116|300:109,1,130,2|0,2:0|2:0,2:0:0:0:
385,30,4342,1,0,2:0:0:0:
451,96,4478,2,0,B|454:157|454:157|458:159|458:159|463:232,2,130,2|0|2,2:0|2:0|2:0,2:0:0:0:
301,6,5296,1,0,2:0:0:0:
217,26,5433,1,0,2:0:0:0:
207,164,5569,6,0,P|157:210|42:173,1,195,2|0,2:0|2:0,2:0:0:0:
114,28,6114,1,2,2:0:0:0:
200,69,6251,1,0,2:0:0:0:
125,127,6387,1,0,2:0:0:0:
214,68,6524,1,0,2:0:0:0:
106,24,6660,102,0,L|19:12,1,65,2|0,2:0|2:0,2:0:0:0:
207,164,6933,2,0,L|271:155,1,65,2|0,2:0|2:0,2:0:0:0:
81,291,7205,2,0,L|17:282,1,65,2|0,2:0|2:0,2:0:0:0:
219,368,7478,1,0,2:0:0:0:
311,383,7614,1,0,2:0:0:0:
389,340,7751,6,0,P|409:258|406:166,1,130,2|0,2:0|2:0,2:0:0:0:
194,14,8296,2,0,P|198:78|215:141,1,130,2|0,2:0|2:0,2:0:0:0:
293,181,8705,1,0,2:0:0:0:
183,276,8842,2,0,B|126:286|126:286|109:303|109:303|54:313,2,130,2|0|2,2:0|2:0|2:0,2:0:0:0:
308,51,9660,5,0,2:0:0:0:
353,219,9796,1,0,2:0:0:0:
176,166,9933,2,0,B|72:153|109:233|-12:213,1,181.999994445801,10|0,3:2|2:0,2:0:0:0:
30,112,10342,1,0,2:0:0:0:
155,259,10478,2,0,P|174:329|156:367,1,90.9999972229005,10|0,2:0|2:0,2:0:0:0:
45,310,10751,1,0,2:0:0:0:
257,221,10887,2,0,B|306:211|306:211|362:243,1,90.9999972229005,0|10,2:0|3:2,2:0:0:0:
288,316,11160,1,0,2:0:0:0:
464,261,11296,6,0,B|493:81|493:81|428:-10,1,272.999991668701,12|0,2:0|2:0,2:0:0:0:
448,1,11569,6,0,B|502:77|502:77|468:288,1,292.50001115799,14|0,2:0|2:0,2:0:0:0:
378,308,11842,2,0,L|264:317,1,90.9999972229005,0|0,2:0|2:0,2:0:0:0:
104,112,12114,37,10,3:2:0:0:
23,334,12251,1,0,2:0:0:0:
103,101,12387,5,0,2:0:0:0:
200,331,12524,1,0,2:0:0:0:
0,149,12660,2,0,P|-9:99|11:38,1,90.9999972229005,10|0,2:0|2:0,2:0:0:0:
320,103,12933,101,0,2:0:0:0:
111,227,13069,1,0,2:0:0:0:
313,350,13205,2,0,L|427:365,1,90.9999972229005,10|0,3:2|2:0,2:0:0:0:
186,166,13478,6,0,P|108:114|18:252,1,272.999991668701,12|0,2:0|2:0,2:0:0:0:
2,225,13751,6,0,P|72:111|202:194,1,292.50001115799,14|0,2:0|2:0,2:0:0:0:
248,242,14024,1,0,2:0:0:0:
73,30,14160,1,0,2:0:0:0:
99,368,14296,38,0,B|76:372|-15:357|38:208|145:223|157:309|175:362|295:338,1,350.99998928833,10|0,3:2|2:0,2:0:0:0:
471,171,14842,1,10,2:0:0:0:
248,242,14978,1,0,2:0:0:0:
377,101,15114,1,0,2:0:0:0:
426,312,15251,1,0,2:0:0:0:
282,149,15387,6,0,P|216:149|167:184,1,90.9999972229005,10|0,3:2|2:0,2:0:0:0:
102,364,15660,2,0,P|135:306|129:246,1,90.9999972229005,2|0,2:0|2:0,2:0:0:0:
17,110,15933,2,0,P|36:166|81:195,1,90.9999972229005,10|0,2:0|2:0,2:0:0:0:
27,273,16205,5,0,2:0:0:0:
127,96,16342,1,0,2:0:0:0:
234,324,16478,2,0,B|330:331|297:257|401:273,1,181.999994445801,10|0,3:2|2:0,2:0:0:0:
387,367,16887,1,0,2:0:0:0:
236,236,17024,2,0,P|177:242|122:260,1,90.9999972229005,10|0,2:0|2:0,2:0:0:0:
303,149,17296,1,0,2:0:0:0:
190,51,17433,1,0,2:0:0:0:
439,125,17569,38,0,B|461:191|461:191|442:248,1,130,10|0,3:2|2:0,2:0:0:0:
69,248,17842,2,0,B|51:191|51:191|73:125,1,130,2|0,2:0|2:0,2:0:0:0:
303,149,18114,6,0,P|280:248|201:140,1,299.000005702973,14|0,2:0|2:0,2:0:0:0:
253,61,18524,1,8,2:0:0:0:
352,9,18660,70,0,P|391:1|441:5,1,65,14|0,3:2|2:0,2:0:0:0:
438,109,18933,2,0,P|471:130|503:169,1,65,0|0,2:0|2:0,2:0:0:0:
408,223,19205,2,0,P|416:262|412:312,1,65,10|0,2:0|2:0,2:0:0:0:
308,357,19478,5,0,2:0:0:0:
308,357,19614,1,0,2:0:0:0:
187,311,19751,6,0,L|104:319,1,65,10|0,3:2|2:0,2:0:0:0:
101,175,20024,2,0,L|149:242,1,65,2|0,2:0|2:0,2:0:0:0:
21,323,20296,2,0,L|55:247,1,65,10|0,2:0|2:0,2:0:0:0:
101,175,20569,5,0,2:0:0:0:
101,175,20705,1,0,2:0:0:0:
183,78,20842,102,0,L|274:90,1,65,10|0,3:2|2:0,2:0:0:0:
210,180,21114,2,0,L|301:192,1,65,0|0,2:0|2:0,2:0:0:0:
409,249,21387,102,0,L|318:261,1,65,10|0,2:0|2:0,2:0:0:0:
382,351,21659,2,0,L|291:363,1,65,0|0,2:0|2:0,2:0:0:0:
506,292,21933,6,0,L|514:135,1,130,10|0,3:2|2:0,2:0:0:0:
50,45,22478,6,0,P|40:192|230:100,1,448.500008554459,14|0,2:0|2:0,2:0:0:0:
287,37,23024,6,0,P|333:18|369:23,1,65,10|0,3:2|2:0,2:0:0:0:
433,85,23296,2,0,P|452:131|447:167,1,65,0|0,2:0|2:0,2:0:0:0:
389,229,23569,2,0,P|343:248|307:243,1,65,10|0,2:0|2:0,2:0:0:0:
243,181,23841,2,0,P|224:135|229:99,1,65,0|0,2:0|2:0,2:0:0:0:
212,271,24114,102,0,L|129:277,1,65,10|0,3:2|2:0,2:0:0:0:
17,370,24387,2,0,L|63:300,1,65,2|0,2:0|2:0,2:0:0:0:
34,164,24660,2,0,L|64:227,1,65,10|0,2:0|2:0,2:0:0:0:
135,367,24933,5,0,2:0:0:0:
135,367,25069,1,0,2:0:0:0:
257,315,25205,6,0,L|346:324,1,65,10|0,3:2|2:0,2:0:0:0:
384,384,25478,2,0,L|436:311,1,65,2|0,2:0|2:0,2:0:0:0:
511,318,25751,2,0,L|474:236,1,65,10|0,2:0|2:0,2:0:0:0:
512,176,26024,2,0,L|422:166,1,65,2|0,2:0|2:0,2:0:0:0:
182,147,26296,5,12,2:0:0:0:
131,283,26433,1,2,2:0:0:0:
331,147,26569,5,12,2:0:0:0:
381,283,26706,1,2,2:0:0:0:
256,104,26842,101,12,2:0:0:0:
479,160,27114,6,0,P|487:199|483:234,1,65,0|0,2:0|2:0,2:0:0:0:
425,291,27387,2,0,P|344:298|288:310,1,130,10|0,2:0|2:0,2:0:0:0:
40,205,27933,2,0,P|121:198|177:186,1,130,2|0,2:0|2:0,2:0:0:0:
290,64,28342,1,0,2:0:0:0:
300,155,28478,2,0,P|267:155|240:139,1,65,2|0,2:0|2:0,2:0:0:0:
396,175,28751,6,0,B|390:252|390:252|392:257|392:257|387:324,1,136.499995834351,2|0,2:0|2:0,2:0:0:0:
393,319,29024,6,0,B|397:265|397:265|395:260|395:260|401:183,1,136.499995834351,2|0,2:0|2:0,2:0:0:0:
373,96,29296,2,0,P|411:92|446:106,1,65,0|0,2:0|2:0,2:0:0:0:
460,221,29569,6,0,P|395:198|323:225,1,130,2|0,2:0|2:0,2:0:0:0:
240,345,30114,2,0,P|175:369|102:349,1,130,2|0,2:0|2:0,2:0:0:0:
44,192,30524,1,0,2:0:0:0:
1,272,30660,2,0,P|35:284|72:281,1,65,2|0,2:0|2:0,2:0:0:0:
155,211,30933,70,0,B|168:115|168:115|141:73,1,136.499995834351,2|0,2:0|2:0,2:0:0:0:
154,78,31205,6,0,B|175:111|175:111|162:207,1,136.499995834351,2|0,2:0|2:0,2:0:0:0:
220,283,31478,2,0,P|256:302|300:290,1,65,0|0,2:0|2:0,2:0:0:0:
441,162,31751,6,0,P|372:145|273:234,1,195,2|0,2:0|2:0,2:0:0:0:
360,262,32296,1,2,2:0:0:0:
431,323,32433,1,0,2:0:0:0:
351,359,32569,1,0,2:0:0:0:
439,324,32705,1,0,2:0:0:0:
342,250,32842,6,0,L|268:239,1,65,2|0,2:0|2:0,2:0:0:0:
432,127,33114,2,0,L|496:117,1,65,2|0,2:0|2:0,2:0:0:0:
319,38,33387,2,0,L|254:28,1,65,2|0,2:0|2:0,2:0:0:0:
33,102,33660,5,0,2:0:0:0:
0,194,33796,1,0,2:0:0:0:
55,275,33933,2,0,P|98:281|206:303,1,130,2|0,2:0|2:0,2:0:0:0:
444,296,34478,102,0,P|460:259|456:222,1,65,2|0,2:0|2:0,2:0:0:0:
364,210,34751,2,0,P|347:246|351:283,1,65,2|0,2:0|2:0,2:0:0:0:
371,356,35024,5,6,2:0:0:0:
256,136,35296,1,2,2:0:0:0:
141,356,35569,1,6,2:0:0:0:
