osu file format v14

[General]
AudioFilename: audio.mp3
AudioLeadIn: 0
PreviewTime: 9589
Countdown: 0
SampleSet: Soft
StackLeniency: 0.7
Mode: 0
LetterboxInBreaks: 0
WidescreenStoryboard: 1

[Editor]
Bookmarks: 35634
DistanceSpacing: 1.3
BeatDivisor: 4
GridSize: 32
TimelineZoom: 1

[Metadata]
Title:There's A Cat Licking Your Birthday Cake
TitleUnicode:There's A Cat Licking Your Birthday Cake
Artist:Parry Gripp
ArtistUnicode:Parry Gripp
Creator:Tristan
Version::normal:
Source:
Tags:English Male Vocal Electronic Piano Novelty Theres Bday
BeatmapID:3367232
BeatmapSetID:1607656

[Difficulty]
HPDrainRate:3.5
CircleSize:2.5
OverallDifficulty:5
ApproachRate:4.5
SliderMultiplier:1.4
SliderTickRate:1

[Events]
//Background and Video events
0,0,"birthday kity.jpg",0,0
Video,76,"cat.avi"
//Break Periods
//Storyboard Layer 0 (Background)
//Storyboard Layer 1 (Fail)
//Storyboard Layer 2 (Pass)
//Storyboard Layer 3 (Foreground)
//Storyboard Layer 4 (Overlay)
//Storyboard Sound Samples

[TimingPoints]
-976,545.454545454546,4,2,0,60,1,0
9933,-100,4,2,0,70,0,0
11501,-100,4,2,0,5,0,0
11569,-100,4,2,0,70,0,0
11774,-100,4,2,0,5,0,0
11842,-100,4,2,0,70,0,0
13683,-100,4,2,0,5,0,0
13751,-100,4,2,0,70,0,0
13955,-100,4,2,0,5,0,0
14024,-100,4,2,0,70,0,0
17705,-100,4,2,0,5,0,0
17842,-100,4,2,0,70,0,0
17978,-100,4,2,0,5,0,0
18114,-100,4,2,0,70,0,0
27933,-100,4,2,0,60,0,0
28955,-100,4,2,0,5,0,0
29024,-100,4,2,0,60,0,0
29228,-100,4,2,0,5,0,0
29296,-100,4,2,0,60,0,0
31137,-100,4,2,0,5,0,0
31205,-100,4,2,0,60,0,0
31410,-100,4,2,0,5,0,0
31478,-100,4,2,0,60,0,0

[Colours]
Combo1 : 221,125,125
Combo2 : 204,157,255
SliderBorder : 124,239,239

[HitObjects]
64,219,114,6,0,B|57:183|57:183|80:134,2,70,0|0|0,2:0|2:0|2:0,0:0:0:0:
206,333,1205,6,0,B|282:339|282:339|291:345|291:345|369:352,1,140,2|2,2:0|2:0,2:0:0:0:
425,308,2024,1,0,2:0:0:0:
486,375,2296,2,0,P|516:323|488:241,1,140,2|2,2:0|2:0,2:0:0:0:
315,233,3387,6,0,B|249:238|249:238|240:245|240:245|153:253,1,140,2|2,2:0|2:0,2:0:0:0:
101,200,4206,1,0,2:0:0:0:
35,263,4478,2,0,P|30:303|52:342,2,70,2|0|2,2:0|2:0|2:0,2:0:0:0:
170,141,5569,6,0,P|265:149|321:167,1,140,2|2,2:0|2:0,2:0:0:0:
379,226,6387,1,0,2:0:0:0:
379,226,6660,2,0,L|374:306,2,70,2|2|2,2:0|2:0|2:0,2:0:0:0:
317,54,7751,6,0,L|151:60,1,140,2|2,2:0|2:0,2:0:0:0:
113,124,8569,1,0,2:0:0:0:
162,200,8842,2,0,P|170:232|153:283,2,70,2|0|2,2:0|2:0|2:0,2:0:0:0:
41,63,9933,6,0,P|17:122|54:199,1,140,10|10,3:2|2:0,2:0:0:0:
112,249,10751,1,0,2:0:0:0:
76,332,11024,2,0,L|-1:342,2,70,10|12|14,3:2|2:0|2:0,0:0:0:0:
200,199,12114,6,0,P|237:191|277:210,1,70,10|0,3:2|2:0,0:0:0:0:
314,279,12660,2,0,P|348:279|379:263,1,70,10|0,2:0|2:0,2:0:0:0:
436,192,13205,2,0,L|446:89,2,70,10|12|14,3:2|2:0|2:0,2:0:0:0:
499,257,14024,1,0,2:0:0:0:
451,334,14296,6,0,P|399:373|316:348,1,140,10|10,3:2|2:0,2:0:0:0:
283,287,15114,1,0,2:0:0:0:
283,287,15387,2,0,L|277:211,2,70,10|2|10,3:2|2:0|2:0,2:0:0:0:
220,353,16205,1,0,2:0:0:0:
144,301,16478,6,0,L|55:313,1,70,10|0,3:2|2:0,2:0:0:0:
4,251,17024,2,0,P|-5:212|9:171,1,70,10|0,2:0|2:0,2:0:0:0:
62,115,17569,1,10,3:2:0:0:
125,180,17842,2,0,P|164:192|203:184,1,70,2|14,2:0|2:0,2:0:0:0:
286,32,18660,6,0,L|283:121,1,70,14|0,3:2|2:0,2:0:0:0:
370,75,19205,2,0,L|367:164,1,70,10|0,2:0|2:0,2:0:0:0:
454,115,19751,2,0,L|451:204,2,70,10|2|10,3:2|2:0|2:0,2:0:0:0:
286,187,20842,6,0,L|289:276,1,70,10|0,3:2|2:0,2:0:0:0:
202,230,21387,2,0,L|205:319,1,70,10|0,2:0|2:0,2:0:0:0:
118,270,21933,2,0,L|121:359,1,70,10|0,3:2|2:0,2:0:0:0:
34,310,22478,1,14,2:0:0:0:
215,301,23024,6,0,L|212:212,1,70,10|0,3:2|2:0,2:0:0:0:
128,264,23569,2,0,L|126:195,1,70,10|0,2:0|2:0,2:0:0:0:
38,217,24115,2,0,L|35:128,2,70,10|2|10,3:2|2:0|2:0,2:0:0:0:
197,304,25205,6,0,L|272:297,2,70,10|2|10,3:2|2:0|2:0,2:0:0:0:
125,360,26024,1,2,2:0:0:0:
54,303,26296,1,12,3:2:0:0:
84,214,26569,1,12,2:0:0:0:
174,209,26842,1,12,2:0:0:0:
283,354,27387,6,0,L|428:369,1,140,10|2,2:0|2:0,2:0:0:0:
498,319,28205,1,0,2:0:0:0:
441,247,28478,2,0,P|434:213|440:179,2,70,2|2|2,2:0|2:0|2:0,2:0:0:0:
305,368,29569,6,0,L|166:382,1,140,2|2,2:0|2:0,2:0:0:0:
86,337,30387,1,0,2:0:0:0:
28,266,30660,2,0,P|22:231|39:185,2,70,2|2|2,2:0|2:0|2:0,2:0:0:0:
189,350,31751,6,0,B|282:363|282:363|338:330,1,140,2|2,2:0|2:0,2:0:0:0:
397,285,32569,1,0,2:0:0:0:
397,285,32842,2,0,L|485:276,2,70,2|2|2,2:0|2:0|2:0,2:0:0:0:
230,211,33933,6,0,P|208:173|242:78,1,140,2|2,2:0|2:0,2:0:0:0:
307,38,34751,1,2,2:0:0:0:
393,66,35024,1,6,2:0:0:0:
405,157,35297,1,2,2:0:0:0:
331,208,35569,1,6,2:0:0:0:
