osu file format v14

[General]
AudioFilename: audio.mp3
AudioLeadIn: 0
PreviewTime: 9589
Countdown: 0
SampleSet: Soft
StackLeniency: 0.7
Mode: 0
LetterboxInBreaks: 0
WidescreenStoryboard: 1

[Editor]
Bookmarks: 35634
DistanceSpacing: 1.6
BeatDivisor: 8
GridSize: 4
TimelineZoom: 1

[Metadata]
Title:There's A Cat Licking Your Birthday Cake
TitleUnicode:There's A Cat Licking Your Birthday Cake
Artist:Parry Gripp
ArtistUnicode:Parry Gripp
Creator:Tristan
Version::insane:
Source:
Tags:English Male Vocal Electronic Piano Novelty Theres Bday
BeatmapID:3367241
BeatmapSetID:1607656

[Difficulty]
HPDrainRate:4.5
CircleSize:3
OverallDifficulty:7.5
ApproachRate:8.5
SliderMultiplier:2.6
SliderTickRate:1

[Events]
//Background and Video events
0,0,"birthday kity.jpg",0,0
Video,76,"cat.avi"
//Break Periods
//Storyboard Layer 0 (Background)
//Storyboard Layer 1 (Fail)
//Storyboard Layer 2 (Pass)
//Storyboard Layer 3 (Foreground)
//Storyboard Layer 4 (Overlay)
//Storyboard Sound Samples

[TimingPoints]
-976,545.454545454546,4,2,0,60,1,0
9933,-86.9565217391304,4,2,0,70,0,0
11296,-55.5555555555556,4,2,0,70,0,0
11501,-55.5555555555556,4,2,0,5,0,0
11569,-50,4,2,0,70,0,0
11774,-50,4,2,0,5,0,0
11842,-86.9565217391304,4,2,0,70,0,0
13478,-55.5555555555556,4,2,0,70,0,0
13683,-55.5555555555556,4,2,0,5,0,0
13751,-50,4,2,0,70,0,0
13955,-50,4,2,0,5,0,0
14024,-86.9565217391304,4,2,0,70,0,0
14296,-66.6666666666667,4,2,0,70,0,0
14842,-86.9565217391304,4,2,0,70,0,0
17705,-86.9565217391304,4,2,0,5,0,0
17842,-86.9565217391304,4,2,0,70,0,0
17978,-86.9565217391304,4,2,0,5,0,0
18114,-66.6666666666667,4,2,0,70,0,0
18660,-100,4,2,0,70,0,0
22478,-66.6666666666667,4,2,0,70,0,0
23024,-100,4,2,0,70,0,0
27933,-100,4,2,0,60,0,0
28751,-66.6666666666667,4,2,0,60,0,0
28955,-66.6666666666667,4,2,0,5,0,0
29024,-60.6060606060606,4,2,0,60,0,0
29228,-60.6060606060606,4,2,0,5,0,0
29296,-100,4,2,0,60,0,0
30933,-66.6666666666667,4,2,0,60,0,0
31137,-66.6666666666667,4,2,0,5,0,0
31205,-60.6060606060606,4,2,0,60,0,0
31410,-60.6060606060606,4,2,0,5,0,0
31478,-100,4,2,0,60,0,0

[Colours]
Combo1 : 221,125,125
Combo2 : 204,157,255
SliderBorder : 124,239,239

[HitObjects]
0,96,114,5,0,2:0:0:0:
57,126,251,1,2,2:0:0:0:
119,114,387,1,0,2:0:0:0:
163,66,524,1,2,2:0:0:0:
166,1,660,1,0,2:0:0:0:
9,201,933,6,0,L|0:291,1,65,0|0,2:0|2:0,2:0:0:0:
60,335,1205,2,0,B|136:332|105:381|197:380,1,130,2|0,2:0|2:0,2:0:0:0:
340,218,1751,2,0,B|264:215|295:264|203:263,1,130,2|0,2:0|2:0,2:0:0:0:
153,198,2160,1,0,2:0:0:0:
222,138,2296,2,0,B|243:75|243:75|220:4,2,130,2|0|2,2:0|2:0|2:0,2:0:0:0:
78,258,3114,6,0,P|42:261|-1:267,1,65,0|0,2:0|2:0,0:0:0:0:
147,324,3387,2,0,P|199:331|287:345,1,130,2|0,2:0|2:0,2:0:0:0:
401,176,3933,2,0,P|349:183|261:197,1,130,2|0,2:0|2:0,2:0:0:0:
209,263,4342,1,0,2:0:0:0:
141,205,4478,2,0,B|119:146|119:146|147:77,2,130,2|0|2,2:0|2:0|2:0,2:0:0:0:
29,330,5296,5,0,2:0:0:0:
112,367,5433,1,0,2:0:0:0:
209,264,5569,2,0,P|262:256|403:318,1,195,2|0,2:0|2:0,2:0:0:0:
483,283,6114,2,0,L|492:215,1,65,2|0,2:0|2:0,0:0:0:0:
432,157,6387,2,0,L|423:89,1,65,0|0,2:0|2:0,0:0:0:0:
473,27,6660,2,0,P|412:11|350:50,2,130,2|2|2,2:0|2:0|2:0,2:0:0:0:
474,229,7478,6,0,P|422:241|396:226,1,65,0|0,2:0|2:0,0:0:0:0:
332,193,7751,2,0,P|272:181|199:222,1,130,2|0,2:0|2:0,2:0:0:0:
160,341,8296,2,0,P|100:353|27:312,1,130,2|0,2:0|2:0,2:0:0:0:
4,240,8705,1,0,2:0:0:0:
4,240,8842,2,0,L|1:107,1,130,2|0,2:0|2:0,2:0:0:0:
154,2,9387,1,2,2:0:0:0:
307,159,9660,5,0,2:0:0:0:
182,235,9796,1,0,2:0:0:0:
295,327,9933,2,0,B|381:320|343:380|451:371,1,149.500002851486,10|0,3:2|2:0,2:0:0:0:
508,242,10342,1,0,2:0:0:0:
404,193,10478,2,0,P|385:234|398:279,1,74.7500014257431,10|0,2:0|2:0,2:0:0:0:
504,123,10751,1,0,2:0:0:0:
409,53,10887,1,0,2:0:0:0:
303,120,11024,2,0,P|268:134|231:136,1,74.7500014257431,10|0,3:2|2:0,0:0:0:0:
75,84,11296,6,0,P|111:14|162:75,1,175.499994644165,12|0,2:0|2:0,2:0:0:0:
174,60,11569,6,0,P|94:11|82:109,1,195,14|0,2:0|2:0,2:0:0:0:
141,151,11842,1,0,2:0:0:0:
63,309,12114,5,10,3:2:0:0:
189,322,12251,1,0,2:0:0:0:
49,303,12387,1,0,2:0:0:0:
204,324,12524,1,0,2:0:0:0:
119,375,12660,2,0,L|128:275,1,74.7500014257431,10|0,2:0|2:0,2:0:0:0:
188,226,12933,1,0,2:0:0:0:
302,199,13069,1,0,2:0:0:0:
374,288,13205,2,0,P|428:302|469:296,1,74.7500014257431,10|0,3:2|2:0,2:0:0:0:
489,202,13478,6,0,B|493:113|493:113|497:110|497:110|501:15,1,175.499994644165,12|0,2:0|2:0,2:0:0:0:
512,20,13751,6,0,B|508:120|508:120|505:122|505:122|498:218,1,195,14|0,2:0|2:0,2:0:0:0:
420,313,14024,2,0,P|383:317|349:332,1,74.7500014257431,0|0,2:0|2:0,0:0:0:0:
217,249,14296,6,0,P|202:179|341:216,1,292.50001115799,10|0,3:2|2:0,2:0:0:0:
268,327,14842,2,0,P|222:347|176:341,1,74.7500014257431,10|0,2:0|2:0,0:0:0:0:
124,293,15114,2,0,P|78:273|32:279,1,74.7500014257431,0|0,2:0|2:0,0:0:0:0:
7,198,15387,2,0,L|1:47,2,149.500002851486,10|2|10,3:2|2:0|2:0,2:0:0:0:
61,357,16205,5,0,2:0:0:0:
175,384,16342,1,0,2:0:0:0:
262,308,16478,2,0,P|300:284|412:298,1,149.500002851486,10|0,3:2|2:0,2:0:0:0:
462,144,17024,2,0,P|409:139|384:114,1,74.7500014257431,10|0,2:0|2:0,2:0:0:0:
314,74,17296,1,0,2:0:0:0:
314,74,17433,1,0,2:0:0:0:
224,138,17569,6,0,L|209:229,1,74.7500014257431,10|0,3:2|2:0,2:0:0:0:
42,212,17842,2,0,L|29:138,1,74.7500014257431,2|0,2:0|2:0,2:0:0:0:
126,76,18114,6,0,B|126:160|126:160|120:164|120:164|131:164|131:164|126:168|126:168|126:272,1,195.00000743866,14|0,2:0|2:0,2:0:0:0:
123,342,18524,1,8,2:0:0:0:
205,297,18660,6,0,P|238:283|291:291,1,65,14|0,3:2|2:0,2:0:0:0:
303,200,18933,2,0,P|331:221|351:271,1,65,0|0,2:0|2:0,2:0:0:0:
437,239,19205,2,0,P|432:274|399:316,1,65,10|0,2:0|2:0,2:0:0:0:
337,348,19478,5,0,2:0:0:0:
337,348,19614,1,0,2:0:0:0:
428,295,19751,6,0,P|443:267|447:235,1,65,10|0,3:2|2:0,2:0:0:0:
356,242,20023,2,0,P|339:214|313:196,1,65,2|0,2:0|2:0,2:0:0:0:
276,278,20296,2,0,P|244:279|215:292,1,65,10|0,2:0|2:0,2:0:0:0:
130,343,20569,5,0,2:0:0:0:
130,343,20705,1,0,2:0:0:0:
44,284,20842,6,0,L|29:196,1,65,10|0,3:2|2:0,2:0:0:0:
111,178,21114,2,0,L|121:242,1,65,0|0,2:0|2:0,2:0:0:0:
275,209,21387,6,0,L|290:121,1,65,10|0,2:0|2:0,2:0:0:0:
208,103,21659,2,0,L|197:167,1,65,0|0,2:0|2:0,2:0:0:0:
222,291,21933,2,0,P|336:312|360:319,1,130,10|0,3:2|2:0,2:0:0:0:
466,58,22478,6,0,B|405:9|319:61|356:102|271:165|196:93,1,292.50001115799,14|0,2:0|2:0,2:0:0:0:
160,32,23024,6,0,P|129:65|118:108,1,65,10|0,3:2|2:0,2:0:0:0:
31,86,23296,2,0,P|44:129|75:160,1,65,0|0,2:0|2:0,2:0:0:0:
15,226,23569,2,0,P|59:236|101:224,1,65,10|0,2:0|2:0,2:0:0:0:
126,310,23841,2,0,P|157:277|168:234,1,65,0|0,2:0|2:0,2:0:0:0:
70,231,24114,6,0,P|37:230|7:217,1,65,10|0,3:2|2:0,2:0:0:0:
57,132,24387,2,0,P|41:103|37:71,1,65,2|0,2:0|2:0,2:0:0:0:
134,88,24659,2,0,P|151:60|176:40,1,65,10|0,2:0|2:0,2:0:0:0:
270,20,24933,5,0,2:0:0:0:
270,20,25069,1,0,2:0:0:0:
335,92,25205,6,0,L|421:103,1,65,10|0,3:2|2:0,2:0:0:0:
484,79,25478,2,0,P|485:122|468:148,1,65,2|0,2:0|2:0,2:0:0:0:
489,236,25751,2,0,L|403:225,1,65,10|0,2:0|2:0,2:0:0:0:
340,249,26024,2,0,P|339:206|356:180,1,65,2|0,2:0|2:0,2:0:0:0:
432,322,26296,5,12,3:2:0:0:
258,328,26433,1,2,2:0:0:0:
448,336,26569,5,12,2:0:0:0:
243,342,26706,1,2,2:0:0:0:
349,378,26842,5,12,2:0:0:0:
252,234,27114,6,0,P|215:241|185:266,1,65,0|0,2:0|2:0,2:0:0:0:
133,317,27387,2,0,P|79:337|20:291,1,130,10|0,2:0|2:0,2:0:0:0:
82,152,27933,2,0,P|132:132|201:174,1,130,2|0,2:0|2:0,2:0:0:0:
252,234,28342,1,0,2:0:0:0:
321,292,28478,2,0,L|395:301,1,65,2|0,2:0|2:0,2:0:0:0:
456,240,28751,6,0,P|482:294|430:376,1,146.250005578995,2|0,2:0|2:0,2:0:0:0:
457,373,29024,6,0,P|490:303|457:228,1,160.875001534224,2|0,2:0|2:0,2:0:0:0:
400,161,29296,2,0,P|387:115|400:88,1,65,0|0,2:0|2:0,2:0:0:0:
326,38,29569,6,0,L|177:23,1,130,2|0,2:0|2:0,2:0:0:0:
39,172,30114,2,0,L|188:157,1,130,2|0,2:0|2:0,2:0:0:0:
252,117,30524,1,0,2:0:0:0:
312,184,30660,2,0,P|320:220|306:253,1,65,2|0,2:0|2:0,2:0:0:0:
237,291,30933,6,0,P|280:330|371:308,1,146.250005578995,2|0,2:0|2:0,2:0:0:0:
365,323,31205,6,0,P|287:342|226:289,1,160.875001534224,2|0,2:0|2:0,2:0:0:0:
180,216,31478,2,0,L|102:209,1,65,0|0,2:0|2:0,2:0:0:0:
25,279,31751,6,0,P|63:261|62:114,1,195,2|0,2:0|2:0,2:0:0:0:
12,68,32296,2,0,P|37:45|91:51,1,65,2|0,2:0|2:0,0:0:0:0:
149,85,32569,2,0,P|174:108|228:102,1,65,0|0,2:0|2:0,0:0:0:0:
293,39,32842,2,0,B|286:104|286:104|289:108|289:108|281:189,2,130,2|2|2,2:0|2:0|2:0,2:0:0:0:
458,0,33660,6,0,P|473:29|466:68,1,65,0|0,2:0|2:0,0:0:0:0:
408,115,33933,2,0,P|370:169|395:237,1,130,2|0,2:0|2:0,2:0:0:0:
510,332,34478,2,0,P|478:313|423:321,1,65,2|0,2:0|2:0,2:0:0:0:
373,348,34751,2,0,P|341:367|286:359,1,65,2|0,2:0|2:0,2:0:0:0:
239,320,35024,5,6,2:0:0:0:
95,152,35296,1,2,2:0:0:0:
22,361,35569,1,6,2:0:0:0:
