osu file format v14

[General]
AudioFilename: audio.mp3
AudioLeadIn: 0
PreviewTime: 2957
Countdown: 0
SampleSet: Normal
StackLeniency: 0.7
Mode: 1
LetterboxInBreaks: 0
WidescreenStoryboard: 1

[Editor]
DistanceSpacing: 1
BeatDivisor: 4
GridSize: 32
TimelineZoom: 1

[Metadata]
Title:The Guinea Pig Is In Your Mind
TitleUnicode:The Guinea Pig Is In Your Mind
Artist:Parry Gripp
ArtistUnicode:Parry Gripp
Creator:Wanpachi
Version:Muzukashii
Source:
Tags:rock english rodent percussion band hivie cycopton
BeatmapID:2409602
BeatmapSetID:1154561

[Difficulty]
HPDrainRate:7
CircleSize:2
OverallDifficulty:5
ApproachRate:10
SliderMultiplier:1.4
SliderTickRate:1

[Events]
//Background and Video events
0,0,"wanpachi.jpg",0,0
//Break Periods
//Storyboard Layer 0 (Background)
//Storyboard Layer 1 (Fail)
//Storyboard Layer 2 (Pass)
//Storyboard Layer 3 (Foreground)
//Storyboard Layer 4 (Overlay)
//Storyboard Sound Samples

[TimingPoints]
208,333.333333333333,4,1,0,5,1,0
874,-100,4,1,0,15,0,0
1541,-100,4,1,0,30,0,0
2207,-100,4,1,0,45,0,0
2874,-100,4,1,0,5,0,0
3041,-100,4,1,0,40,0,0
4208,-100,4,1,0,70,0,0
13707,-100,4,1,0,40,0,0
14874,-100,4,1,0,70,0,0
25541,-100,4,1,0,80,0,0
36207,-100,4,1,0,90,0,1
41541,-100,4,1,0,60,0,0
45707,-100,4,1,0,5,0,0
46874,-100,4,1,0,15,0,0
48207,-100,4,1,0,30,0,0
49541,-100,4,1,0,45,0,0
50874,-100,4,1,0,60,0,0
53541,-100,4,1,0,5,0,0

[Colours]
Combo1 : 183,0,0
Combo2 : 255,107,36
Combo3 : 221,221,221

[HitObjects]
256,192,208,8,0,2874,0:0:0:0:
160,96,3041,5,0,0:0:0:0:
352,96,3207,1,8,0:0:0:0:
160,96,3374,1,0,0:0:0:0:
352,96,3541,1,8,0:0:0:0:
160,96,3874,1,0,0:0:0:0:
352,96,4041,1,8,0:0:0:0:
160,288,4207,1,4,0:0:0:0:
352,96,4541,1,8,0:0:0:0:
160,96,4874,1,0,0:0:0:0:
160,96,5041,1,0,0:0:0:0:
352,96,5207,1,8,0:0:0:0:
160,96,5374,1,0,0:0:0:0:
160,96,5707,1,0,0:0:0:0:
352,96,5874,1,8,0:0:0:0:
352,96,6207,1,8,0:0:0:0:
160,96,6374,1,0,0:0:0:0:
352,96,6541,1,8,0:0:0:0:
160,96,6707,1,0,0:0:0:0:
160,96,6791,1,0,0:0:0:0:
160,96,6874,1,0,0:0:0:0:
352,96,7207,1,8,0:0:0:0:
160,96,7541,1,8,0:0:0:0:
160,96,7707,1,0,0:0:0:0:
352,96,7874,1,8,0:0:0:0:
160,96,8041,1,0,0:0:0:0:
160,96,8374,1,0,0:0:0:0:
352,96,8541,1,8,0:0:0:0:
160,96,8874,1,0,0:0:0:0:
352,96,9041,1,8,0:0:0:0:
352,96,9124,1,8,0:0:0:0:
352,96,9207,1,8,0:0:0:0:
160,288,9374,1,4,0:0:0:0:
160,96,9707,1,0,0:0:0:0:
352,96,9874,1,8,0:0:0:0:
160,96,10207,1,0,0:0:0:0:
160,96,10374,1,0,0:0:0:0:
352,96,10541,1,8,0:0:0:0:
160,288,10707,1,4,0:0:0:0:
352,96,11207,1,8,0:0:0:0:
352,96,11541,1,8,0:0:0:0:
160,96,11707,1,0,0:0:0:0:
352,96,11874,1,8,0:0:0:0:
160,288,12041,1,4,0:0:0:0:
352,96,12541,1,8,0:0:0:0:
352,96,12874,1,8,0:0:0:0:
352,96,13041,1,8,0:0:0:0:
160,96,13207,1,0,0:0:0:0:
352,96,13374,1,8,0:0:0:0:
160,96,13707,1,0,0:0:0:0:
352,96,13874,1,8,0:0:0:0:
160,96,14041,1,0,0:0:0:0:
352,96,14207,1,8,0:0:0:0:
160,96,14541,1,0,0:0:0:0:
352,96,14707,1,8,0:0:0:0:
160,288,14874,1,4,0:0:0:0:
352,96,15207,1,8,0:0:0:0:
160,96,15541,1,0,0:0:0:0:
160,96,15707,1,0,0:0:0:0:
352,96,15874,1,8,0:0:0:0:
160,96,16041,1,0,0:0:0:0:
160,96,16374,1,0,0:0:0:0:
352,96,16541,1,8,0:0:0:0:
352,96,16874,1,8,0:0:0:0:
160,96,17041,1,0,0:0:0:0:
352,96,17207,1,8,0:0:0:0:
160,96,17374,1,0,0:0:0:0:
160,96,17457,1,0,0:0:0:0:
160,96,17541,1,0,0:0:0:0:
352,96,17874,1,8,0:0:0:0:
160,96,18207,1,8,0:0:0:0:
160,96,18374,1,0,0:0:0:0:
352,96,18541,1,8,0:0:0:0:
160,96,18707,1,0,0:0:0:0:
160,96,19041,1,0,0:0:0:0:
352,96,19207,1,8,0:0:0:0:
160,96,19541,1,0,0:0:0:0:
352,96,19707,1,8,0:0:0:0:
352,96,19791,1,8,0:0:0:0:
352,96,19874,1,8,0:0:0:0:
160,288,20041,1,4,0:0:0:0:
160,96,20374,1,0,0:0:0:0:
352,96,20541,1,8,0:0:0:0:
160,96,20874,1,0,0:0:0:0:
160,96,21041,1,0,0:0:0:0:
352,96,21207,1,8,0:0:0:0:
160,288,21374,1,4,0:0:0:0:
352,96,21874,1,8,0:0:0:0:
352,96,22207,1,8,0:0:0:0:
160,96,22374,1,0,0:0:0:0:
352,96,22541,1,8,0:0:0:0:
160,288,22707,1,4,0:0:0:0:
352,96,23207,1,8,0:0:0:0:
352,96,23541,1,8,0:0:0:0:
352,96,23707,1,8,0:0:0:0:
160,96,23874,1,0,0:0:0:0:
352,96,24041,1,8,0:0:0:0:
160,288,25541,1,4,0:0:0:0:
352,96,25874,1,8,0:0:0:0:
160,96,26207,1,0,0:0:0:0:
160,96,26374,1,0,0:0:0:0:
352,96,26541,1,8,0:0:0:0:
160,288,26707,1,4,0:0:0:0:
352,96,27207,1,8,0:0:0:0:
352,96,27541,1,8,0:0:0:0:
160,96,27707,1,0,0:0:0:0:
352,96,27874,1,8,0:0:0:0:
160,288,28041,1,4,0:0:0:0:
352,96,28541,1,8,0:0:0:0:
352,96,28874,1,8,0:0:0:0:
352,96,29041,1,8,0:0:0:0:
352,96,29207,1,8,0:0:0:0:
160,288,29374,1,4,0:0:0:0:
352,96,29874,1,8,0:0:0:0:
352,96,30041,1,8,0:0:0:0:
352,96,30207,1,0,0:0:0:0:
352,96,30541,1,8,0:0:0:0:
352,96,30624,1,8,0:0:0:0:
352,96,30707,1,8,0:0:0:0:
160,288,30874,1,4,0:0:0:0:
352,96,31207,1,8,0:0:0:0:
160,96,31541,1,0,0:0:0:0:
160,96,31707,1,0,0:0:0:0:
352,96,31874,1,8,0:0:0:0:
160,288,32041,1,4,0:0:0:0:
352,96,32541,1,8,0:0:0:0:
352,96,32874,1,8,0:0:0:0:
160,96,33041,1,0,0:0:0:0:
352,96,33207,1,8,0:0:0:0:
160,288,33374,1,4,0:0:0:0:
352,96,33874,1,8,0:0:0:0:
352,96,34207,1,8,0:0:0:0:
352,96,34374,1,8,0:0:0:0:
352,96,34541,1,8,0:0:0:0:
160,288,34707,1,4,0:0:0:0:
352,96,35207,1,8,0:0:0:0:
352,96,35374,1,8,0:0:0:0:
352,96,35541,1,8,0:0:0:0:
352,96,35874,1,8,0:0:0:0:
352,96,35957,1,8,0:0:0:0:
352,96,36041,1,8,0:0:0:0:
160,288,36207,1,4,0:0:0:0:
352,96,36541,1,8,0:0:0:0:
160,96,36874,1,0,0:0:0:0:
160,96,37041,1,0,0:0:0:0:
352,96,37207,1,8,0:0:0:0:
160,288,37374,1,4,0:0:0:0:
160,96,37707,1,0,0:0:0:0:
352,96,37874,1,8,0:0:0:0:
160,96,38207,1,0,0:0:0:0:
352,96,38374,1,8,0:0:0:0:
352,96,38457,1,8,0:0:0:0:
352,96,38541,1,8,0:0:0:0:
160,288,38707,1,4,0:0:0:0:
160,96,39041,1,0,0:0:0:0:
352,96,39207,1,8,0:0:0:0:
352,96,39541,1,8,0:0:0:0:
160,96,39707,1,0,0:0:0:0:
352,96,39874,1,8,0:0:0:0:
160,288,40041,1,4,0:0:0:0:
160,96,40374,1,0,0:0:0:0:
352,96,40541,1,8,0:0:0:0:
160,96,40707,1,0,0:0:0:0:
160,96,40874,1,0,0:0:0:0:
352,96,41207,1,8,0:0:0:0:
352,96,41291,1,8,0:0:0:0:
352,96,41374,1,8,0:0:0:0:
160,96,41541,1,4,0:0:0:0:
160,96,42874,1,4,0:0:0:0:
352,96,44207,1,12,0:0:0:0:
352,96,44874,1,8,0:0:0:0:
160,96,45096,1,0,0:0:0:0:
160,96,45319,1,0,0:0:0:0:
352,96,45541,1,12,0:0:0:0:
256,192,45707,8,0,53541,0:0:0:0:
