osu file format v14

[General]
AudioFilename: audio.mp3
AudioLeadIn: 0
PreviewTime: 2957
Countdown: 0
SampleSet: Normal
StackLeniency: 0.7
Mode: 1
LetterboxInBreaks: 0
WidescreenStoryboard: 1

[Editor]
DistanceSpacing: 1
BeatDivisor: 4
GridSize: 32
TimelineZoom: 1

[Metadata]
Title:The Guinea Pig Is In Your Mind
TitleUnicode:The Guinea Pig Is In Your Mind
Artist:Parry Gripp
ArtistUnicode:Parry Gripp
Creator:Wanpachi
Version:Kantan
Source:
Tags:rock english rodent percussion band hivie cycopton
BeatmapID:2409617
BeatmapSetID:1154561

[Difficulty]
HPDrainRate:9
CircleSize:2
OverallDifficulty:3
ApproachRate:10
SliderMultiplier:1.4
SliderTickRate:1

[Events]
//Background and Video events
0,0,"wanpachi.jpg",0,0
//Break Periods
//Storyboard Layer 0 (Background)
//Storyboard Layer 1 (Fail)
//Storyboard Layer 2 (Pass)
//Storyboard Layer 3 (Foreground)
//Storyboard Layer 4 (Overlay)
//Storyboard Sound Samples

[TimingPoints]
208,333.333333333333,4,1,0,5,1,0
874,-100,4,1,0,15,0,0
1541,-100,4,1,0,30,0,0
2207,-100,4,1,0,45,0,0
2874,-100,4,1,0,5,0,0
3041,-100,4,1,0,40,0,0
4208,-100,4,1,0,70,0,0
13707,-100,4,1,0,40,0,0
14874,-100,4,1,0,70,0,0
25541,-100,4,1,0,80,0,0
36207,-100,4,1,0,90,0,1
41541,-100,4,1,0,60,0,0
45707,-100,4,1,0,5,0,0
46874,-100,4,1,0,15,0,0
48207,-100,4,1,0,30,0,0
49541,-100,4,1,0,45,0,0
50874,-100,4,1,0,60,0,0
53541,-100,4,1,0,5,0,0

[Colours]
Combo1 : 183,0,0
Combo2 : 255,107,36
Combo3 : 221,221,221

[HitObjects]
256,192,208,8,0,2874,0:0:0:0:
256,192,3041,5,8,0:0:0:0:
256,192,3541,1,8,0:0:0:0:
160,288,4207,1,4,0:0:0:0:
160,96,4874,1,0,0:0:0:0:
160,96,5374,1,0,0:0:0:0:
352,96,5874,1,8,0:0:0:0:
352,96,6207,1,8,0:0:0:0:
160,96,6874,1,0,0:0:0:0:
160,96,7541,1,8,0:0:0:0:
160,96,8041,1,0,0:0:0:0:
352,96,8541,1,8,0:0:0:0:
160,96,8874,1,0,0:0:0:0:
160,288,9374,1,4,0:0:0:0:
256,192,9874,1,8,0:0:0:0:
160,288,10707,1,4,0:0:0:0:
352,96,11207,1,8,0:0:0:0:
160,288,12041,1,4,0:0:0:0:
352,96,12874,1,0,0:0:0:0:
160,96,13374,1,8,0:0:0:0:
160,288,14874,1,4,0:0:0:0:
160,96,15541,1,0,0:0:0:0:
160,96,16041,1,0,0:0:0:0:
352,96,16541,1,8,0:0:0:0:
352,96,16874,1,8,0:0:0:0:
160,96,17541,1,0,0:0:0:0:
160,96,18207,1,8,0:0:0:0:
160,96,18707,1,0,0:0:0:0:
352,96,19207,1,8,0:0:0:0:
160,96,19541,1,0,0:0:0:0:
160,288,20041,1,4,0:0:0:0:
256,192,20541,1,8,0:0:0:0:
160,288,21374,1,4,0:0:0:0:
352,96,21874,1,8,0:0:0:0:
160,288,22707,1,4,0:0:0:0:
352,96,23541,1,8,0:0:0:0:
160,96,24041,1,0,0:0:0:0:
160,288,25541,1,4,0:0:0:0:
160,96,26207,1,0,0:0:0:0:
160,288,26707,1,4,0:0:0:0:
352,96,27541,1,8,0:0:0:0:
160,288,28041,1,4,0:0:0:0:
352,96,28874,1,8,0:0:0:0:
160,288,29374,1,4,0:0:0:0:
256,192,30207,1,8,0:0:0:0:
256,192,30541,1,8,0:0:0:0:
160,288,30874,1,4,0:0:0:0:
160,96,31541,1,0,0:0:0:0:
160,288,32041,1,4,0:0:0:0:
352,96,32874,1,8,0:0:0:0:
160,288,33374,1,4,0:0:0:0:
352,96,34207,1,8,0:0:0:0:
160,288,34707,1,4,0:0:0:0:
256,192,35207,1,8,0:0:0:0:
160,288,36207,1,4,0:0:0:0:
160,96,36874,1,0,0:0:0:0:
160,288,37374,1,4,0:0:0:0:
352,96,37874,1,8,0:0:0:0:
160,96,38207,1,0,0:0:0:0:
160,288,38707,1,4,0:0:0:0:
352,96,39207,1,8,0:0:0:0:
352,96,39541,1,8,0:0:0:0:
160,288,40041,1,4,0:0:0:0:
352,96,40541,1,8,0:0:0:0:
160,96,40874,1,0,0:0:0:0:
352,96,41207,1,8,0:0:0:0:
160,96,41541,1,0,0:0:0:0:
160,96,42874,1,0,0:0:0:0:
352,96,44207,1,8,0:0:0:0:
352,96,45541,1,8,0:0:0:0:
256,192,45707,8,0,53541,0:0:0:0:
