osu file format v14

[General]
AudioFilename: audio.mp3
AudioLeadIn: 0
PreviewTime: 2940
Countdown: 0
SampleSet: Soft
StackLeniency: 0.7
Mode: 0
LetterboxInBreaks: 0
WidescreenStoryboard: 1

[Editor]
DistanceSpacing: 2.4
BeatDivisor: 16
GridSize: 32
TimelineZoom: 6.499996

[Metadata]
Title:The Guinea Pig Is In Your Mind
TitleUnicode:The Guinea Pig Is In Your Mind
Artist:Parry Gripp
ArtistUnicode:Parry Gripp
Creator:Sotarks
Version:SMOKELIND's Insane
Source:
Tags:ayyri eiri- trynna yasuho armin a_r_m_i_n reform kujinn basensorex kowari smokelind english male vocalist children music pop rock
BeatmapID:2409645
BeatmapSetID:1154585

[Difficulty]
HPDrainRate:4.7
CircleSize:4
OverallDifficulty:8.4
ApproachRate:9
SliderMultiplier:1.57
SliderTickRate:1

[Events]
//Background and Video events
0,0,"mind reader.jpg",0,0
//Break Periods
//Storyboard Layer 0 (Background)
//Storyboard Layer 1 (Fail)
//Storyboard Layer 2 (Pass)
//Storyboard Layer 3 (Foreground)
//Storyboard Layer 4 (Overlay)
//Storyboard Sound Samples

[TimingPoints]
2857,333.333333333333,4,2,22,72,1,0
4190,333.333333333333,4,2,22,72,1,8
4206,333.333333333333,4,2,22,72,1,0
4206,-93.4579439252336,4,2,22,72,0,0
36205,-85.4700854700855,4,2,22,82,0,0
41539,-212.765957446809,4,2,22,72,0,0
42789,-212.765957446809,4,2,22,5,0,0
42872,-175.438596491228,4,2,22,72,0,0
44122,-175.438596491228,4,2,22,5,0,0
44205,-149.253731343284,4,2,22,72,0,0
44789,-149.253731343284,4,2,22,5,0,0
44872,-129.87012987013,4,2,22,72,0,0
45539,-1000,4,2,22,72,0,0
45622,-1000,4,2,22,5,0,0
57372,-1000,4,2,22,5,0,0

[Colours]
Combo1 : 231,204,165
Combo2 : 172,114,89

[HitObjects]
79,60,4206,6,0,P|110:30|175:26,1,83.9949974366761,6|0,1:2|0:2,0:0:0:0:
290,170,4539,2,0,P|249:159|220:130,1,83.9949974366761,8|0,0:2|0:2,0:0:0:0:
368,29,4872,1,0,1:2:0:0:
447,186,5039,2,0,P|432:230|426:296,1,83.9949974366761,4|8,0:3|0:2,0:0:0:0:
214,375,5372,6,0,P|201:285|177:195,1,167.989994873352,0|0,1:2|3:0,0:0:0:0:
58,51,5872,1,10,0:2:0:0:
24,229,6039,1,0,0:2:0:0:
147,32,6205,1,2,1:2:0:0:
181,210,6372,1,4,0:3:0:0:
44,32,6539,1,10,0:2:0:0:
107,263,6705,5,2,3:2:0:0:
107,263,6789,1,0,3:2:0:0:
107,263,6872,2,0,P|143:291|197:290,1,83.9949974366761,2|0,1:2|0:2,0:0:0:0:
336,178,7205,2,0,P|294:183|262:209,1,83.9949974366761,8|0,0:2|0:2,0:0:0:0:
375,295,7539,1,0,1:2:0:0:
421,117,7705,2,0,P|388:91|347:86,1,83.9949974366761,4|8,0:3|0:2,0:0:0:0:
386,323,8039,6,0,B|485:291|408:235|531:206,1,167.989994873352,0|0,1:2|3:2,0:0:0:0:
262,208,8539,2,0,P|278:249|285:305,1,83.9949974366761,10|0,0:2|0:2,0:0:0:0:
168,204,8872,1,2,1:2:0:0:
274,49,9039,1,2,1:2:0:0:
274,49,9122,1,8,0:2:0:0:
274,49,9205,2,0,L|328:45,1,41.9974987183381,8|4,0:3|0:3,0:0:0:0:
182,181,9372,6,0,L|4:158,1,167.989994873352,6|0,1:2|3:2,0:0:0:0:
287,126,9872,2,0,P|296:170|299:217,1,83.9949974366761,10|0,0:2|0:2,0:0:0:0:
200,322,10205,1,2,1:2:0:0:
390,210,10372,2,0,P|381:254|378:301,1,83.9949974366761,4|8,0:3|0:2,0:0:0:0:
295,104,10705,6,0,P|358:59|465:103,1,167.989994873352,6|0,1:2|3:2,0:0:0:0:
292,215,11205,2,0,P|256:194|201:185,1,83.9949974366761,8|0,0:2|0:2,0:0:0:0:
300,322,11539,1,2,1:2:0:0:
68,244,11705,2,0,P|85:287|92:339,1,83.9949974366761,4|8,0:3|0:2,0:0:0:0:
205,94,12039,6,0,P|172:189|163:274,1,167.989994873352,6|0,1:2|3:2,0:0:0:0:
117,55,12539,2,0,P|82:26|22:22,1,83.9949974366761,8|0,0:2|0:2,0:0:0:0:
147,169,12872,1,0,1:2:0:0:
271,21,13039,2,0,P|311:1|371:11,1,83.9949974366761,4|8,0:3|0:2,0:0:0:0:
430,184,13372,1,8,0:3:0:0:
430,184,14872,6,0,P|435:133|450:66,1,83.9949974366761,6|0,1:2|0:2,0:0:0:0:
295,279,15205,2,0,P|290:228|275:161,1,83.9949974366761,8|0,0:2|0:2,0:0:0:0:
161,110,15539,1,0,1:2:0:0:
349,23,15705,2,0,P|341:64|338:106,1,83.9949974366761,4|8,0:3|0:2,0:0:0:0:
178,263,16039,6,0,P|92:271|61:139,1,167.989994873352,0|0,1:2|3:2,0:0:0:0:
183,23,16539,1,10,0:2:0:0:
152,176,16705,1,0,0:2:0:0:
284,61,16872,1,2,1:2:0:0:
315,214,17038,1,4,0:3:0:0:
164,36,17205,1,10,0:2:0:0:
308,185,17372,5,2,3:2:0:0:
308,185,17455,1,0,3:2:0:0:
308,185,17539,2,0,P|350:172|408:166,1,83.9949974366761,2|2,1:2|0:2,0:0:0:0:
299,352,17872,2,0,P|257:339|199:333,1,83.9949974366761,8|0,0:2|0:2,0:0:0:0:
400,267,18205,1,0,1:2:0:0:
227,218,18372,2,0,P|185:223|145:236,1,83.9949974366761,4|8,0:3|0:2,0:0:0:0:
283,102,18705,1,0,1:2:0:0:
110,151,18872,6,0,P|68:145|28:132,1,83.9949974366761,0|0,0:0|3:2,0:0:0:0:
220,43,19205,2,0,P|201:81|192:140,1,83.9949974366761,10|0,0:2|0:2,0:0:0:0:
315,242,19539,1,2,1:2:0:0:
388,106,19705,1,2,1:2:0:0:
388,106,19789,1,8,1:2:0:0:
388,106,19872,2,0,P|397:132|400:166,1,41.9974987183381,8|4,0:3|0:3,0:0:0:0:
382,337,20039,6,0,P|339:296|207:268,1,167.989994873352,6|0,1:2|3:2,0:0:0:0:
102,360,20539,2,0,P|134:327|148:260,1,83.9949974366761,10|0,0:2|0:2,0:0:0:0:
59,120,20872,1,2,1:2:0:0:
223,235,21039,2,0,P|207:191|208:125,1,83.9949974366761,4|8,0:3|0:2,0:0:0:0:
368,23,21372,6,0,P|454:41|463:144,1,167.989994873352,6|0,1:2|3:2,0:0:0:0:
364,222,21872,2,0,P|404:197|448:194,1,83.9949974366761,8|0,0:2|0:2,0:0:0:0:
299,117,22205,1,2,1:2:0:0:
411,304,22372,2,0,P|451:329|495:332,1,83.9949974366761,4|8,0:3|0:2,0:0:0:0:
246,218,22705,6,0,P|275:299|284:383,1,167.989994873352,6|0,1:2|3:2,0:0:0:0:
87,245,23205,2,0,P|116:217|174:203,1,83.9949974366761,8|0,0:2|0:2,0:0:0:0:
307,279,23539,1,0,1:2:0:0:
213,103,23705,2,0,P|252:116|282:144,1,83.9949974366761,4|8,0:3|0:2,0:0:0:0:
157,292,24039,1,8,0:3:0:0:
88,134,25539,6,0,P|116:96|186:88,1,83.9949974366761,6|0,1:2|0:2,0:0:0:0:
315,157,25872,2,0,P|248:120|120:100,1,167.989994873352,8|0,0:2|1:2,0:0:0:0:
387,233,26372,1,0,1:2:0:0:
350,49,26539,1,8,0:2:0:0:
287,252,26705,6,0,P|220:289|92:309,1,167.989994873352,6|0,1:2|1:2,0:0:0:0:
10,188,27205,2,0,P|56:190|113:217,1,83.9949974366761,8|0,0:2|0:2,0:0:0:0:
204,320,27539,1,0,1:2:0:0:
214,182,27705,1,0,1:2:0:0:
182,339,27872,1,8,0:2:0:0:
263,109,28039,6,0,P|204:59|98:88,1,167.989994873352,6|0,1:2|1:2,0:0:0:0:
271,242,28539,2,0,P|309:217|373:210,1,83.9949974366761,8|0,0:2|0:2,0:0:0:0:
417,38,28872,1,0,1:2:0:0:
361,189,29039,1,0,1:2:0:0:
310,0,29205,1,8,0:2:0:0:
467,211,29372,6,0,P|445:284|433:376,1,167.989994873352,6|0,1:2|1:2,0:0:0:0:
271,242,29872,2,0,P|225:239|182:266,1,83.9949974366761,8|8,0:2|0:2,0:0:0:0:
126,326,30122,1,8,0:2:0:0:
126,326,30205,2,0,P|119:278|110:236,1,83.9949974366761,0|8,1:2|0:2,0:0:0:0:
66,175,30455,1,8,0:2:0:0:
66,175,30539,2,0,L|22:166,3,41.9974987183381,8|8|8|8,0:2|0:2|1:2|0:2,0:0:0:0:
133,104,30872,6,0,L|222:94,1,83.9949974366761,6|0,1:2|0:0,0:0:0:0:
405,76,31205,2,0,P|338:118|349:219,1,167.989994873352,8|0,0:2|1:2,0:0:0:0:
450,271,31705,1,0,1:2:0:0:
412,110,31872,1,8,0:2:0:0:
317,296,32039,6,0,B|214:253|284:215|189:184,1,167.989994873352,6|0,1:2|1:2,0:0:0:0:
97,310,32539,2,0,P|140:301|171:268,1,83.9949974366761,8|0,0:2|0:2,0:0:0:0:
164,104,32872,2,0,P|133:75|93:67,1,83.9949974366761,0|0,1:2|1:2,0:0:0:0:
170,254,33205,1,8,0:2:0:0:
276,55,33372,6,0,B|379:98|309:136|404:167,1,167.989994873352,6|0,1:2|1:2,0:0:0:0:
493,34,33872,2,0,P|471:75|466:133,1,83.9949974366761,8|0,0:2|0:2,0:0:0:0:
449,319,34205,2,0,P|441:277|420:241,1,83.9949974366761,0|0,1:2|1:2,0:0:0:0:
269,145,34539,1,8,0:2:0:0:
199,353,34705,6,0,P|138:317|21:297,1,167.989994873352,4|0,1:2|1:2,0:0:0:0:
216,232,35205,2,0,P|234:195|239:133,1,83.9949974366761,8|8,0:2|0:2,0:0:0:0:
177,84,35455,1,8,0:2:0:0:
177,84,35539,2,0,P|192:69|250:58,3,41.9974987183381,8|8|8|8,1:2|0:2|0:2|0:2,0:0:0:0:
141,165,35872,2,0,P|122:155|107:140,3,41.9974987183381,8|8|8|8,1:2|0:2|0:2|0:2,0:0:0:0:
26,62,36205,6,0,L|36:179,1,91.8450003503609,14|0,0:2|1:2,0:0:0:0:
148,343,36539,2,0,L|155:251,1,91.8450003503609,12|0,0:2|1:2,0:0:0:0:
337,91,36872,1,12,0:2:0:0:
265,258,37039,1,0,1:2:0:0:
183,77,37205,1,12,0:2:0:0:
373,276,37372,6,0,P|452:282|501:168,1,183.690000700722,6|0,1:2|1:2,0:0:0:0:
421,46,37872,2,0,P|358:45|320:86,1,91.8450003503609,12|0,0:2|1:2,0:0:0:0:
265,258,38205,1,12,0:2:0:0:
192,69,38372,1,0,1:2:0:0:
192,69,38455,1,0,1:2:0:0:
192,69,38539,1,12,0:2:0:0:
129,311,38705,6,0,P|22:304|7:213,1,183.690000700722,6|0,1:2|1:2,0:0:0:0:
80,45,39205,2,0,P|134:49|180:102,1,91.8450003503609,12|0,0:2|1:2,0:0:0:0:
234,293,39539,1,12,0:2:0:0:
295,95,39705,1,0,1:2:0:0:
339,331,39872,1,12,0:2:0:0:
452,96,40039,6,0,B|352:123|426:184|286:208,1,183.690000700722,6|0,1:2|1:2,0:0:0:0:
117,108,40539,2,0,P|169:129|195:179,1,91.8450003503609,12|0,0:2|1:2,0:0:0:0:
29,307,40872,1,8,1:2:0:0:
29,307,40955,1,8,1:2:0:0:
29,307,41039,2,0,L|24:247,1,45.9225001751804,8|8,1:2|1:2,0:0:0:0:
165,185,41205,2,0,L|161:230,3,45.9225001751804,8|8|8|8,1:2|1:2|1:2|1:2,0:0:0:0:
228,271,41539,6,0,B|349:224|237:90|390:57,1,276.712495777702,6|0,1:2|0:2,0:0:0:0:
474,70,42872,6,0,P|344:31|134:30,1,335.587495903473,6|0,1:2|0:2,0:0:0:0:
107,140,44205,2,0,P|125:144|124:38,1,184.082491292485,6|0,1:2|0:2,0:0:0:0:
27,80,44872,6,0,L|34:164,2,83.1118733513575,12|12|12,0:3|0:3|0:3,0:0:0:0:
7,383,45539,6,0,B|386:352|65:17|500:3,1,690.8,6|0,1:2|0:0,0:0:0:0:
