osu file format v14

[General]
AudioFilename: audio.mp3
AudioLeadIn: 0
PreviewTime: 2940
Countdown: 0
SampleSet: Soft
StackLeniency: 0.7
Mode: 0
LetterboxInBreaks: 0
WidescreenStoryboard: 1

[Editor]
DistanceSpacing: 1.1
BeatDivisor: 4
GridSize: 32
TimelineZoom: 1.2

[Metadata]
Title:The Guinea Pig Is In Your Mind
TitleUnicode:The Guinea Pig Is In Your Mind
Artist:Parry Gripp
ArtistUnicode:Parry Gripp
Creator:Sotarks
Version:Brain Damage
Source:
Tags:ayyri eiri- trynna yasuho armin a_r_m_i_n reform kujinn basensorex kowari smokelind english male vocalist children music pop rock
BeatmapID:2409643
BeatmapSetID:1154585

[Difficulty]
HPDrainRate:5.2
CircleSize:4
OverallDifficulty:9
ApproachRate:9.2
SliderMultiplier:1.82
SliderTickRate:1

[Events]
//Background and Video events
0,0,"mind reader.jpg",0,0
//Break Periods
2,24239,24969
//Storyboard Layer 0 (Background)
//Storyboard Layer 1 (Fail)
//Storyboard Layer 2 (Pass)
//Storyboard Layer 3 (Foreground)
//Storyboard Layer 4 (Overlay)
//Storyboard Sound Samples

[TimingPoints]
2857,333.333333333333,4,2,22,72,1,0
4190,333.333333333333,4,2,22,72,1,8
4206,333.333333333333,4,2,22,72,1,0
4206,-98.0392156862745,4,2,22,72,0,0
36205,-89.2857142857143,4,2,22,82,0,0
41539,-238.095238095238,4,2,22,72,0,0
42789,-238.095238095238,4,2,22,5,0,0
42872,-192.307692307692,4,2,22,72,0,0
44122,-238.095238095238,4,2,22,5,0,0
44205,-161.290322580645,4,2,22,72,0,0
44789,-238.095238095238,4,2,22,5,0,0
44872,-138.888888888889,4,2,22,72,0,0
45539,-5000,4,2,22,72,0,0
45622,-238.095238095238,4,2,22,5,0,0

[Colours]
Combo1 : 231,204,165
Combo2 : 172,114,89

[HitObjects]
71,65,4206,6,0,P|80:140|85:194,1,92.8200005665283,6|0,1:2|0:2,0:0:0:0:
302,215,4539,2,0,P|306:168|312:122,1,92.8200005665283,8|0,0:2|0:2,0:0:0:0:
186,275,4872,1,0,1:2:0:0:
378,181,5039,1,4,0:3:0:0:
154,84,5205,1,8,0:2:0:0:
296,297,5372,6,0,P|384:288|493:278,1,185.640001133057,0|0,1:2|3:0,0:0:0:0:
334,112,5872,1,10,0:2:0:0:
288,330,6039,1,0,0:2:0:0:
250,86,6205,1,2,1:2:0:0:
374,307,6372,1,4,0:3:0:0:
405,59,6539,1,10,0:2:0:0:
250,256,6705,1,2,3:2:0:0:
250,256,6789,1,0,3:2:0:0:
250,256,6872,6,0,P|188:247|143:242,1,92.8200005665283,2|0,1:2|0:2,0:0:0:0:
87,47,7205,2,0,P|132:40|178:34,1,92.8200005665283,8|0,0:2|0:2,0:0:0:0:
136,267,7539,1,0,1:2:0:0:
332,111,7705,1,4,0:3:0:0:
250,333,7872,1,8,0:2:0:0:
155,94,8039,6,0,P|70:103|43:219,1,185.640001133057,0|0,1:2|3:2,0:0:0:0:
223,305,8539,2,0,P|231:234|236:196,1,92.8200005665283,10|0,0:2|0:2,0:0:0:0:
81,331,8872,1,2,1:2:0:0:
234,123,9039,1,2,1:2:0:0:
275,125,9122,1,8,0:2:0:0:
309,148,9205,1,8,0:3:0:0:
328,185,9289,1,4,0:3:0:0:
325,226,9372,6,0,B|217:211|265:291|143:275,1,185.640001133057,6|0,1:2|3:2,0:0:0:0:
397,116,9872,2,0,P|412:178|417:217,1,92.8200005665283,10|0,0:2|0:2,0:0:0:0:
176,172,10205,2,0,P|183:126|195:81,1,92.8200005665283,2|4,1:2|0:3,0:0:0:0:
310,311,10539,1,8,0:2:0:0:
87,146,10705,6,0,P|101:263|108:356,1,185.640001133057,6|0,1:2|3:2,0:0:0:0:
254,231,11205,2,0,P|319:217|365:212,1,92.8200005665283,8|0,0:2|0:2,0:0:0:0:
401,38,11539,2,0,P|355:27|309:20,1,92.8200005665283,2|4,1:2|0:3,0:0:0:0:
176,172,11872,1,8,0:2:0:0:
397,321,12039,6,0,P|453:252|388:162,1,185.640001133057,6|0,1:2|3:2,0:0:0:0:
202,68,12539,2,0,P|214:136|220:184,1,92.8200005665283,8|0,0:2|0:2,0:0:0:0:
148,332,12872,1,0,1:2:0:0:
351,248,13039,1,4,0:3:0:0:
129,126,13205,1,8,0:2:0:0:
357,286,13372,1,8,0:3:0:0:
357,286,14872,6,0,P|302:291|253:297,1,92.8200005665283,6|0,1:2|0:2,0:0:0:0:
186,84,15205,2,0,P|232:88|278:93,1,92.8200005665283,8|0,0:2|0:2,0:0:0:0:
165,272,15539,1,0,1:2:0:0:
351,159,15705,1,4,0:3:0:0:
161,48,15872,1,8,0:2:0:0:
321,259,16039,6,0,P|420:243|514:233,1,185.640001133057,0|0,1:2|3:2,0:0:0:0:
329,73,16539,1,10,0:2:0:0:
259,304,16705,1,0,0:2:0:0:
251,28,16872,1,2,1:2:0:0:
321,259,17038,1,4,0:3:0:0:
399,24,17205,1,10,0:2:0:0:
243,221,17372,1,2,3:2:0:0:
243,221,17455,1,0,3:2:0:0:
243,221,17539,5,2,1:2:0:0:
408,147,17705,1,2,0:2:0:0:
169,71,17872,2,0,P|162:144|157:187,1,92.8200005665283,8|0,0:2|0:2,0:0:0:0:
376,262,18205,2,0,P|371:215|366:169,1,92.8200005665283,0|4,1:2|0:3,0:0:0:0:
168,312,18539,1,8,0:2:0:0:
293,50,18705,6,0,P|373:57|405:154,1,185.640001133057,0|0,1:2|3:2,0:0:0:0:
155,222,19205,2,0,P|85:213|48:210,1,92.8200005665283,10|0,0:2|0:2,0:0:0:0:
185,69,19539,1,2,1:2:0:0:
327,210,19705,1,2,1:2:0:0:
339,249,19788,1,8,1:2:0:0:
333,290,19871,1,8,0:3:0:0:
311,325,19954,1,4,0:3:0:0:
276,346,20039,6,0,P|269:255|258:132,1,185.640001133057,6|0,1:2|3:2,0:0:0:0:
426,33,20539,2,0,P|420:118|418:153,1,92.8200005665283,10|0,0:2|0:2,0:0:0:0:
178,191,20872,2,0,P|175:144|171:98,1,92.8200005665283,2|4,1:2|0:3,0:0:0:0:
361,229,21205,1,8,0:2:0:0:
140,360,21372,6,0,P|65:321|91:202,1,185.640001133057,6|0,1:2|3:2,0:0:0:0:
144,40,21872,2,0,P|190:44|236:51,1,92.8200005665283,8|0,0:2|0:2,0:0:0:0:
239,267,22205,2,0,P|192:271|146:278,1,92.8200005665283,2|4,1:2|0:3,0:0:0:0:
309,117,22539,1,8,0:2:0:0:
398,301,22705,6,0,B|282:290|356:382|203:360,1,185.640001133057,6|0,1:2|3:2,0:0:0:0:
192,144,23205,2,0,P|209:213|216:252,1,92.8200005665283,8|0,0:2|0:2,0:0:0:0:
320,37,23539,1,0,1:2:0:0:
239,267,23705,1,4,0:3:0:0:
96,75,23872,1,8,0:2:0:0:
244,309,24039,1,8,0:3:0:0:
244,309,25539,6,0,P|311:299|355:295,1,92.8200005665283,6|0,1:2|0:2,0:0:0:0:
445,108,25872,2,0,B|326:100|391:181|254:164,1,185.640001133057,8|0,0:2|1:2,0:0:0:0:
98,52,26372,1,0,1:2:0:0:
285,84,26539,1,8,0:2:0:0:
51,224,26705,6,0,P|138:239|240:265,1,185.640001133057,6|0,1:2|1:2,0:0:0:0:
450,319,27205,2,0,P|365:334|337:342,1,92.8200005665283,8|0,0:2|0:2,0:0:0:0:
362,142,27539,1,0,1:2:0:0:
251,297,27705,1,0,1:2:0:0:
162,91,27872,1,8,0:2:0:0:
396,220,28039,6,0,P|455:179|436:60,1,185.640001133057,6|0,1:2|1:2,0:0:0:0:
229,15,28539,2,0,P|240:96|245:138,1,92.8200005665283,8|0,0:2|0:2,0:0:0:0:
103,267,28872,2,0,P|108:220|115:175,1,92.8200005665283,0|0,1:2|1:2,0:0:0:0:
281,315,29205,1,8,0:2:0:0:
50,99,29372,6,0,P|64:206|75:312,1,185.640001133057,6|0,1:2|1:2,0:0:0:0:
229,135,29872,1,8,0:2:0:0:
167,320,30039,1,8,0:2:0:0:
167,320,30122,1,8,0:2:0:0:
167,320,30205,1,0,1:2:0:0:
136,120,30372,6,0,P|142:157|152:201,1,46.4100002832642,8|8,0:2|0:2,0:0:0:0:
249,291,30539,2,0,P|253:268|256:245,1,46.4100002832642,8|8,0:2|0:2,0:0:0:0:
302,81,30705,1,8,1:2:0:0:
302,81,30789,1,8,0:2:0:0:
302,81,30872,6,0,P|362:87|382:220,2,185.640001133057,6|8|0,1:2|0:2|1:2,0:0:0:0:
349,283,31705,1,0,1:2:0:0:
429,84,31872,1,8,0:2:0:0:
244,224,32039,6,0,P|133:212|41:206,1,185.640001133057,6|0,1:2|1:2,0:0:0:0:
177,28,32539,2,0,P|186:95|191:142,1,92.8200005665283,8|0,0:2|0:2,0:0:0:0:
345,241,32872,2,0,P|350:194|356:148,1,92.8200005665283,0|0,1:2|1:2,0:0:0:0:
151,256,33205,1,8,0:2:0:0:
327,74,33372,6,0,P|422:92|436:194,1,185.640001133057,6|0,1:2|1:2,0:0:0:0:
292,338,33872,2,0,P|235:330|195:323,1,92.8200005665283,8|0,0:2|0:2,0:0:0:0:
119,122,34205,2,0,P|164:114|210:107,1,92.8200005665283,0|0,1:2|1:2,0:0:0:0:
114,317,34539,1,8,0:2:0:0:
322,183,34705,6,0,B|436:164|377:250|502:228,1,185.640001133057,4|0,1:2|1:2,0:0:0:0:
417,40,35205,1,8,0:2:0:0:
344,274,35372,1,8,0:2:0:0:
344,274,35455,1,8,0:2:0:0:
344,274,35539,2,0,P|280:286|254:291,1,46.4100002832642,8|8,1:2|0:2,0:0:0:0:
271,84,35705,2,0,P|293:88|316:92,1,46.4100002832642,8|8,0:2|0:2,0:0:0:0:
199,254,35872,2,0,P|176:249|153:245,3,46.4100002832642,8|8|8|8,1:2|0:2|0:2|0:2,0:0:0:0:
193,100,36205,5,14,0:2:0:0:
142,328,36372,1,0,1:2:0:0:
116,73,36539,5,12,0:2:0:0:
246,335,36706,1,0,1:2:0:0:
246,36,36872,5,12,0:2:0:0:
58,323,37039,1,0,1:2:0:0:
168,8,37205,5,12,0:2:0:0:
319,293,37372,2,0,P|411:278|416:161,1,203.840002488281,6|0,1:2|1:2,0:0:0:0:
150,258,37872,5,12,0:2:0:0:
398,116,38039,1,0,1:2:0:0:
135,135,38205,5,12,0:2:0:0:
433,229,38372,2,0,P|361:240|351:243,1,50.9600006220703,0|0,1:2|1:2,0:0:0:0:
162,343,38539,5,12,0:2:0:0:
300,73,38705,2,0,P|304:174|308:276,1,203.840002488281,6|0,1:2|1:2,0:0:0:0:
200,23,39205,5,12,0:2:0:0:
312,313,39372,1,0,1:2:0:0:
382,58,39539,5,12,0:2:0:0:
246,375,39706,1,0,1:2:0:0:
122,95,39872,5,12,0:2:0:0:
398,351,40039,2,0,P|401:249|406:147,1,203.840002488281,6|0,1:2|1:2,0:0:0:0:
146,248,40539,5,12,0:2:0:0:
475,89,40705,1,0,1:2:0:0:
187,16,40872,6,0,P|194:79|196:101,1,50.9600006220703,8|8,1:2|1:2,0:0:0:0:
424,305,41039,2,0,P|426:279|429:254,1,50.9600006220703,8|8,1:2|1:2,0:0:0:0:
375,70,41205,1,8,1:2:0:0:
373,85,41288,1,8,1:2:0:0:
372,100,41371,1,8,1:2:0:0:
370,115,41455,1,8,1:2:0:0:
369,130,41539,6,0,B|298:105|246:166|258:170|193:259|108:215,1,286.649991252136,6|0,1:2|0:2,0:0:0:0:
43,123,42872,6,0,P|66:22|157:151,1,354.899997833862,6|0,1:2|0:2,0:0:0:0:
58,219,44205,6,0,B|116:188|157:238|145:242|188:286|256:256,1,197.469992165802,6|0,1:2|0:2,0:0:0:0:
321,212,44872,6,0,L|316:192,1,16.3800003999024,12|0,0:3|0:2,0:0:0:0:
402,181,45101,6,0,L|404:161,1,16.3800003999024,12|0,0:3|0:2,0:0:0:0:
487,192,45330,6,0,L|484:175,1,16.3800003999024,12|0,0:3|0:2,0:0:0:0:
512,50,45539,6,0,B|377:-4|248:155|327:187|172:409|8:331,1,646.1,6|0,1:2|0:2,0:0:0:0:
