osu file format v14

[General]
AudioFilename: audio.mp3
AudioLeadIn: 0
PreviewTime: 2940
Countdown: 0
SampleSet: Soft
StackLeniency: 0.7
Mode: 0
LetterboxInBreaks: 0
WidescreenStoryboard: 1

[Editor]
DistanceSpacing: 1
BeatDivisor: 16
GridSize: 16
TimelineZoom: 3.599999

[Metadata]
Title:The Guinea Pig Is In Your Mind
TitleUnicode:The Guinea Pig Is In Your Mind
Artist:Parry Gripp
ArtistUnicode:Parry Gripp
Creator:Sotarks
Version:Basen's Normal
Source:
Tags:ayyri eiri- trynna yasuho armin a_r_m_i_n reform kujinn basensorex kowari smokelind english male vocalist children music pop rock
BeatmapID:2409642
BeatmapSetID:1154585

[Difficulty]
HPDrainRate:3.8
CircleSize:3
OverallDifficulty:4
ApproachRate:5.2
SliderMultiplier:0.999999999999999
SliderTickRate:1

[Events]
//Background and Video events
0,0,"mind reader.jpg",0,0
//Break Periods
//Storyboard Layer 0 (Background)
//Storyboard Layer 1 (Fail)
//Storyboard Layer 2 (Pass)
//Storyboard Layer 3 (Foreground)
//Storyboard Layer 4 (Overlay)
//Storyboard Sound Samples

[TimingPoints]
2857,333.333333333333,4,2,22,72,1,0
4190,333.333333333333,4,2,22,72,1,8
4206,333.333333333333,4,2,22,72,1,0
36205,-90.9090909090909,4,2,22,82,0,1
41539,-111.111111111111,4,2,22,72,0,0
42789,-111.111111111111,4,2,22,5,0,0
42872,-111.111111111111,4,2,22,72,0,0
44122,-111.111111111111,4,2,22,5,0,0
44205,-111.111111111111,4,2,22,72,0,0
44789,-111.111111111111,4,2,22,5,0,0
44872,-111.111111111111,4,2,22,72,0,0
45622,-111.111111111111,4,2,22,5,0,0

[Colours]
Combo1 : 231,204,165
Combo2 : 172,114,89

[HitObjects]
32,51,4206,6,0,B|82:37|82:37|143:50,1,99.9999999999999,6|8,1:2|0:2,0:0:0:0:
218,103,4873,1,0,1:2:0:0:
218,103,5039,2,0,L|208:216,1,99.9999999999999,4|0,0:3|1:2,0:0:0:0:
173,298,5705,1,0,3:0:0:0:
173,298,5872,2,0,P|198:303|236:304,1,50,10|0,0:2|0:2,0:0:0:0:
261,336,6205,2,0,P|286:332|324:331,1,50,2|4,1:2|0:3,0:0:0:0:
360,327,6539,1,10,0:2:0:0:
455,296,6872,6,0,P|471:251|443:180,1,99.9999999999999,2|8,1:2|0:2,0:0:0:0:
424,112,7540,1,0,1:2:0:0:
424,112,7705,2,0,L|310:102,1,99.9999999999999,4|0,0:3|1:2,0:0:0:0:
256,37,8373,1,0,3:2:0:0:
256,37,8539,2,0,B|206:23|206:23|145:36,1,99.9999999999999,10|2,0:2|1:2,0:0:0:0:
111,49,9039,1,2,1:2:0:0:
15,77,9372,6,0,P|20:126|23:176,1,99.9999999999999,6|0,1:2|3:2,0:0:0:0:
52,217,9872,2,0,P|46:271|42:328,1,99.9999999999999,10|2,0:2|1:2,0:0:0:0:
46,366,10373,1,4,0:3:0:0:
139,332,10705,2,0,P|184:316|255:344,1,99.9999999999999,6|0,1:2|3:2,0:0:0:0:
276,354,11206,1,8,0:2:0:0:
357,296,11539,2,0,P|352:270|352:233,1,50,2|4,1:2|0:3,0:0:0:0:
286,170,12039,6,0,P|292:116|296:59,1,99.9999999999999,6|0,1:2|3:2,0:0:0:0:
295,20,12540,1,8,0:2:0:0:
205,63,12872,2,0,P|160:79|89:51,1,99.9999999999999,0|8,1:2|0:2,0:0:0:0:
66,43,13372,1,8,0:3:0:0:
66,43,14872,6,0,B|80:93|80:93|67:154,1,99.9999999999999,6|8,1:2|0:2,0:0:0:0:
30,234,15540,1,0,1:2:0:0:
30,234,15705,2,0,L|41:361,1,99.9999999999999,4|0,0:3|1:2,0:0:0:0:
136,373,16373,1,0,3:2:0:0:
136,373,16539,2,0,P|161:368|199:367,1,50,10|0,0:2|0:2,0:0:0:0:
224,335,16872,2,0,P|249:339|287:340,1,50,2|4,1:2|0:3,0:0:0:0:
323,344,17205,1,10,0:2:0:0:
409,294,17539,6,0,P|425:249|397:178,1,99.9999999999999,2|8,1:2|0:2,0:0:0:0:
370,109,18205,2,0,L|306:103,1,50,0|4,1:2|0:3,0:0:0:0:
249,32,18705,2,0,L|185:37,1,50,0|0,1:2|0:0,0:0:0:0:
117,94,19205,2,0,L|128:221,1,99.9999999999999,10|2,0:2|1:2,0:0:0:0:
130,243,19705,1,2,1:2:0:0:
174,332,20039,6,0,P|228:326|285:323,1,99.9999999999999,6|0,1:2|3:2,0:0:0:0:
306,285,20539,2,0,P|360:291|417:295,1,99.9999999999999,10|2,0:2|1:2,0:0:0:0:
455,302,21040,1,4,0:3:0:0:
491,209,21372,2,0,P|506:164|478:92,1,99.9999999999999,6|0,1:2|3:2,0:0:0:0:
473,68,21873,1,8,0:2:0:0:
373,69,22206,2,0,P|347:73|310:74,1,50,2|4,1:2|0:3,0:0:0:0:
244,136,22706,6,0,P|250:190|254:247,1,99.9999999999999,6|0,1:2|3:2,0:0:0:0:
253,285,23205,1,8,0:2:0:0:
156,258,23539,2,0,P|111:242|40:270,1,99.9999999999999,0|8,1:2|0:2,0:0:0:0:
19,281,24039,1,8,0:3:0:0:
19,281,25539,6,0,B|39:220|19:180|19:180|-1:140|19:80,1,200,6|0,1:2|1:2,0:0:0:0:
107,38,26539,1,8,0:2:0:0:
107,38,26705,2,0,P|171:12|258:151,1,250,6|0,1:2|1:2,0:0:0:0:
215,224,27872,1,8,0:2:0:0:
215,224,28039,6,0,B|311:232|311:232|355:284|355:284|452:293,1,250,6|0,1:2|1:2,0:0:0:0:
508,219,29206,1,8,0:2:0:0:
508,219,29372,2,0,L|498:107,1,99.9999999999999,6|0,1:2|1:2,0:0:0:0:
494,69,29872,1,8,0:2:0:0:
401,30,30205,2,0,P|356:14|285:42,1,99.9999999999999,0|8,1:2|0:2,0:0:0:0:
263,52,30706,1,8,1:2:0:0:
263,52,30872,6,0,B|186:23|140:79|140:79|104:68|66:100,1,200,6|0,1:2|1:2,0:0:0:0:
85,194,31872,1,8,0:2:0:0:
85,194,32039,2,0,B|164:173|204:213|204:213|244:253|323:233,1,250,6|0,1:2|1:2,0:0:0:0:
424,242,33205,1,8,0:2:0:0:
424,242,33372,6,0,P|379:338|231:303,1,250,6|0,1:2|1:2,0:0:0:0:
172,274,34540,1,8,0:2:0:0:
172,274,34705,2,0,L|60:283,1,99.9999999999999,4|0,1:2|1:2,0:0:0:0:
22,281,35205,1,8,0:2:0:0:
62,189,35539,2,0,P|78:144|50:73,1,99.9999999999999,8|8,1:2|1:2,0:0:0:0:
169,55,36205,6,0,B|224:40|224:40|280:54,1,110.000003356934,14|12,0:2|0:2,0:0:0:0:
331,78,36706,1,0,1:2:0:0:
331,78,36872,2,0,B|386:93|386:93|442:79,1,110.000003356934,12|12,0:2|0:2,0:0:0:0:
490,65,37373,1,6,1:2:0:0:
490,178,37706,1,0,1:2:0:0:
490,178,37872,2,0,L|478:305,1,110.000003356934,12|12,0:2|0:2,0:0:0:0:
438,323,38372,2,0,P|408:311|381:311,1,55.0000016784668,0|12,1:2|0:2,0:0:0:0:
336,285,38705,6,0,B|281:300|281:300|225:286,1,110.000003356934,6|0,1:2|1:2,0:0:0:0:
178,264,39206,1,12,0:2:0:0:
77,308,39539,2,0,L|67:198,1,110.000003356934,12|12,0:2|0:2,0:0:0:0:
94,150,40039,2,0,B|149:135|149:135|205:149,1,110.000003356934,6|0,1:2|1:2,0:0:0:0:
253,164,40540,1,12,0:2:0:0:
358,133,40872,2,0,L|363:196,1,55.0000016784668,8|8,1:2|1:2,0:0:0:0:
405,221,41205,2,0,L|400:284,1,55.0000016784668,8|8,1:2|1:2,0:0:0:0:
390,319,41539,6,0,B|304:297|262:339|262:339|219:382|134:361,1,269.999991760254,6|0,1:2|0:0,0:0:0:0:
62,309,42872,2,0,P|27:194|146:98,1,269.999991760254,6|0,1:2|0:0,0:0:0:0:
199,48,44205,2,0,P|244:64|315:36,1,89.999997253418,6|0,1:2|0:0,0:0:0:0:
368,90,44872,2,0,L|360:153,2,61.8749981117249,12|12|12,0:3|0:3|0:3,0:0:0:0:
415,53,45540,5,6,1:2:0:0:
256,192,45705,12,0,55205,0:0:0:0:
