osu file format v14

[General]
AudioFilename: audio.mp3
AudioLeadIn: 0
PreviewTime: 2940
Countdown: 0
SampleSet: Soft
StackLeniency: 0.7
Mode: 0
LetterboxInBreaks: 0
WidescreenStoryboard: 1

[Editor]
DistanceSpacing: 1.1
BeatDivisor: 4
GridSize: 4
TimelineZoom: 5.499997

[Metadata]
Title:The Guinea Pig Is In Your Mind
TitleUnicode:The Guinea Pig Is In Your Mind
Artist:Parry Gripp
ArtistUnicode:Parry Gripp
Creator:Sotarks
Version:A r M i N's Extra
Source:
Tags:ayyri eiri- trynna yasuho armin a_r_m_i_n reform kujinn basensorex kowari smokelind english male vocalist children music pop rock
BeatmapID:2409644
BeatmapSetID:1154585

[Difficulty]
HPDrainRate:5.6
CircleSize:3.8
OverallDifficulty:9
ApproachRate:9.2
SliderMultiplier:1.8
SliderTickRate:1

[Events]
//Background and Video events
0,0,"mind reader.jpg",0,0
//Break Periods
//Storyboard Layer 0 (Background)
//Storyboard Layer 1 (Fail)
//Storyboard Layer 2 (Pass)
//Storyboard Layer 3 (Foreground)
//Storyboard Layer 4 (Overlay)
//Storyboard Sound Samples

[TimingPoints]
2857,333.333333333333,4,2,22,72,1,0
4190,333.333333333333,4,2,22,72,1,8
4206,333.333333333333,4,2,22,72,1,0
36205,-90.9090909090909,4,2,22,82,0,0
41539,-312.5,4,2,22,72,0,0
42705,-312.5,4,2,22,72,0,0
42789,-312.5,4,2,22,5,0,0
42872,-312.5,4,2,22,72,0,0
44039,-312.5,4,2,22,72,0,0
44122,-312.5,4,2,22,5,0,0
44205,-156.25,4,2,22,72,0,0
44705,-156.25,4,2,22,72,0,0
44789,-156.25,4,2,22,5,0,0
44872,-142.857142857143,4,2,22,72,0,0
45539,-5000,4,2,22,72,0,0
45622,-5000,4,2,22,5,0,0
57372,-5000,4,2,22,5,0,0

[Colours]
Combo1 : 231,204,165
Combo2 : 172,114,89

[HitObjects]
67,33,4206,6,0,L|51:121,1,90,6|0,1:2|0:2,0:0:0:0:
203,264,4539,2,0,L|187:175,1,90,8|0,0:2|0:2,0:0:0:0:
84,291,4872,1,0,1:2:0:0:
284,203,5039,1,4,0:3:0:0:
51,121,5205,1,8,0:2:0:0:
311,212,5372,6,0,B|402:184|388:269|479:241,1,180,0|0,1:2|3:0,0:0:0:0:
336,112,5872,1,10,0:2:0:0:
266,304,6039,1,0,0:2:0:0:
346,85,6205,1,2,1:2:0:0:
418,320,6372,1,4,0:3:0:0:
243,137,6539,1,10,0:2:0:0:
187,360,6705,1,2,3:2:0:0:
187,360,6789,1,0,3:2:0:0:
187,360,6872,6,0,L|99:344,1,90,2|0,1:2|0:2,0:0:0:0:
289,205,7205,2,0,L|377:189,1,90,8|0,0:2|0:2,0:0:0:0:
266,304,7539,1,0,1:2:0:0:
317,108,7705,1,4,0:3:0:0:
419,332,7872,1,8,0:2:0:0:
219,132,8039,6,0,B|128:104|142:189|51:161,1,180,0|0,1:2|3:2,0:0:0:0:
177,318,8539,2,0,L|193:230,1,90,10|0,0:2|0:2,0:0:0:0:
382,122,8872,1,2,1:2:0:0:
247,33,9039,1,2,1:2:0:0:
253,66,9122,1,8,0:2:0:0:
259,99,9205,1,8,0:3:0:0:
265,132,9289,1,4,0:3:0:0:
271,165,9372,6,0,B|212:149|212:149|164:181|164:181|104:165,1,180,6|0,1:2|3:2,0:0:0:0:
0,336,9872,2,0,L|88:320,1,90,10|0,0:2|0:2,0:0:0:0:
292,279,10205,1,2,1:2:0:0:
104,165,10372,1,4,0:3:0:0:
194,373,10539,1,8,0:2:0:0:
312,132,10705,6,0,P|383:122|452:207,1,180,6|0,1:2|3:2,0:0:0:0:
235,197,11205,2,0,P|215:159|215:105,1,90,8|0,0:2|0:2,0:0:0:0:
349,244,11539,1,2,1:2:0:0:
168,299,11705,1,4,0:3:0:0:
312,132,11872,1,8,0:2:0:0:
407,352,12039,6,0,B|348:336|348:336|300:368|300:368|240:352,1,180,6|0,1:2|3:2,0:0:0:0:
71,228,12539,2,0,L|55:316,1,90,8|0,0:2|0:2,0:0:0:0:
201,189,12872,1,0,1:2:0:0:
21,115,13039,1,4,0:3:0:0:
168,299,13205,1,8,0:2:0:0:
257,29,13372,1,8,0:3:0:0:
440,98,14872,6,0,L|352:82,1,90,6|0,1:2|0:2,0:0:0:0:
216,242,15205,2,0,L|304:226,1,90,8|0,0:2|0:2,0:0:0:0:
179,137,15539,1,0,1:2:0:0:
276,324,15705,1,4,0:3:0:0:
351,81,15872,1,8,0:2:0:0:
195,267,16039,6,0,B|104:239|118:324|27:296,1,180,0|0,1:2|3:2,0:0:0:0:
179,137,16539,1,10,0:2:0:0:
251,348,16705,1,0,0:2:0:0:
170,109,16872,1,2,1:2:0:0:
119,337,17039,1,4,0:3:0:0:
280,135,17205,1,10,0:2:0:0:
353,362,17372,1,2,3:2:0:0:
353,362,17455,1,0,3:2:0:0:
353,362,17539,1,2,1:2:0:0:
188,165,17705,1,2,0:2:0:0:
410,94,17872,6,0,L|394:182,1,90,8|0,0:2|0:2,0:0:0:0:
300,47,18205,1,0,1:2:0:0:
494,156,18372,1,4,0:3:0:0:
270,256,18539,1,8,0:2:0:0:
410,94,18705,1,0,1:2:0:0:
466,339,18872,2,0,L|378:323,1,90,0|0,0:0|3:2,0:0:0:0:
152,186,19205,6,0,L|168:274,1,90,10|0,0:2|0:2,0:0:0:0:
295,93,19539,1,2,1:2:0:0:
437,225,19705,1,2,1:2:0:0:
443,192,19788,1,8,1:2:0:0:
449,159,19871,1,8,0:3:0:0:
455,126,19955,1,4,0:3:0:0:
461,93,20039,6,0,B|401:109|401:109|353:77|353:77|294:93,1,180,6|0,1:2|3:2,0:0:0:0:
102,156,20539,2,0,L|118:68,1,90,10|0,0:2|0:2,0:0:0:0:
211,232,20872,1,2,1:2:0:0:
3,123,21039,1,4,0:3:0:0:
235,31,21205,1,8,0:2:0:0:
113,263,21372,6,0,B|97:204|97:204|129:156|129:156|113:96,1,180,6|0,1:2|3:2,0:0:0:0:
263,240,21872,2,0,L|351:256,1,90,8|0,0:2|0:2,0:0:0:0:
257,115,22205,1,2,1:2:0:0:
190,312,22372,1,4,0:3:0:0:
354,153,22539,1,8,0:2:0:0:
137,76,22705,6,0,B|106:93|89:120|89:120|142:233,1,180,6|0,1:2|3:2,0:0:0:0:
335,344,23205,2,0,L|351:256,1,90,8|0,0:2|0:2,0:0:0:0:
222,356,23539,1,0,1:2:0:0:
446,294,23705,1,4,0:3:0:0:
184,196,23872,1,8,0:2:0:0:
450,75,24039,1,8,0:3:0:0:
450,75,25539,6,0,L|434:163,1,90,6|0,1:2|0:2,0:0:0:0:
258,268,25872,2,0,P|257:181|330:136,1,180,8|0,0:2|1:2,0:0:0:0:
484,241,26372,1,0,1:2:0:0:
370,48,26539,1,8,0:2:0:0:
258,268,26705,6,0,B|167:240|181:325|90:297,1,180,6|0,1:2|1:2,0:0:0:0:
151,81,27205,2,0,L|167:169,1,90,8|0,0:2|0:2,0:0:0:0:
57,39,27539,1,0,1:2:0:0:
251,107,27705,1,0,1:2:0:0:
50,225,27872,1,8,0:2:0:0:
276,92,28039,6,0,B|336:108|336:108|384:76|384:76|443:92,1,180,6|0,1:2|1:2,0:0:0:0:
352,284,28539,2,0,L|264:300,1,90,8|0,0:2|0:2,0:0:0:0:
395,169,28872,1,0,1:2:0:0:
467,362,29038,1,0,1:2:0:0:
295,197,29205,1,8,0:2:0:0:
489,66,29372,6,0,B|398:38|412:123|321:95,1,180,6|0,1:2|1:2,0:0:0:0:
112,238,29872,1,8,0:2:0:0:
213,34,30039,1,8,0:2:0:0:
213,34,30122,1,8,0:2:0:0:
213,34,30205,1,0,1:2:0:0:
339,188,30372,6,0,L|295:195,1,45,8|8,0:2|0:2,0:0:0:0:
137,106,30539,1,8,0:2:0:0:
130,139,30622,1,8,0:2:0:0:
124,172,30705,1,8,1:2:0:0:
118,205,30788,1,8,0:2:0:0:
112,238,30872,6,0,L|200:253,1,90,6|0,1:2|0:0,0:0:0:0:
358,78,31205,2,0,P|299:60|226:139,1,180,8|0,0:2|1:2,0:0:0:0:
367,297,31705,1,0,1:2:0:0:
449,52,31872,1,8,0:2:0:0:
288,239,32039,6,0,B|197:211|211:296|120:268,1,180,6|0,1:2|1:2,0:0:0:0:
210,48,32539,2,0,L|225:136,1,90,8|0,0:2|0:2,0:0:0:0:
405,286,32872,1,0,1:2:0:0:
325,119,33039,1,0,1:2:0:0:
221,333,33205,1,8,0:2:0:0:
421,179,33372,6,0,B|437:120|437:120|405:72|405:72|421:12,1,180,6|0,1:2|1:2,0:0:0:0:
273,175,33872,2,0,L|185:190,1,90,8|0,0:2|0:2,0:0:0:0:
287,40,34205,1,0,1:2:0:0:
363,252,34372,1,0,1:2:0:0:
190,81,34539,1,8,0:2:0:0:
127,331,34705,6,0,P|211:346|264:279,1,180,4|0,1:2|1:2,0:0:0:0:
159,79,35205,1,8,0:2:0:0:
68,245,35372,1,8,0:2:0:0:
68,245,35455,1,8,0:2:0:0:
68,245,35539,6,0,L|112:238,1,45,8|8,1:2|0:2,0:0:0:0:
228,144,35705,2,0,L|235:188,1,45,8|8,0:2|0:2,0:0:0:0:
71,93,35872,2,0,L|78:49,3,45,8|8|8|8,1:2|0:2|0:2|0:2,0:0:0:0:
209,38,36205,5,14,0:2:0:0:
123,334,36371,1,0,1:2:0:0:
305,76,36539,5,14,0:2:0:0:
371,372,36705,1,0,1:2:0:0:
161,119,36872,5,12,0:2:0:0:
446,252,37039,1,0,1:2:0:0:
168,313,37205,5,12,0:2:0:0:
433,155,37372,2,0,B|332:124|348:217|248:186,1,198.000006042481,6|0,1:2|1:2,0:0:0:0:
53,295,37872,5,12,0:2:0:0:
194,10,38039,1,0,1:2:0:0:
233,332,38205,5,12,0:2:0:0:
61,90,38372,2,0,L|109:82,1,49.5000015106202,0|0,1:2|1:2,0:0:0:0:
348,235,38539,5,12,0:2:0:0:
107,372,38705,2,0,B|124:307|124:307|89:254|89:254|107:188,1,198.000006042481,6|0,1:2|1:2,0:0:0:0:
351,92,39205,5,12,0:2:0:0:
240,368,39372,1,0,1:2:0:0:
256,53,39539,5,12,0:2:0:0:
390,337,39705,1,0,1:2:0:0:
429,11,39872,5,12,0:2:0:0:
302,285,40039,2,0,L|99:250,1,198.000006042481,6|0,1:2|1:2,0:0:0:0:
351,92,40539,5,12,0:2:0:0:
240,368,40705,1,0,1:2:0:0:
186,135,40872,5,8,1:2:0:0:
186,135,40955,1,8,1:2:0:0:
186,135,41039,2,0,L|236:126,1,49.5000015106202,8|8,1:2|1:2,0:0:0:0:
350,293,41205,2,0,L|299:284,1,49.5000015106202,8|8,1:2|1:2,0:0:0:0:
464,177,41372,1,8,1:2:0:0:
464,177,41455,1,8,1:2:0:0:
464,177,41539,6,0,B|445:242|445:242|481:297|481:297|464:364,1,201.6,6|0,1:2|0:0,0:0:0:0:
350,293,42872,6,0,B|246:261|262:356|159:324,1,201.6,6|0,1:2|0:0,0:0:0:0:
83,158,44205,6,0,P|163:149|191:225,1,172.8,6|0,1:2|0:0,0:0:0:0:
72,380,44872,6,0,L|56:292,2,86.6249973564149,12|12|12,0:3|0:3|0:3,0:0:0:0:
294,181,45539,5,6,1:2:0:0:
256,192,45622,12,0,57372,0:2:0:0:
