osu file format v14

[General]
AudioFilename: audio.mp3
AudioLeadIn: 0
PreviewTime: 43646
Countdown: 0
SampleSet: Normal
StackLeniency: 0.7
Mode: 1
LetterboxInBreaks: 0
WidescreenStoryboard: 0

[Editor]
Bookmarks: 33935,33974,34014,34053,34093,34132,34172,34211,34251,34290,34330,34369,34409,34448,34488,34527,34567,34606,34646,34685,34724,34764,34803,34843,34882,34922,34961,35001,35040,35080,35119,35159,35198,35238,35277,35317,35356,35396,35435,35474,35514,35553,35593,36461,36501,36540,36580,36619,36659,36698,36738,36777,36817,36856,36896,36935,36974,37014,37053,37093,37132,37172,37211,37251,37290,37330,37369,37409,37448,37488,37527,37567,37606,37646,37685,37724,37764,37803,37843,37882,37922,37961,38001,38040,38080,38119,43646,51224,53119,53330,53540,53751
DistanceSpacing: 1
BeatDivisor: 4
GridSize: 16
TimelineZoom: 1

[Metadata]
Title:I Wanna Guinea Pig For Christmas
TitleUnicode:I Wanna Guinea Pig For Christmas
Artist:Parry Gripp
ArtistUnicode:Parry Gripp
Creator:Yasuho
Version:G-U-I-N-E-A-P-I-G
Source:
Tags:xmas x-mas ParryGripp want a english vocalist children music rock
BeatmapID:2728958
BeatmapSetID:1317050

[Difficulty]
HPDrainRate:6
CircleSize:7
OverallDifficulty:5
ApproachRate:10
SliderMultiplier:1.4
SliderTickRate:1

[Events]
//Background and Video events
0,0,"636262.jpg",0,-65
//Break Periods
2,33898,35617
2,36424,38143
//Storyboard Layer 0 (Background)
//Storyboard Layer 1 (Fail)
//Storyboard Layer 2 (Pass)
//Storyboard Layer 3 (Foreground)
//Storyboard Layer 4 (Overlay)
//Storyboard Sound Samples

[TimingPoints]
-4354,315.789473684211,4,1,0,40,1,0
698,-100,4,1,0,65,0,0
10803,-100,4,1,0,75,0,0
20909,-100,4,1,0,65,0,0
31014,-100,4,1,0,70,0,0
32277,-100,4,1,0,80,0,0
33540,-100,4,1,0,85,0,0
43646,-100,4,1,0,100,0,1
51224,-100,4,1,0,90,0,0

[HitObjects]
179,230,698,5,4,0:0:0:0:
177,230,1014,1,8,0:0:0:0:
89,258,1330,1,0,0:0:0:0:
178,229,1646,1,8,0:0:0:0:
176,228,1961,1,0,0:0:0:0:
176,228,2277,1,8,0:0:0:0:
149,122,2435,1,0,0:0:0:0:
178,224,2751,1,0,0:0:0:0:
186,225,2909,1,8,0:0:0:0:
198,117,3067,5,0,0:0:0:0:
198,105,3224,1,0,0:0:0:0:
146,209,3540,1,8,0:0:0:0:
162,172,3698,1,0,0:0:0:0:
162,172,3856,1,0,0:0:0:0:
163,173,4172,1,8,0:0:0:0:
162,172,4488,1,8,0:0:0:0:
188,57,4803,1,8,0:0:0:0:
152,202,4961,1,0,0:0:0:0:
121,185,5435,1,8,0:0:0:0:
115,184,5751,1,0,0:0:0:0:
113,184,6067,1,8,0:0:0:0:
138,194,6382,1,0,0:0:0:0:
130,177,6698,1,8,0:0:0:0:
124,176,7014,1,0,0:0:0:0:
128,180,7172,1,0,0:0:0:0:
221,113,7330,1,8,0:0:0:0:
127,178,7488,1,8,0:0:0:0:
127,195,7803,1,0,0:0:0:0:
141,188,7961,1,8,0:0:0:0:
141,188,8119,1,0,0:0:0:0:
141,188,8277,1,8,0:0:0:0:
141,188,8593,1,8,0:0:0:0:
50,184,8909,1,0,0:0:0:0:
125,189,9067,1,0,0:0:0:0:
118,188,9224,1,8,0:0:0:0:
100,185,9540,1,0,0:0:0:0:
93,183,9856,1,8,0:0:0:0:
93,183,10014,1,0,0:0:0:0:
96,185,10330,1,0,0:0:0:0:
96,185,10488,1,8,0:0:0:0:
96,185,10646,1,0,0:0:0:0:
165,194,10724,1,0,0:0:0:0:
96,185,10803,1,12,0:0:0:0:
259,248,11119,1,8,0:0:0:0:
261,248,11435,1,0,0:0:0:0:
257,243,11593,1,0,0:0:0:0:
257,243,11751,1,8,0:0:0:0:
180,222,11909,1,0,0:0:0:0:
255,240,12067,1,0,0:0:0:0:
257,241,12382,1,8,0:0:0:0:
257,241,12698,1,0,0:0:0:0:
257,241,12856,1,8,0:0:0:0:
257,241,13014,1,0,0:0:0:0:
228,165,13172,1,8,0:0:0:0:
257,241,13330,1,0,0:0:0:0:
204,214,13646,1,8,0:0:0:0:
208,229,13803,1,0,0:0:0:0:
208,229,13961,1,0,0:0:0:0:
208,229,14119,1,0,0:0:0:0:
208,229,14277,1,8,0:0:0:0:
101,203,14435,1,0,0:0:0:0:
106,206,14593,1,0,0:0:0:0:
104,206,14909,1,8,0:0:0:0:
104,206,15067,1,0,0:0:0:0:
104,206,15382,1,0,0:0:0:0:
104,206,15540,1,8,0:0:0:0:
84,225,15698,1,8,0:0:0:0:
110,206,15856,1,0,0:0:0:0:
166,207,16172,1,8,0:0:0:0:
142,173,16330,1,0,0:0:0:0:
154,151,16488,1,0,0:0:0:0:
166,215,16646,1,0,0:0:0:0:
166,215,16803,1,8,0:0:0:0:
162,212,17119,1,0,0:0:0:0:
170,213,17277,1,0,0:0:0:0:
175,138,17435,1,8,0:0:0:0:
175,138,17593,1,0,0:0:0:0:
175,138,17751,1,0,0:0:0:0:
203,179,17909,1,8,0:0:0:0:
175,138,18067,1,8,0:0:0:0:
175,138,18224,1,0,0:0:0:0:
172,140,18382,1,12,0:0:0:0:
174,116,18698,1,8,0:0:0:0:
117,189,19014,1,0,0:0:0:0:
132,167,19172,1,0,0:0:0:0:
132,167,19330,1,8,0:0:0:0:
142,165,19646,1,12,0:0:0:0:
146,219,19803,1,0,0:0:0:0:
194,162,19961,1,8,0:0:0:0:
183,221,20119,1,0,0:0:0:0:
188,225,20277,1,0,0:0:0:0:
188,225,20435,1,8,0:0:0:0:
182,194,20514,1,8,0:0:0:0:
167,190,20593,1,8,0:0:0:0:
182,202,20751,1,0,0:0:0:0:
182,202,20909,1,12,0:0:0:0:
281,228,21224,1,8,0:0:0:0:
281,228,21382,1,8,0:0:0:0:
281,228,21540,1,0,0:0:0:0:
281,228,21856,1,8,0:0:0:0:
282,227,22172,1,0,0:0:0:0:
282,227,22330,1,0,0:0:0:0:
282,227,22488,1,8,0:0:0:0:
282,227,22646,1,8,0:0:0:0:
277,227,22803,1,0,0:0:0:0:
162,198,23119,1,8,0:0:0:0:
162,198,23277,1,0,0:0:0:0:
162,198,23356,1,0,0:0:0:0:
162,198,23435,1,12,0:0:0:0:
111,187,23751,1,8,0:0:0:0:
111,187,23909,1,8,0:0:0:0:
165,210,24067,1,0,0:0:0:0:
206,188,24224,1,0,0:0:0:0:
181,206,24382,1,8,0:0:0:0:
196,216,24698,1,0,0:0:0:0:
196,216,24856,1,0,0:0:0:0:
195,216,25014,1,8,0:0:0:0:
195,216,25172,1,8,0:0:0:0:
195,216,25330,1,0,0:0:0:0:
157,175,25488,1,8,0:0:0:0:
191,213,25646,1,8,0:0:0:0:
191,213,25803,1,0,0:0:0:0:
191,213,25882,1,0,0:0:0:0:
191,213,25961,1,12,0:0:0:0:
192,213,26277,1,8,0:0:0:0:
192,213,26435,1,8,0:0:0:0:
192,213,26593,1,0,0:0:0:0:
201,199,26751,1,0,0:0:0:0:
195,216,26909,1,8,0:0:0:0:
195,216,27224,1,0,0:0:0:0:
195,216,27382,1,0,0:0:0:0:
195,216,27540,1,8,0:0:0:0:
195,216,27698,1,8,0:0:0:0:
195,216,27856,1,0,0:0:0:0:
184,184,28172,1,8,0:0:0:0:
181,207,28330,1,0,0:0:0:0:
181,207,28409,1,0,0:0:0:0:
181,207,28488,1,12,0:0:0:0:
182,207,28803,1,8,0:0:0:0:
212,192,28961,1,8,0:0:0:0:
182,207,29119,1,0,0:0:0:0:
182,207,29277,1,0,0:0:0:0:
182,207,29435,1,8,0:0:0:0:
182,210,29751,1,0,0:0:0:0:
176,209,29909,1,0,0:0:0:0:
176,209,30067,1,8,0:0:0:0:
102,172,30224,1,8,0:0:0:0:
102,172,30382,1,0,0:0:0:0:
178,207,30540,1,0,0:0:0:0:
104,174,30698,1,8,0:0:0:0:
104,174,30856,1,0,0:0:0:0:
104,174,30935,1,0,0:0:0:0:
104,174,31014,1,12,0:0:0:0:
104,174,31330,1,8,0:0:0:0:
104,174,31488,1,8,0:0:0:0:
104,174,31646,1,0,0:0:0:0:
55,191,31803,1,0,0:0:0:0:
55,191,31961,1,8,0:0:0:0:
73,200,32277,1,8,0:0:0:0:
66,199,32435,1,0,0:0:0:0:
66,199,32593,1,8,0:0:0:0:
111,195,32751,1,0,0:0:0:0:
111,195,32909,1,8,0:0:0:0:
108,191,33067,1,0,0:0:0:0:
102,190,33146,1,8,0:0:0:0:
108,191,33224,1,8,0:0:0:0:
101,188,33303,1,0,0:0:0:0:
143,149,33382,1,8,0:0:0:0:
94,172,33461,1,8,0:0:0:0:
138,149,33540,1,4,0:0:0:0:
131,214,33698,1,4,0:0:0:0:
150,191,36067,5,12,0:0:0:0:
153,205,36224,1,12,0:0:0:0:
162,196,38593,5,12,0:0:0:0:
171,209,39856,1,4,0:0:0:0:
195,208,41119,1,12,0:0:0:0:
168,212,42382,1,0,0:0:0:0:
177,214,42856,1,0,0:0:0:0:
177,214,42935,1,0,0:0:0:0:
177,214,43014,1,8,0:0:0:0:
161,195,43172,1,8,0:0:0:0:
161,195,43251,1,8,0:0:0:0:
153,194,43330,1,8,0:0:0:0:
176,121,43409,1,0,0:0:0:0:
176,121,43488,1,0,0:0:0:0:
176,121,43567,1,0,0:0:0:0:
176,121,43646,1,12,0:0:0:0:
231,226,43961,1,0,0:0:0:0:
204,244,44119,1,8,0:0:0:0:
231,223,44277,1,0,0:0:0:0:
231,223,44435,1,0,0:0:0:0:
230,221,44593,1,8,0:0:0:0:
231,219,44909,1,0,0:0:0:0:
155,155,45067,1,0,0:0:0:0:
155,155,45224,1,8,0:0:0:0:
155,155,45382,1,8,0:0:0:0:
137,196,45461,1,0,0:0:0:0:
155,155,45540,1,0,0:0:0:0:
155,155,45698,1,0,0:0:0:0:
155,155,45856,1,8,0:0:0:0:
255,189,46172,1,0,0:0:0:0:
205,167,46330,1,0,0:0:0:0:
205,167,46488,1,8,0:0:0:0:
226,264,46646,1,0,0:0:0:0:
205,167,46803,1,0,0:0:0:0:
205,167,46961,1,0,0:0:0:0:
200,162,47119,1,8,0:0:0:0:
86,279,47277,1,8,0:0:0:0:
133,233,47356,1,0,0:0:0:0:
196,162,47435,1,0,0:0:0:0:
218,256,47593,1,8,0:0:0:0:
196,162,47751,1,8,0:0:0:0:
196,162,47909,1,0,0:0:0:0:
196,162,48067,1,0,0:0:0:0:
196,162,48224,1,0,0:0:0:0:
191,160,48382,1,8,0:0:0:0:
194,105,48540,1,0,0:0:0:0:
194,105,48698,1,8,0:0:0:0:
212,137,49014,1,8,0:0:0:0:
212,136,49330,1,0,0:0:0:0:
212,136,49488,1,0,0:0:0:0:
212,136,49646,1,8,0:0:0:0:
212,136,49803,1,0,0:0:0:0:
212,136,49961,1,0,0:0:0:0:
165,209,50119,1,0,0:0:0:0:
112,202,50277,1,8,0:0:0:0:
148,172,50435,1,0,0:0:0:0:
166,211,50593,1,0,0:0:0:0:
166,211,50751,1,0,0:0:0:0:
166,211,50830,1,0,0:0:0:0:
166,211,50909,1,8,0:0:0:0:
166,211,51067,1,8,0:0:0:0:
166,211,51146,1,8,0:0:0:0:
166,211,51224,1,4,0:0:0:0:
187,231,52330,1,8,0:0:0:0:
187,231,52409,1,8,0:0:0:0:
187,231,52488,1,4,0:0:0:0:
122,214,53119,1,4,0:0:0:0:
203,227,53330,1,4,0:0:0:0:
206,222,53540,1,4,0:0:0:0:
199,219,53751,1,12,0:0:0:0:
256,192,53909,12,0,54540,0:0:0:0:
134,151,54803,5,0,0:0:0:0:
141,161,54909,1,0,0:0:0:0:
221,246,55014,1,12,0:0:0:0:
