osu file format v14

[General]
AudioFilename: audio.mp3
AudioLeadIn: 0
PreviewTime:33011
Countdown: 0
SampleSet: None
StackLeniency: 0.7
Mode: 0
LetterboxInBreaks: 0
WidescreenStoryboard: 1

[Editor]
DistanceSpacing: 1
BeatDivisor: 4
GridSize: 16
TimelineZoom: 1.5

[Metadata]
Title:I Wanna Guinea Pig For Christmas
TitleUnicode:I Wanna Guinea Pig For Christmas
Artist:Parry Gripp
ArtistUnicode:Parry Gripp
Creator:Sotarks
Version:Basen's Normal
Source:
Tags:want chiga english vocalist xmas ParryGripp children music rock basensorex ren derandom otaku smokelind reform kujinn armin a_r_m_i_n
BeatmapID:2742957
BeatmapSetID:1324247

[Difficulty]
HPDrainRate:3.6
CircleSize:3.6
OverallDifficulty:3.8
ApproachRate:5.4
SliderMultiplier:0.999999999999999
SliderTickRate:1

[Events]
//Background and Video events
0,0,"bg.jpg"
//Break Periods
//Storyboard Layer 0 (Background)
//Storyboard Layer 1 (Fail)
//Storyboard Layer 2 (Pass)
//Storyboard Layer 3 (Foreground)
//Storyboard Layer 4 (Overlay)
//Storyboard Sound Samples

[TimingPoints]
696,315.789473684211,4,2,22,52,1,0
696,-111.111111111111,4,2,22,52,0,0
10801,-100,4,2,22,72,0,0
20906,-100,4,2,22,62,0,0
31011,-100,4,2,22,82,0,0
32274,-100,4,2,22,92,0,0
33538,-100,4,2,22,72,0,0
37880,-100,4,2,22,52,0,0
38511,-100,4,2,22,5,0,0
38590,-111.111111111111,4,2,22,72,0,0
43011,-100,4,2,22,72,0,0
43643,-90.9090909090909,4,2,22,82,0,1
51222,-111.111111111111,4,2,22,72,0,0

[Colours]
Combo1 : 30,75,234
Combo2 : 222,57,39
Combo3 : 232,223,210
Combo4 : 113,77,53

[HitObjects]
35,344,696,6,0,P|80:356|127:345,1,89.999997253418,0|2,1:2|0:2,0:0:0:0:
203,311,1327,1,2,0:2:0:0:
268,372,1643,1,2,0:2:0:0:
346,327,1959,2,0,P|391:314|438:325,1,89.999997253418,2|0,0:2|0:2,0:0:0:0:
475,337,2432,2,0,L|483:241,1,89.999997253418,2|0,0:2|0:2,0:0:0:0:
487,202,2906,1,2,0:2:0:0:
419,142,3222,1,0,0:2:0:0:
348,198,3538,6,0,P|326:204|304:204,1,44.999998626709,2|0,0:2|0:2,0:0:0:0:
271,235,3853,2,0,P|225:222|178:233,1,89.999997253418,2|2,0:2|0:2,0:0:0:0:
97,256,4485,2,0,L|88:160,1,89.999997253418,2|0,0:2|0:2,0:0:0:0:
44,160,4959,2,0,L|52:64,1,89.999997253418,2|0,0:2|0:2,0:0:0:0:
57,25,5432,1,2,0:2:0:0:
138,63,5748,6,0,B|181:79|181:79|227:70,1,89.999997253418,2|2,0:2|0:2,0:0:0:0:
306,109,6380,1,2,0:2:0:0:
384,65,6696,1,2,0:2:0:0:
458,114,7011,2,0,L|454:158,1,44.999998626709,2|2,0:2|0:2,0:0:0:0:
444,248,7485,2,0,B|400:264|400:264|354:255,1,89.999997253418,2|0,0:2|0:2,0:0:0:0:
314,243,7959,1,2,0:2:0:0:
236,197,8274,6,0,L|244:101,1,89.999997253418,2|2,0:2|0:2,0:0:0:0:
209,23,8906,2,0,P|234:16|259:17,2,44.999998626709,2|0|2,0:2|0:2|0:2,0:0:0:0:
131,65,9538,1,2,0:2:0:0:
131,65,9696,1,0,0:2:0:0:
49,26,10011,1,2,0:2:0:0:
5,203,10643,5,8,0:2:0:0:
5,203,10801,2,0,L|24:313,1,99.9999999999999,6|10,1:2|0:2,0:0:0:0:
101,362,11432,1,2,1:2:0:0:
174,293,11748,2,0,L|237:281,1,50,10|0,0:2|0:2,0:0:0:0:
272,273,12064,2,0,P|285:225|267:168,1,99.9999999999999,2|10,1:2|0:2,0:0:0:0:
225,88,12696,1,2,1:2:0:0:
287,10,13011,1,10,0:2:0:0:
384,33,13327,6,0,B|432:17|432:17|480:33,1,99.9999999999999,2|10,1:2|0:2,0:0:0:0:
491,132,13959,1,2,1:2:0:0:
500,231,14274,2,0,L|511:294,1,50,10|0,0:2|0:2,0:0:0:0:
481,322,14590,2,0,B|434:337|434:337|386:321,1,99.9999999999999,2|8,1:2|0:2,0:0:0:0:
341,298,15064,1,2,0:2:0:0:
275,373,15380,1,2,0:2:0:0:
275,373,15538,2,0,L|211:361,1,50,8|0,0:2|0:2,0:0:0:0:
183,337,15853,6,0,L|72:356,1,99.9999999999999,2|10,1:2|0:2,0:0:0:0:
48,261,16485,2,0,L|-15:249,2,50,2|0|10,1:2|0:2|0:2,0:0:0:0:
108,180,17117,2,0,L|96:116,2,50,2|0|10,1:2|0:2|0:2,0:0:0:0:
151,204,17590,1,2,0:2:0:0:
245,166,17906,1,10,0:2:0:0:
245,166,18064,2,0,L|308:177,1,50,8|4,0:2|0:3,0:0:0:0:
315,220,18380,6,0,L|425:200,1,99.9999999999999,6|10,1:2|0:2,0:0:0:0:
503,158,19011,2,0,P|510:183|509:208,2,50,2|2|10,1:2|1:2|0:2,0:0:0:0:
471,67,19643,1,6,1:2:0:0:
471,67,19801,1,2,0:2:0:0:
377,30,20117,1,2,0:2:0:0:
293,82,20432,1,8,0:2:0:0:
293,82,20590,2,0,L|229:70,1,50,10|8,0:2|0:2,0:0:0:0:
211,35,20906,6,0,B|147:46|147:46|134:64|134:64|71:75,1,150,6|8,1:2|0:2,0:0:0:0:
24,91,21538,2,0,P|11:139|29:196,1,99.9999999999999,2|8,1:2|0:2,0:0:0:0:
64,277,22169,1,0,1:2:0:0:
115,362,22485,2,0,L|178:350,1,50,8|8,0:2|0:2,0:0:0:0:
213,345,22801,1,2,1:2:0:0:
280,271,23117,1,10,0:2:0:0:
226,187,23432,6,0,B|204:67|204:67|263:11,1,200,6|0,1:2|1:2,0:0:0:0:
346,65,24380,1,8,0:2:0:0:
431,13,24696,1,0,1:2:0:0:
511,72,25011,2,0,L|499:135,1,50,8|8,0:2|0:2,0:0:0:0:
494,170,25327,1,2,1:2:0:0:
402,210,25643,1,10,3:2:0:0:
436,303,25959,6,0,B|393:346|393:346|300:330,1,150,6|8,1:2|0:2,0:0:0:0:
259,313,26590,2,0,L|148:332,1,99.9999999999999,2|8,1:2|0:2,0:0:0:0:
61,346,27222,1,0,1:2:0:0:
2,265,27538,2,0,L|13:201,1,50,10|8,0:2|0:2,0:0:0:0:
57,197,27853,2,0,L|38:86,1,99.9999999999999,2|8,1:2|0:2,0:0:0:0:
65,56,28327,1,2,1:2:0:0:
65,56,28485,5,4,1:2:0:0:
155,14,28801,2,0,P|239:53|238:155,1,200,10|8,0:2|0:2,0:0:0:0:
177,226,29748,1,0,1:2:0:0:
216,317,30064,2,0,L|279:328,1,50,8|8,0:2|0:2,0:0:0:0:
308,300,30380,1,0,1:2:0:0:
384,364,30696,2,0,L|447:352,1,50,10|0,2:2|1:2,0:0:0:0:
481,342,31011,6,0,B|496:295|496:295|480:247,1,99.9999999999999,6|10,1:2|0:2,0:0:0:0:
426,162,31643,1,2,1:2:0:0:
491,86,31959,1,10,0:2:0:0:
434,3,32274,6,0,L|370:14,1,50,14|0,0:2|1:2,0:0:0:0:
353,51,32590,1,12,0:2:0:0:
353,51,32748,2,0,L|244:31,1,99.9999999999999,2|2,1:2|1:2,0:0:0:0:
205,22,33222,1,10,1:2:0:0:
110,41,33538,5,8,0:2:0:0:
110,41,33696,1,8,0:2:0:0:
37,108,36064,5,8,0:2:0:0:
37,108,36222,1,8,0:2:0:0:
58,205,38590,6,0,B|143:183|185:226|185:226|228:268|313:247,1,269.999991760254,6|0,1:2|0:0,0:0:0:0:
369,179,39853,2,0,B|398:143|440:142|440:142|506:231|450:336,1,269.999991760254,6|0,1:2|0:0,0:0:0:0:
377,360,41117,2,0,B|282:343|282:343|213:363|213:363|103:344,1,269.999991760254,6|0,1:2|0:0,0:0:0:0:
24,328,42380,2,0,L|7:233,1,89.999997253418,6|0,1:2|0:0,0:0:0:0:
44,211,42853,5,2,3:2:0:0:
44,211,43011,2,0,L|55:147,1,50,12|0,3:2|3:2,0:0:0:0:
94,134,43327,2,0,P|119:127|144:128,1,50,8|0,3:2|3:2,0:0:0:0:
194,146,43643,6,0,L|301:175,1,110.000003356934,6|10,1:2|0:2,0:0:0:0:
382,247,44274,2,0,L|398:308,2,55.0000016784668,2|0|10,1:2|1:2|0:2,0:0:0:0:
466,175,44906,1,2,1:2:0:0:
466,175,45064,2,0,L|482:113,1,55.0000016784668,0|8,1:2|0:2,0:0:0:0:
474,66,45380,2,0,P|427:37|372:35,1,110.000003356934,10|0,0:3|1:2,0:0:0:0:
320,50,45853,1,8,0:2:0:0:
214,19,46169,6,0,P|167:48|112:50,1,110.000003356934,6|10,1:2|0:2,0:0:0:0:
55,144,46801,2,0,L|-6:127,2,55.0000016784668,2|0|8,1:2|1:2|0:2,0:0:0:0:
107,246,47432,1,2,1:2:0:0:
107,246,47590,2,0,L|90:307,1,55.0000016784668,0|8,1:2|0:2,0:0:0:0:
113,350,47906,2,0,B|168:363|196:336|196:336|224:308|280:322,1,165.0000050354,10|10,0:3|0:2,0:0:0:0:
369,363,48696,5,6,1:2:0:0:
466,312,49011,1,10,0:2:0:0:
453,202,49327,2,0,L|469:140,1,55.0000016784668,2|0,1:2|1:2,0:0:0:0:
483,96,49643,1,10,0:2:0:0:
396,27,49959,2,0,L|334:43,1,55.0000016784668,2|0,1:2|1:2,0:0:0:0:
293,61,50275,1,8,0:2:0:0:
293,61,50432,2,0,P|264:108|262:163,1,110.000003356934,2|0,0:2|1:2,0:0:0:0:
279,213,50906,1,8,0:2:0:0:
289,302,51222,6,0,B|213:281|161:328|161:328|138:261|63:241,1,269.999991760254,4|0,1:2|0:0,0:0:0:0:
27,230,52327,1,0,1:2:0:0:
27,230,52485,2,0,L|10:135,1,89.999997253418,4|0,1:2|0:0,0:0:0:0:
84,88,53117,6,0,L|95:24,2,59.9999981689453,4|0|0,1:2|1:2|1:2,0:0:0:0:
129,126,53748,2,0,B|213:55|383:141|268:255|429:256,1,359.999989013672,4|6,1:2|1:2,0:0:0:0:
