osu file format v14

[General]
AudioFilename: audio.mp3
AudioLeadIn: 0
PreviewTime: 33826
Countdown: 0
SampleSet: Soft
StackLeniency: 0.7
Mode: 1
LetterboxInBreaks: 0
WidescreenStoryboard: 0

[Editor]
Bookmarks: 273,3273,9273,15273,21273,27273,31773,34773,40773,46773,49773,51273
DistanceSpacing: 1.1
BeatDivisor: 4
GridSize: 32
TimelineZoom: 1.8

[Metadata]
Title:Guinea Pig Olympics
TitleUnicode:Guinea Pig Olympics
Artist:Parry Gripp
ArtistUnicode:Parry Gripp
Creator:Sotarks
Version:Ayyri's Oni
Source:
Tags:english vocalist children music pop reform kujinn eiri- ayyri
BeatmapID:2169894
BeatmapSetID:1031162

[Difficulty]
HPDrainRate:5
CircleSize:2
OverallDifficulty:6
ApproachRate:10
SliderMultiplier:1.4
SliderTickRate:1

[Events]
//Background and Video events
0,0,"3.jpg",0,25
Video,0,"video.mp4"
//Break Periods
//Storyboard Layer 0 (Background)
//Storyboard Layer 1 (Fail)
//Storyboard Layer 2 (Pass)
//Storyboard Layer 3 (Foreground)
//Storyboard Layer 4 (Overlay)
//Storyboard Sound Samples

[TimingPoints]
-1330,375,4,2,0,62,1,0
2420,-100,4,2,0,52,0,0
3170,-100,4,2,0,72,0,0
15170,-100,4,2,0,82,0,0
31670,-100,4,2,0,92,0,0
33920,-100,4,2,0,62,0,0
34670,-100,4,2,0,82,0,0
49670,-100,4,2,0,92,0,0

[Colours]
Combo1 : 255,115,0
Combo2 : 143,255,6
Combo3 : 255,238,26

[HitObjects]
256,192,76,5,0,0:0:0:0:
256,192,123,1,0,0:0:0:0:
256,192,170,1,8,0:0:0:0:
256,192,357,1,0,0:0:0:0:
256,192,732,1,8,0:0:0:0:
256,192,920,1,8,0:0:0:0:
256,192,1295,1,0,0:0:0:0:
256,192,1482,1,12,0:0:0:0:
256,192,2420,1,0,0:0:0:0:
256,192,2607,1,0,0:0:0:0:
256,192,2795,1,8,0:0:0:0:
256,192,2982,1,0,0:0:0:0:
256,192,3170,1,12,0:0:0:0:
256,192,3545,1,4,0:0:0:0:
256,192,4107,1,0,0:0:0:0:
256,192,4295,1,8,0:0:0:0:
256,192,4482,1,0,0:0:0:0:
256,192,4670,1,0,0:0:0:0:
256,192,5045,1,8,0:0:0:0:
256,192,5420,1,0,0:0:0:0:
256,192,5607,1,0,0:0:0:0:
256,192,5795,1,8,0:0:0:0:
256,192,5982,1,8,0:0:0:0:
256,192,6170,1,0,0:0:0:0:
256,192,6545,1,8,0:0:0:0:
256,192,6920,1,0,0:0:0:0:
256,192,7295,1,8,0:0:0:0:
256,192,7482,1,8,0:0:0:0:
256,192,7670,1,0,0:0:0:0:
256,192,8045,1,8,0:0:0:0:
256,192,8420,1,0,0:0:0:0:
256,192,8607,1,0,0:0:0:0:
256,192,8795,1,8,0:0:0:0:
256,192,8982,1,0,0:0:0:0:
256,192,9170,1,12,0:0:0:0:
256,192,9545,1,4,0:0:0:0:
256,192,10107,1,0,0:0:0:0:
256,192,10295,1,8,0:0:0:0:
256,192,10482,1,0,0:0:0:0:
256,192,10670,1,0,0:0:0:0:
256,192,11045,1,8,0:0:0:0:
256,192,11420,1,0,0:0:0:0:
256,192,11607,1,0,0:0:0:0:
256,192,11795,1,8,0:0:0:0:
256,192,12170,1,0,0:0:0:0:
256,192,12545,1,8,0:0:0:0:
256,192,12920,1,0,0:0:0:0:
256,192,13295,1,8,0:0:0:0:
256,192,13482,1,8,0:0:0:0:
256,192,13670,1,0,0:0:0:0:
256,192,14045,1,8,0:0:0:0:
256,192,14232,1,8,0:0:0:0:
256,192,14326,1,8,0:0:0:0:
256,192,14420,1,0,0:0:0:0:
256,192,14607,1,0,0:0:0:0:
256,192,14795,1,8,0:0:0:0:
256,192,14982,1,0,0:0:0:0:
256,192,15170,1,12,0:0:0:0:
256,192,15545,1,4,0:0:0:0:
256,192,16107,1,4,0:0:0:0:
256,192,16295,1,12,0:0:0:0:
256,192,16482,1,4,0:0:0:0:
256,192,17045,1,8,0:0:0:0:
256,192,17420,1,0,0:0:0:0:
256,192,17607,1,0,0:0:0:0:
256,192,17795,1,8,0:0:0:0:
256,192,17982,1,8,0:0:0:0:
256,192,18170,1,0,0:0:0:0:
256,192,18263,1,0,0:0:0:0:
256,192,18357,1,0,0:0:0:0:
256,192,18545,1,8,0:0:0:0:
256,192,18732,1,0,0:0:0:0:
256,192,18920,1,8,0:0:0:0:
256,192,19295,1,8,0:0:0:0:
256,192,19482,1,8,0:0:0:0:
256,192,19670,1,0,0:0:0:0:
256,192,20045,1,8,0:0:0:0:
256,192,20420,1,0,0:0:0:0:
256,192,20607,1,0,0:0:0:0:
256,192,20795,1,8,0:0:0:0:
256,192,20982,1,0,0:0:0:0:
256,192,21170,1,12,0:0:0:0:
256,192,21545,1,4,0:0:0:0:
256,192,22107,1,4,0:0:0:0:
256,192,22295,1,12,0:0:0:0:
256,192,22482,1,4,0:0:0:0:
256,192,23045,1,8,0:0:0:0:
256,192,23232,1,0,0:0:0:0:
256,192,23420,1,8,0:0:0:0:
256,192,23795,1,8,0:0:0:0:
256,192,23982,1,8,0:0:0:0:
256,192,24170,1,0,0:0:0:0:
256,192,24357,1,0,0:0:0:0:
256,192,24545,1,8,0:0:0:0:
256,192,24638,1,8,0:0:0:0:
256,192,24732,1,8,0:0:0:0:
256,192,24920,1,0,0:0:0:0:
256,192,25295,1,8,0:0:0:0:
256,192,25482,1,0,0:0:0:0:
256,192,25670,1,0,0:0:0:0:
256,192,25763,1,0,0:0:0:0:
256,192,25857,1,0,0:0:0:0:
256,192,26045,1,8,0:0:0:0:
256,192,26232,1,8,0:0:0:0:
256,192,26326,1,8,0:0:0:0:
256,192,26420,1,0,0:0:0:0:
256,192,26607,1,0,0:0:0:0:
256,192,26795,1,8,0:0:0:0:
256,192,26982,1,0,0:0:0:0:
256,192,27170,1,12,0:0:0:0:
256,192,27357,1,12,0:0:0:0:
256,192,27545,1,4,0:0:0:0:
256,192,27732,1,12,0:0:0:0:
256,192,28107,1,0,0:0:0:0:
256,192,28295,1,12,0:0:0:0:
256,192,28670,1,12,0:0:0:0:
256,192,28857,1,12,0:0:0:0:
256,192,29045,1,4,0:0:0:0:
256,192,29232,1,12,0:0:0:0:
256,192,29607,1,0,0:0:0:0:
256,192,29795,1,12,0:0:0:0:
256,192,30170,1,12,0:0:0:0:
256,192,30357,1,12,0:0:0:0:
256,192,30545,1,4,0:0:0:0:
256,192,30732,1,12,0:0:0:0:
256,192,31107,1,0,0:0:0:0:
256,192,31295,1,12,0:0:0:0:
256,192,31670,1,12,0:0:0:0:
256,192,31857,1,0,0:0:0:0:
256,192,32045,1,0,0:0:0:0:
256,192,32232,1,12,0:0:0:0:
256,192,32420,1,0,0:0:0:0:
256,192,32607,1,0,0:0:0:0:
256,192,32795,1,12,0:0:0:0:
256,192,32982,1,0,0:0:0:0:
256,192,33170,1,12,0:0:0:0:
256,192,34670,1,12,0:0:0:0:
256,192,35045,1,4,0:0:0:0:
256,192,35607,1,4,0:0:0:0:
256,192,35795,1,12,0:0:0:0:
256,192,35982,1,4,0:0:0:0:
256,192,36545,1,8,0:0:0:0:
256,192,36920,1,0,0:0:0:0:
256,192,37107,1,0,0:0:0:0:
256,192,37201,1,0,0:0:0:0:
256,192,37295,1,8,0:0:0:0:
256,192,37482,1,0,0:0:0:0:
256,192,37670,1,12,0:0:0:0:
256,192,38045,1,4,0:0:0:0:
256,192,38420,1,12,0:0:0:0:
256,192,38795,1,0,0:0:0:0:
256,192,38982,1,8,0:0:0:0:
256,192,39076,1,8,0:0:0:0:
256,192,39170,1,0,0:0:0:0:
256,192,39357,1,0,0:0:0:0:
256,192,39545,1,8,0:0:0:0:
256,192,39920,1,0,0:0:0:0:
256,192,40107,1,0,0:0:0:0:
256,192,40201,1,0,0:0:0:0:
256,192,40295,1,8,0:0:0:0:
256,192,40388,1,8,0:0:0:0:
256,192,40482,1,0,0:0:0:0:
256,192,40670,1,12,0:0:0:0:
256,192,41045,1,4,0:0:0:0:
256,192,41607,1,4,0:0:0:0:
256,192,41795,1,12,0:0:0:0:
256,192,41982,1,4,0:0:0:0:
256,192,42545,1,8,0:0:0:0:
256,192,42920,1,0,0:0:0:0:
256,192,43107,1,0,0:0:0:0:
256,192,43201,1,0,0:0:0:0:
256,192,43295,1,8,0:0:0:0:
256,192,43482,1,0,0:0:0:0:
256,192,43670,1,12,0:0:0:0:
256,192,44045,1,4,0:0:0:0:
256,192,44420,1,12,0:0:0:0:
256,192,44795,1,0,0:0:0:0:
256,192,44982,1,8,0:0:0:0:
256,192,45076,1,0,0:0:0:0:
256,192,45170,1,8,0:0:0:0:
256,192,45357,1,0,0:0:0:0:
256,192,45545,1,8,0:0:0:0:
256,192,45826,1,0,0:0:0:0:
256,192,45920,1,8,0:0:0:0:
256,192,46170,1,0,0:0:0:0:
256,192,46420,1,0,0:0:0:0:
256,192,46670,1,12,0:0:0:0:
256,192,47295,1,0,0:0:0:0:
256,192,47357,1,0,0:0:0:0:
256,192,47420,1,8,0:0:0:0:
256,192,47670,1,8,0:0:0:0:
256,192,47920,1,0,0:0:0:0:
256,192,48170,1,12,0:0:0:0:
256,192,48795,1,0,0:0:0:0:
256,192,48857,1,0,0:0:0:0:
256,192,48920,1,8,0:0:0:0:
256,192,49170,1,8,0:0:0:0:
256,192,49420,1,0,0:0:0:0:
256,192,49670,1,12,0:0:0:0:
256,192,50045,1,8,0:0:0:0:
256,192,50138,1,0,0:0:0:0:
256,192,50232,1,8,0:0:0:0:
256,192,50420,1,0,0:0:0:0:
256,192,50607,1,0,0:0:0:0:
256,192,50701,1,0,0:0:0:0:
256,192,50795,1,8,0:0:0:0:
256,192,50982,1,0,0:0:0:0:
256,192,51170,1,12,0:0:0:0:
