osu file format v14

[General]
AudioFilename: audio.mp3
AudioLeadIn: 0
PreviewTime: 33920
Countdown: 0
SampleSet: Soft
StackLeniency: 0.7
Mode: 2
LetterboxInBreaks: 0
WidescreenStoryboard: 1

[Editor]
Bookmarks: 8795
DistanceSpacing: 1.1
BeatDivisor: 4
GridSize: 32
TimelineZoom: 1.5

[Metadata]
Title:Guinea Pig Olympics
TitleUnicode:Guinea Pig Olympics
Artist:Parry Gripp
ArtistUnicode:Parry Gripp
Creator:MILK_16
Version:Rain
Source:
Tags:english vocalist children music pop Milk's rhytms
BeatmapID:2709415
BeatmapSetID:1306813

[Difficulty]
HPDrainRate:6
CircleSize:4
OverallDifficulty:9
ApproachRate:9
SliderMultiplier:1.52
SliderTickRate:2

[Events]
//Background and Video events
0,0,"BG.jpg",0,0
//Break Periods
//Storyboard Layer 0 (Background)
//Storyboard Layer 1 (Fail)
//Storyboard Layer 2 (Pass)
//Storyboard Layer 3 (Foreground)
//Storyboard Layer 4 (Overlay)
//Storyboard Sound Samples

[TimingPoints]
-1330,375,4,2,22,62,1,0
76,-108.695652173913,4,2,22,62,0,0
2420,-161.290322580645,4,2,22,52,0,0
3170,-108.695652173913,4,2,22,72,0,0
15170,-98.0392156862745,4,2,22,82,0,0
27170,-89.2857142857143,4,2,22,82,0,1
31670,-89.2857142857143,4,2,22,92,0,1
33920,-89.2857142857143,4,2,22,62,0,0
34670,-98.0392156862745,4,2,22,82,0,0
45920,-81.9672131147541,4,2,22,82,0,0
46670,-98.0392156862745,4,2,22,82,0,0
48170,-89.2857142857143,4,2,22,82,0,0
49670,-89.2857142857143,4,2,22,92,0,0

[Colours]
Combo1 : 0,128,255
Combo2 : 255,255,0
Combo3 : 0,255,0
Combo4 : 255,0,0

[HitObjects]
119,155,76,6,0,L|122:128,2,17.479999413208
198,128,357,1,0,0:0:0:0:
400,162,732,5,0,0:0:0:0:
261,117,920,1,0,0:0:0:0:
454,187,1295,5,0,0:0:0:0:
205,88,1482,1,0,0:0:0:0:
436,232,2420,6,0,L|435:170,1,47.1199981306153
259,230,2795,2,0,P|259:182|259:182,1,47.1199981306153
432,95,3170,2,0,P|457:131|421:214,1,139.839995305664
271,170,3732,2,0,L|347:170,1,69.9199976528321
434,88,4107,1,0,0:0:0:0:
338,86,4295,1,0,0:0:0:0:
434,88,4482,1,0,0:0:0:0:
299,138,4670,6,0,L|263:231,1,69.9199976528321
144,129,5045,2,0,L|180:221,1,69.9199976528321
289,195,5420,2,0,L|193:195,2,69.9199976528321
153,192,5982,1,0,0:0:0:0:
398,196,6170,6,0,L|439:121,1,69.9199976528321
144,112,6545,2,0,P|121:157|111:202,1,69.9199976528321
222,126,6920,2,0,L|311:126,1,69.9199976528321
164,65,7295,2,0,L|75:64,1,69.9199976528321
276,127,7670,6,0,L|193:127,1,69.9199976528321
361,128,8045,2,0,L|415:212,1,69.9199976528321
273,194,8420,1,0,0:0:0:0:
411,197,8607,1,0,0:0:0:0:
273,194,8795,1,0,0:0:0:0:
411,197,8982,1,0,0:0:0:0:
162,163,9170,6,0,L|162:75,1,69.9199976528321
57,120,9545,2,0,L|58:41,1,69.9199976528321
215,91,9920,1,0,0:0:0:0:
150,159,10107,1,0,0:0:0:0:
285,158,10295,1,0,0:0:0:0:
216,159,10482,1,0,0:0:0:0:
87,188,10670,6,0,L|90:265,1,69.9199976528321
197,255,11045,2,0,L|199:333,1,69.9199976528321
349,251,11420,2,0,L|272:251,1,69.9199976528321
444,239,11795,2,0,L|492:166,1,69.9199976528321
235,173,12170,6,0,L|186:82,1,69.9199976528321
447,169,12545,2,0,L|490:101,1,69.9199976528321
217,77,12920,2,0,L|138:77,1,69.9199976528321
282,78,13295,1,0,0:0:0:0:
37,70,13482,2,0,L|38:161,1,69.9199976528321
294,128,13857,6,0,L|198:129,1,69.9199976528321
374,127,14232,1,0,0:0:0:0:
117,132,14420,6,0,L|117:35,1,69.9199976528321
239,88,14795,1,0,0:0:0:0:
366,89,14982,1,0,0:0:0:0:
106,85,15170,6,0,L|1:85,1,77.5200004731445
279,84,15545,2,0,L|374:84,1,77.5200004731445
62,154,15920,1,0,0:0:0:0:
182,207,16107,2,0,L|95:207,1,77.5200004731445
230,266,16482,1,0,0:0:0:0:
81,244,16670,6,0,L|119:166,1,77.5200004731445
292,241,17045,2,0,L|250:145,1,77.5200004731445
131,109,17420,2,0,L|223:108,1,77.5200004731445
348,109,17795,1,0,0:0:0:0:
208,108,17982,1,0,0:0:0:0:
457,116,18170,6,0,P|478:178|428:264,1,155.040000946289
256,264,18732,1,0,0:0:0:0:
370,264,18920,1,0,0:0:0:0:
189,266,19107,1,0,0:0:0:0:
436,262,19295,1,0,0:0:0:0:
308,267,19482,1,0,0:0:0:0:
436,262,19670,6,0,P|440:222|444:179,1,77.5200004731445
303,162,20045,2,0,L|399:162,1,77.5200004731445
247,164,20420,1,0,0:0:0:0:
123,163,20607,1,0,0:0:0:0:
247,164,20795,2,0,L|290:96,1,77.5200004731445
32,173,21170,6,0,L|32:68,1,77.5200004731445
288,176,21545,2,0,L|288:71,1,77.5200004731445
181,180,21920,1,0,0:0:0:0:
431,180,22107,1,0,0:0:0:0:
308,180,22295,1,0,0:0:0:0:
431,180,22482,1,0,0:0:0:0:
278,179,22670,6,0,L|279:93,1,77.5200004731445
172,115,23045,2,0,L|173:27,1,77.5200004731445
292,37,23420,2,0,L|207:36,1,77.5200004731445
479,59,23795,2,0,L|481:151,1,77.5200004731445
232,192,24170,6,0,L|326:190,1,77.5200004731445
145,146,24545,2,0,L|48:145,1,77.5200004731445
215,86,24920,2,0,L|138:84,1,77.5200004731445
389,85,25295,2,0,L|488:85,1,77.5200004731445
310,86,25670,6,0,L|310:182,1,77.5200004731445
177,172,26045,1,0,0:0:0:0:
273,143,26232,6,0,L|225:111,1,38.7600002365723
432,115,26420,2,0,L|346:115,1,77.5200004731445
469,115,26795,1,0,0:0:0:0:
469,115,26982,1,0,0:0:0:0:
206,110,27170,6,0,L|102:110,2,85.1200010390625
450,115,27732,2,0,P|477:173|422:256,1,170.240002078125
158,190,28295,1,0,0:0:0:0:
375,189,28670,6,0,L|376:95,1,85.1200010390625
73,70,29045,2,0,P|52:117|98:228,1,170.240002078125
402,155,29607,1,0,0:0:0:0:
156,156,29795,1,0,0:0:0:0:
327,156,30170,6,0,L|417:155,1,85.1200010390625
141,88,30545,1,0,0:0:0:0:
410,50,30732,2,0,P|459:93|447:202,1,170.240002078125
198,192,31295,1,0,0:0:0:0:
430,192,31670,5,0,0:0:0:0:
176,190,31857,1,0,0:0:0:0:
55,188,32045,1,0,0:0:0:0:
176,190,32232,1,0,0:0:0:0:
283,191,32420,1,0,0:0:0:0:
176,190,32607,1,0,0:0:0:0:
55,188,32795,1,0,0:0:0:0:
176,190,32982,1,0,0:0:0:0:
55,188,33170,1,0,0:0:0:0:
240,129,33920,5,0,0:0:0:0:
485,131,34107,1,0,0:0:0:0:
370,129,34295,1,0,0:0:0:0:
485,131,34482,1,0,0:0:0:0:
240,129,34670,6,0,L|241:39,1,77.5200004731445
77,165,35045,2,0,L|77:68,1,77.5200004731445
178,166,35420,1,0,0:0:0:0:
305,113,35607,2,0,L|194:112,1,77.5200004731445
475,69,35982,1,0,0:0:0:0:
314,181,36170,6,0,L|314:67,1,77.5200004731445
440,127,36545,2,0,L|440:37,1,77.5200004731445
195,66,36920,2,0,L|296:67,3,77.5200004731445
20,69,37670,6,0,L|20:156,1,77.5200004731445
272,66,38045,2,0,L|271:155,1,77.5200004731445
150,58,38420,2,0,L|150:152,1,77.5200004731445
416,54,38795,2,0,L|417:157,1,77.5200004731445
264,62,39170,6,0,L|350:61,1,77.5200004731445
209,130,39545,2,0,L|120:131,1,77.5200004731445
48,148,39920,2,0,L|47:52,1,77.5200004731445
118,61,40201,1,0,0:0:0:0:
164,200,40295,2,0,L|253:200,1,77.5200004731445
364,211,40670,6,0,L|365:113,1,77.5200004731445
108,212,41045,2,0,P|105:105|105:105,1,77.5200004731445
364,211,41420,1,0,0:0:0:0:
90,155,41607,1,0,0:0:0:0:
215,152,41795,1,0,0:0:0:0:
90,155,41982,1,0,0:0:0:0:
243,152,42170,6,0,L|312:101,1,77.5200004731445
60,154,42545,2,0,L|-27:93,1,77.5200004731445
257,76,42920,1,0,0:0:0:0:
345,74,43107,1,0,0:0:0:0:
222,70,43295,2,0,L|170:139,1,77.5200004731445
454,76,43670,6,0,L|500:145,1,77.5200004731445
222,70,44045,2,0,L|223:177,1,77.5200004731445
482,74,44420,2,0,L|483:161,1,77.5200004731445
181,74,44795,2,0,L|179:184,1,77.5200004731445
32,153,45170,5,0,0:0:0:0:
179,151,45357,1,0,0:0:0:0:
301,153,45545,1,0,0:0:0:0:
53,154,45732,1,0,0:0:0:0:
299,280,45920,6,0,L|297:201,1,46.3599980900269
455,275,46107,2,0,L|455:193,1,46.3599980900269
298,178,46295,2,0,L|298:129,1,46.3599980900269
458,115,46482,1,0,0:0:0:0:
299,86,46670,6,0,B|208:56|208:56|204:146|204:146|110:149|107:150|107:150|203:256|66:288,1,465.120002838867
228,95,48170,6,0,B|309:144|309:144|207:207|207:207|325:274,1,340.48000415625
487,269,49295,6,0,L|485:159,1,85.1200010390625
334,120,49670,6,0,L|419:120,1,85.1200010390625
266,121,50045,2,0,L|239:35,1,85.1200010390625
410,48,50420,2,0,L|318:48,1,85.1200010390625
167,45,50795,2,0,L|264:44,1,85.1200010390625
0,126,51170,5,4,0:0:0:0:
