osu file format v14

[General]
AudioFilename: audio.mp3
AudioLeadIn: 0
PreviewTime: 25817
Countdown: 1
SampleSet: Normal
StackLeniency: 0.7
Mode: 1
LetterboxInBreaks: 0
WidescreenStoryboard: 1

[Editor]
DistanceSpacing: 1.7
BeatDivisor: 4
GridSize: 32
TimelineZoom: 1.8

[Metadata]
Title:Guinea Pig Bridge
TitleUnicode:Guinea Pig Bridge
Artist:Parry Gripp
ArtistUnicode:Parry Gripp
Creator:Yasuho
Version:Oni
Source:
Tags:english male vocalist Nagasaki Bio Park children music Nerf Herder Cavia porcellus pop myangellain
BeatmapID:2159317
BeatmapSetID:1031913

[Difficulty]
HPDrainRate:6
CircleSize:2
OverallDifficulty:6
ApproachRate:10
SliderMultiplier:1.4
SliderTickRate:1

[Events]
//Background and Video events
0,0,"bg.jpg",0,0
//Break Periods
//Storyboard Layer 0 (Background)
//Storyboard Layer 1 (Fail)
//Storyboard Layer 2 (Pass)
//Storyboard Layer 3 (Foreground)
//Storyboard Layer 4 (Overlay)
//Storyboard Sound Samples

[TimingPoints]
484,333.333333333333,4,1,0,70,1,0
484,-111.111111111111,4,1,0,70,0,0
5817,-100,4,1,0,70,0,0
21483,-100,4,1,0,80,0,0
21817,-100,4,1,0,80,0,0
25817,-100,4,1,0,90,0,1
35150,-100,4,1,0,90,0,0
37150,-100,4,1,0,100,0,0

[HitObjects]
256,192,484,5,0,0:0:0:0:
256,192,650,1,8,0:0:0:0:
256,192,817,1,8,0:0:0:0:
256,192,1150,1,8,0:0:0:0:
256,192,1317,1,8,0:0:0:0:
256,192,1483,1,0,0:0:0:0:
256,192,1817,1,8,0:0:0:0:
256,192,1983,1,0,0:0:0:0:
256,192,2150,1,8,0:0:0:0:
256,192,2317,1,0,0:0:0:0:
256,192,2483,1,8,0:0:0:0:
256,192,2650,1,8,0:0:0:0:
256,192,2817,1,0,0:0:0:0:
256,192,3150,1,8,0:0:0:0:
256,192,3317,1,0,0:0:0:0:
256,192,3483,1,0,0:0:0:0:
256,192,3817,1,8,0:0:0:0:
256,192,3983,1,0,0:0:0:0:
256,192,4150,1,0,0:0:0:0:
256,192,4483,1,8,0:0:0:0:
256,192,4650,1,0,0:0:0:0:
256,192,4817,1,8,0:0:0:0:
256,192,4983,1,0,0:0:0:0:
256,192,5150,1,0,0:0:0:0:
256,192,5317,1,8,0:0:0:0:
256,192,5483,1,0,0:0:0:0:
256,192,5817,1,4,0:0:0:0:
256,192,5983,1,0,0:0:0:0:
256,192,6150,1,8,0:0:0:0:
256,192,6483,1,0,0:0:0:0:
256,192,6650,1,0,0:0:0:0:
256,192,6817,1,8,0:0:0:0:
256,192,7150,1,0,0:0:0:0:
256,192,7317,1,0,0:0:0:0:
256,192,7483,1,8,0:0:0:0:
256,192,7650,1,8,0:0:0:0:
256,192,7817,1,0,0:0:0:0:
256,192,7983,1,0,0:0:0:0:
256,192,8150,1,8,0:0:0:0:
256,192,8483,1,0,0:0:0:0:
256,192,8650,1,0,0:0:0:0:
256,192,8817,1,8,0:0:0:0:
256,192,9150,1,0,0:0:0:0:
256,192,9317,1,0,0:0:0:0:
256,192,9483,1,8,0:0:0:0:
256,192,9817,1,0,0:0:0:0:
256,192,9983,1,0,0:0:0:0:
256,192,10150,1,8,0:0:0:0:
256,192,10317,1,8,0:0:0:0:
256,192,10483,1,0,0:0:0:0:
256,192,10817,1,8,0:0:0:0:
256,192,10900,1,8,0:0:0:0:
256,192,10983,1,8,0:0:0:0:
256,192,11067,1,8,0:0:0:0:
256,192,11150,1,4,0:0:0:0:
256,192,11483,1,8,0:0:0:0:
256,192,11817,1,0,0:0:0:0:
256,192,12150,1,8,0:0:0:0:
256,192,12483,1,0,0:0:0:0:
256,192,12650,1,0,0:0:0:0:
256,192,12817,1,8,0:0:0:0:
256,192,12983,1,8,0:0:0:0:
256,192,13150,1,0,0:0:0:0:
256,192,13317,1,0,0:0:0:0:
256,192,13483,1,8,0:0:0:0:
256,192,13650,1,0,0:0:0:0:
256,192,13817,1,8,0:0:0:0:
256,192,14150,1,0,0:0:0:0:
256,192,14317,1,8,0:0:0:0:
256,192,14483,1,8,0:0:0:0:
256,192,14650,1,0,0:0:0:0:
256,192,14817,1,0,0:0:0:0:
256,192,14983,1,8,0:0:0:0:
256,192,15150,1,0,0:0:0:0:
256,192,15317,1,8,0:0:0:0:
256,192,15400,1,0,0:0:0:0:
256,192,15483,1,0,0:0:0:0:
256,192,15817,1,8,0:0:0:0:
256,192,15983,1,8,0:0:0:0:
256,192,16067,1,0,0:0:0:0:
256,192,16150,1,8,0:0:0:0:
187,164,16233,1,0,0:0:0:0:
256,192,16317,1,8,0:0:0:0:
256,192,16400,1,0,0:0:0:0:
256,192,16483,1,12,0:0:0:0:
256,192,16650,1,8,0:0:0:0:
256,192,16817,1,8,0:0:0:0:
256,192,16983,1,0,0:0:0:0:
256,192,17150,1,8,0:0:0:0:
256,192,17483,1,8,0:0:0:0:
256,192,17650,1,0,0:0:0:0:
256,192,17817,1,0,0:0:0:0:
256,192,17983,1,0,0:0:0:0:
139,219,18150,1,8,0:0:0:0:
256,192,18483,1,0,0:0:0:0:
256,192,18650,1,8,0:0:0:0:
256,192,18817,1,0,0:0:0:0:
256,192,19150,1,0,0:0:0:0:
256,192,19317,1,0,0:0:0:0:
256,192,19483,1,8,0:0:0:0:
256,192,19817,1,8,0:0:0:0:
256,192,19983,1,8,0:0:0:0:
256,192,20150,1,0,0:0:0:0:
256,192,20317,1,0,0:0:0:0:
256,192,20483,1,8,0:0:0:0:
256,192,20817,1,8,0:0:0:0:
256,192,21150,1,0,0:0:0:0:
256,192,21317,1,0,0:0:0:0:
256,192,21483,1,8,0:0:0:0:
256,192,21817,1,0,0:0:0:0:
256,192,21983,1,0,0:0:0:0:
256,192,22150,1,8,0:0:0:0:
256,192,22316,1,0,0:0:0:0:
256,192,22483,1,8,0:0:0:0:
256,192,22649,1,0,0:0:0:0:
256,192,22817,1,8,0:0:0:0:
256,192,22983,1,0,0:0:0:0:
256,192,23150,1,8,0:0:0:0:
256,192,23316,1,0,0:0:0:0:
256,192,23483,1,8,0:0:0:0:
256,192,23649,1,0,0:0:0:0:
256,192,23817,1,0,0:0:0:0:
256,192,23983,1,8,0:0:0:0:
256,192,24150,1,8,0:0:0:0:
256,192,24317,1,0,0:0:0:0:
256,192,24483,1,12,0:0:0:0:
256,192,25817,1,4,0:0:0:0:
256,192,25983,1,0,0:0:0:0:
256,192,26150,1,8,0:0:0:0:
256,192,26483,1,0,0:0:0:0:
256,192,26650,1,0,0:0:0:0:
256,192,26817,1,8,0:0:0:0:
256,192,27150,1,8,0:0:0:0:
256,192,27317,1,0,0:0:0:0:
256,192,27483,1,8,0:0:0:0:
256,192,27650,1,8,0:0:0:0:
256,192,27817,1,0,0:0:0:0:
256,192,27983,1,0,0:0:0:0:
256,192,28150,1,8,0:0:0:0:
256,192,28483,1,0,0:0:0:0:
256,192,28650,1,8,0:0:0:0:
256,192,28817,1,0,0:0:0:0:
256,192,29150,1,8,0:0:0:0:
256,192,29317,1,0,0:0:0:0:
256,192,29483,1,8,0:0:0:0:
256,192,29817,1,8,0:0:0:0:
256,192,29983,1,0,0:0:0:0:
256,192,30150,1,0,0:0:0:0:
256,192,30317,1,0,0:0:0:0:
256,192,30400,1,0,0:0:0:0:
256,192,30483,1,8,0:0:0:0:
256,192,30650,1,8,0:0:0:0:
256,192,30733,1,0,0:0:0:0:
256,192,30817,1,8,0:0:0:0:
256,192,30983,1,8,0:0:0:0:
256,192,31067,1,8,0:0:0:0:
256,192,31150,1,4,0:0:0:0:
256,192,31317,1,0,0:0:0:0:
256,192,31483,1,8,0:0:0:0:
256,192,31817,1,8,0:0:0:0:
256,192,31983,1,8,0:0:0:0:
256,192,32150,1,0,0:0:0:0:
256,192,32483,1,0,0:0:0:0:
256,192,32650,1,8,0:0:0:0:
256,192,32817,1,0,0:0:0:0:
256,192,32983,1,8,0:0:0:0:
256,192,33150,1,0,0:0:0:0:
256,192,33317,1,0,0:0:0:0:
256,192,33483,1,8,0:0:0:0:
256,192,33817,1,8,0:0:0:0:
256,192,33983,1,8,0:0:0:0:
256,192,34150,1,0,0:0:0:0:
256,192,34483,1,0,0:0:0:0:
256,192,34650,1,8,0:0:0:0:
256,192,34733,1,8,0:0:0:0:
256,192,34817,1,8,0:0:0:0:
256,192,34900,1,8,0:0:0:0:
256,192,34983,1,0,0:0:0:0:
256,192,35067,1,0,0:0:0:0:
256,192,35150,1,12,0:0:0:0:
256,192,35817,1,0,0:0:0:0:
256,192,35983,1,8,0:0:0:0:
256,192,36150,1,0,0:0:0:0:
256,192,36483,1,8,0:0:0:0:
256,192,37150,1,4,0:0:0:0:
256,192,37317,12,0,39817,0:0:0:0:
