osu file format v14

[General]
AudioFilename: audio.mp3
AudioLeadIn: 0
PreviewTime: 25748
Countdown: 0
SampleSet: Soft
StackLeniency: 0.7
Mode: 0
LetterboxInBreaks: 0
WidescreenStoryboard: 0

[Editor]
Bookmarks: 30110
DistanceSpacing: 1.2
BeatDivisor: 4
GridSize: 4
TimelineZoom: 4.199998

[Metadata]
Title:Guinea Pig Bridge
TitleUnicode:Guinea Pig Bridge
Artist:Parry Gripp
ArtistUnicode:Parry Gripp
Creator:Sotarks
Version:Hard
Source:
Tags:english vocalist children music pop reform kujinn Nagasaki Bio Park
BeatmapID:2102288
BeatmapSetID:1004468

[Difficulty]
HPDrainRate:4.5
CircleSize:3.5
OverallDifficulty:6
ApproachRate:7.5
SliderMultiplier:1.52
SliderTickRate:1

[Events]
//Background and Video events
0,0,"bg.jpg",0,0
Video,0,"video.mp4"
//Break Periods
//Storyboard Layer 0 (Background)
//Storyboard Layer 1 (Fail)
//Storyboard Layer 2 (Pass)
//Storyboard Layer 3 (Foreground)
//Storyboard Sound Samples

[TimingPoints]
499,333.333333333333,4,2,22,42,1,0
499,-138.888888888889,4,2,22,42,0,0
5829,-108.695652173913,4,2,22,52,0,0
16498,-98.0392156862745,4,2,22,52,0,0
21832,-98.0392156862745,4,2,22,62,0,0
25832,-89.2857142857143,4,2,22,62,0,0
31165,-89.2857142857143,4,2,22,72,0,0
35832,-89.2857142857143,4,2,22,42,0,0
37165,-312.5,4,2,22,62,0,0
39832,-312.5,4,2,22,12,0,0

[Colours]
Combo1 : 209,209,209
Combo2 : 143,86,86
Combo3 : 200,126,91

[HitObjects]
180,133,499,6,0,P|171:88|171:68,2,54.7200013359375,2|0|2,0:2|0:2|0:2,0:0:0:0:
265,272,1165,2,0,P|262:299|255:325,2,54.7200013359375,2|0|2,0:2|0:2|0:2,0:0:0:0:
301,111,1832,2,0,P|340:99|362:99,1,54.7200013359375,2|0,0:2|0:2,0:0:0:0:
419,148,2165,2,0,P|458:160|480:160,1,54.7200013359375,2|0,0:2|0:2,0:0:0:0:
466,78,2498,1,2,0:2:0:0:
466,78,2665,1,2,0:2:0:0:
401,27,2832,1,2,0:2:0:0:
271,126,3165,6,0,P|238:139|214:141,2,54.7200013359375,2|0|2,0:2|0:2|0:2,0:0:0:0:
119,62,3832,2,0,P|86:49|62:47,2,54.7200013359375,2|0|2,0:2|0:2|0:2,0:0:0:0:
39,205,4498,2,0,P|46:239|49:264,1,54.7200013359375,2|0,0:2|0:2,0:0:0:0:
122,295,4832,2,0,P|125:267|131:241,1,54.7200013359375,2|0,0:2|0:2,0:0:0:0:
183,177,5165,1,2,0:2:0:0:
183,177,5332,1,2,0:2:0:0:
246,228,5498,1,2,0:2:0:0:
377,63,5832,6,0,P|399:103|408:146,1,69.9199976528321,6|2,1:2|0:2,0:0:0:0:
386,208,6165,2,0,P|369:257|358:348,1,139.839995305664,10|2,0:2|1:2,0:0:0:0:
277,318,6665,1,2,0:2:0:0:
202,357,6832,1,10,0:2:0:0:
70,253,7165,2,0,P|81:203|81:171,1,69.9199976528321,2|2,1:2|0:2,0:0:0:0:
12,136,7498,2,0,P|3:102|0:67,1,69.9199976528321,10|2,0:2|0:2,0:0:0:0:
78,35,7832,1,2,1:2:0:0:
78,35,7998,1,2,0:2:0:0:
151,75,8165,1,10,0:2:0:0:
312,28,8498,6,0,P|328:67|335:106,1,69.9199976528321,2|2,1:2|0:2,0:0:0:0:
402,143,8832,2,0,P|391:207|386:291,1,139.839995305664,10|2,0:2|1:2,0:0:0:0:
345,355,9332,1,2,0:2:0:0:
287,294,9498,1,10,0:2:0:0:
129,352,9832,2,0,P|116:307|115:272,1,69.9199976528321,2|2,1:2|0:2,0:0:0:0:
176,227,10165,2,0,P|186:193|190:159,1,69.9199976528321,10|2,0:2|0:2,0:0:0:0:
150,85,10498,1,2,1:2:0:0:
150,85,10665,1,2,0:2:0:0:
198,16,10832,2,0,L|164:6,3,34.9599988264161,10|8|8|8,0:2|0:2|0:2|0:2,0:0:0:0:
224,43,11165,6,0,P|277:18|365:29,2,139.839995305664,4|10|2,1:2|0:2|1:2,0:0:0:0:
173,203,12165,1,10,0:2:0:0:
319,120,12498,1,2,1:2:0:0:
319,120,12665,2,0,P|326:161|337:205,1,69.9199976528321,2|8,0:2|0:2,0:0:0:0:
387,252,12998,2,0,P|320:238|258:300,1,139.839995305664,2|2,0:2|0:2,0:0:0:0:
223,350,13498,1,10,0:2:0:0:
83,256,13832,6,0,B|139:84|139:84|240:227|240:227|210:199|178:205,1,419.519985916993,2|10,1:2|0:2,0:0:0:0:
339,264,15165,2,0,B|360:198|358:127|358:127|412:111|470:140|424:209|390:197|390:197|424:193|443:246|408:291|359:271,1,419.519985916993,2|8,1:2|0:2,0:0:0:0:
199,333,16498,6,0,B|171:261|222:277|190:170,1,155.040000946289,4|10,1:2|0:2,0:0:0:0:
131,110,16998,1,2,0:2:0:0:
183,33,17165,2,0,P|222:33|267:52,1,77.5200004731445,2|0,1:2|0:2,0:0:0:0:
304,126,17498,2,0,P|343:126|388:107,1,77.5200004731445,10|2,0:2|0:2,0:0:0:0:
432,36,17832,1,2,1:2:0:0:
432,36,17998,2,0,P|429:95|452:206,1,155.040000946289,2|0,0:2|0:2,0:0:0:0:
471,278,18498,2,0,P|411:274|373:293,1,77.5200004731445,2|2,1:2|0:2,0:0:0:0:
323,338,18832,1,10,0:2:0:0:
160,247,19165,6,0,P|139:180|206:102,2,155.040000946289,2|10|2,1:2|0:2|1:2,0:0:0:0:
250,269,19998,2,0,P|337:233|411:233,1,155.040000946289,2|0,0:2|0:2,0:0:0:0:
464,167,20498,2,0,P|408:142|379:141,1,77.5200004731445,2|0,1:2|0:2,0:0:0:0:
350,56,20832,2,0,P|293:108|200:108,1,155.040000946289,8|0,0:2|1:2,0:0:0:0:
44,48,21498,1,10,0:2:0:0:
131,212,21832,6,0,P|140:256|143:301,1,77.5200004731445,10|0,0:2|1:2,0:0:0:0:
225,331,22165,2,0,P|228:292|236:254,1,77.5200004731445,10|0,0:2|1:2,0:0:0:0:
293,180,22498,2,0,P|345:202|384:205,1,77.5200004731445,10|0,0:2|1:2,0:0:0:0:
387,296,22832,2,0,P|424:288|459:271,1,77.5200004731445,10|0,0:2|1:2,0:0:0:0:
482,180,23165,2,0,P|462:97|465:16,2,155.040000946289,10|8|8,0:2|0:2|0:2,0:0:0:0:
391,156,23998,1,2,1:2:0:0:
326,223,24165,2,0,P|281:243|241:246,1,77.5200004731445,10|0,0:2|1:2,0:0:0:0:
167,210,24498,1,10,0:2:0:0:
167,210,25832,6,0,P|180:156|179:115,1,85.1200010390625,6|2,1:2|0:2,0:0:0:0:
101,60,26165,2,0,P|155:95|274:85,1,170.240002078125,10|2,0:2|1:2,0:0:0:0:
341,33,26665,1,2,0:2:0:0:
428,85,26832,2,0,P|446:136|445:180,1,85.1200010390625,10|0,0:2|0:2,0:0:0:0:
420,265,27165,2,0,P|360:237|319:237,1,85.1200010390625,2|2,1:2|0:2,0:0:0:0:
284,319,27498,2,0,P|224:347|183:347,1,85.1200010390625,10|2,0:2|0:2,0:0:0:0:
112,306,27832,1,2,1:2:0:0:
112,306,27998,1,2,0:2:0:0:
27,363,28165,2,0,P|11:312|19:261,1,85.1200010390625,10|0,0:2|0:2,0:0:0:0:
86,210,28498,6,0,P|100:170|99:127,1,85.1200010390625,2|2,1:2|0:2,0:0:0:0:
70,29,28832,2,0,B|179:22|119:84|269:73,1,170.240002078125,10|2,0:2|1:2,0:0:0:0:
317,22,29332,1,2,0:2:0:0:
414,50,29498,2,0,P|435:107|433:143,1,85.1200010390625,10|0,0:2|0:2,0:0:0:0:
367,208,29832,2,0,P|317:189|271:193,1,85.1200010390625,2|2,1:2|0:2,0:0:0:0:
185,160,30165,2,0,P|146:177|103:178,1,85.1200010390625,10|10,0:2|0:2,0:0:0:0:
55,160,30415,1,8,0:2:0:0:
55,160,30498,1,10,0:2:0:0:
41,261,30665,2,0,L|-16:277,2,42.5600005195313,10|8|10,0:2|0:2|0:2,0:0:0:0:
133,305,30998,1,8,0:2:0:0:
133,305,31082,1,8,0:2:0:0:
133,305,31165,6,0,P|188:281|234:280,1,85.1200010390625,4|0,1:2|0:2,0:0:0:0:
303,325,31498,2,0,P|400:345|440:265,1,170.240002078125,10|10,0:2|0:2,0:0:0:0:
478,203,31998,1,2,1:2:0:0:
418,120,32165,2,0,P|395:184|392:229,1,85.1200010390625,10|0,0:2|1:2,0:0:0:0:
306,256,32498,1,10,0:2:0:0:
306,256,32665,1,2,1:2:0:0:
220,199,32832,1,10,0:2:0:0:
220,199,32998,1,2,1:2:0:0:
144,268,33165,1,10,0:2:0:0:
53,220,33332,1,2,1:2:0:0:
74,120,33498,1,10,0:2:0:0:
175,107,33665,1,0,1:2:0:0:
220,199,33832,6,0,P|291:200|315:189,1,85.1200010390625,10|2,0:2|1:2,0:0:0:0:
357,108,34165,2,0,P|414:68|503:109,1,170.240002078125,10|10,0:2|0:2,0:0:0:0:
490,205,34665,1,10,0:2:0:0:
490,205,34748,1,8,0:2:0:0:
490,205,34832,2,0,L|500:261,3,42.5600005195313,10|8|8|8,0:2|0:2|0:2|0:2,0:0:0:0:
460,211,35165,1,10,0:2:0:0:
256,192,37165,5,6,1:2:0:0:
256,192,37248,12,0,39832,0:2:0:0:
