osu file format v14

[General]
AudioFilename: audio.mp3
AudioLeadIn: 0
PreviewTime: 25748
Countdown: 0
SampleSet: Soft
StackLeniency: 0.7
Mode: 2
LetterboxInBreaks: 0
WidescreenStoryboard: 1

[Editor]
DistanceSpacing: 1
BeatDivisor: 4
GridSize: 32
TimelineZoom: 1

[Metadata]
Title:Guinea Pig Bridge
TitleUnicode:Guinea Pig Bridge
Artist:Parry Gripp
ArtistUnicode:Parry Gripp
Creator:Ascendance
Version:Platter
Source:
Tags:english vocalist children music pop nagasaki bio park wonjae paranoid grapes
BeatmapID:2234331
BeatmapSetID:1067188

[Difficulty]
HPDrainRate:5
CircleSize:3.5
OverallDifficulty:8
ApproachRate:8
SliderMultiplier:1.7
SliderTickRate:1

[Events]
//Background and Video events
0,0,"hi sotarks.jpg",0,0
//Break Periods
//Storyboard Layer 0 (Background)
//Storyboard Layer 1 (Fail)
//Storyboard Layer 2 (Pass)
//Storyboard Layer 3 (Foreground)
//Storyboard Layer 4 (Overlay)
//Storyboard Sound Samples

[TimingPoints]
499,333.333333333333,4,2,1,50,1,0
5829,-100,4,2,1,50,0,0
16498,-100,4,2,1,50,0,0
21832,-100,4,2,1,50,0,0
25832,-100,4,2,1,50,0,0
31165,-100,4,2,1,50,0,0
35832,-100,4,2,1,50,0,0
37165,-100,4,2,1,50,0,0
39832,-100,4,2,1,50,0,0

[Colours]
Combo1 : 75,75,75
Combo2 : 128,64,0
Combo3 : 0,128,0
Combo4 : 196,98,0

[HitObjects]
121,232,499,6,0,L|20:240,2,85,2|0|2,0:0|0:0|0:0,0:0:0:0:
281,235,1165,2,0,L|382:243,2,85,2|0|2,0:0|0:0|0:0,0:0:0:0:
123,325,1832,6,0,L|128:231,1,85,2|0,0:0|0:0,0:0:0:0:
221,240,2165,2,0,L|226:147,1,85,2|0,0:0|0:0,0:0:0:0:
317,170,2498,2,0,L|323:46,1,85,2|0,0:0|0:0,0:0:0:0:
228,68,2832,1,2,0:0:0:0:
403,238,3165,6,0,L|504:246,2,85,2|0|2,0:0|0:0|0:0,0:0:0:0:
243,241,3831,2,0,L|142:249,2,85,2|0|2,0:0|0:0|0:0,0:0:0:0:
400,331,4498,6,0,L|395:237,1,85,2|0,0:0|0:0,0:0:0:0:
302,246,4831,2,0,L|297:153,1,85,2|0,0:0|0:0,0:0:0:0:
206,176,5165,2,0,L|200:52,1,85,2|0,0:0|0:0,0:0:0:0:
293,76,5498,2,0,L|386:74,1,85,2|0,0:0|0:0,0:0:0:0:
131,29,5832,6,0,L|22:30,2,85,6|0|8,0:0|0:0|0:0,0:0:0:0:
384,30,6498,2,0,L|471:31,2,85,2|0|8,0:0|0:0|0:0,0:0:0:0:
188,224,7165,5,2,0:0:0:0:
119,178,7331,1,0,0:0:0:0:
117,96,7498,1,10,0:0:0:0:
182,47,7664,1,0,0:0:0:0:
361,39,7832,2,0,L|451:49,2,85,2|0|10,0:0|0:0|0:0,0:0:0:0:
115,43,8498,5,2,0:0:0:0:
210,38,8664,1,0,0:0:0:0:
309,31,8831,1,8,0:0:0:0:
128,144,9165,1,2,0:0:0:0:
212,138,9331,1,0,0:0:0:0:
297,133,9498,1,8,0:0:0:0:
111,308,9832,6,0,L|116:211,1,85,2|0,0:0|0:0,0:0:0:0:
214,228,10165,2,0,L|225:119,1,85,10|0,0:0|0:0,0:0:0:0:
407,144,10498,2,0,L|421:45,1,85,2|0,0:0|0:0,0:0:0:0:
189,78,10832,2,0,L|123:87,2,42.5,8|8|8,0:0|0:0|0:0,0:0:0:0:
439,51,11165,5,6,0:0:0:0:
264,51,11498,2,0,L|77:51,2,170,8|2|8,0:0|0:0|0:0,0:0:0:0:
331,51,12332,1,0,0:0:0:0:
146,172,12498,6,0,L|161:74,1,85,2|2,0:0|0:0,0:0:0:0:
342,268,12998,2,0,P|413:216|372:118,1,170,2|0,0:0|0:0,0:0:0:0:
310,123,13498,2,0,L|217:121,1,85,8|0,0:0|0:0,0:0:0:0:
21,116,13832,6,0,L|203:116,2,170,2|8|2,0:0|0:0|0:0,0:0:0:0:
110,87,14665,1,0,0:0:0:0:
203,88,14832,2,0,L|310:88,1,85,8|0,0:0|0:0,0:0:0:0:
480,89,15165,6,0,L|278:89,2,170,2|8|2,0:0|0:0|0:0,0:0:0:0:
283,242,15998,1,8,0:0:0:0:
243,228,16081,1,8,0:0:0:0:
218,194,16164,1,8,0:0:0:0:
218,152,16248,1,8,0:0:0:0:
242,118,16331,1,8,0:0:0:0:
472,92,16498,5,6,0:0:0:0:
312,30,16832,2,0,L|193:37,1,85,8|0,0:0|0:0,0:0:0:0:
73,72,17165,2,0,L|276:89,1,170,2|8,0:0|0:0,0:0:0:0:
335,97,17665,1,0,0:0:0:0:
216,41,17832,6,0,L|205:138,1,85,2|0,0:0|0:0,0:0:0:0:
316,132,18165,2,0,L|331:228,1,85,8|0,0:0|0:0,0:0:0:0:
155,220,18498,2,0,L|37:219,2,85,2|0|8,0:0|0:0|0:0,0:0:0:0:
366,237,19165,6,0,L|162:236,2,170,2|8|2,0:0|0:0|0:0,0:0:0:0:
185,315,19998,2,0,P|114:260|169:185,1,170
276,213,20498,5,2,0:0:0:0:
345,170,20664,1,0,0:0:0:0:
347,88,20831,1,8,0:0:0:0:
280,42,20998,1,0,0:0:0:0:
189,40,21165,2,0,L|183:142,1,85,2|0,0:0|0:0,0:0:0:0:
349,140,21498,2,0,L|353:47,1,85,8|0,0:0|0:0,0:0:0:0:
112,225,21832,6,0,L|10:225,1,85,8|0,0:0|0:0,0:0:0:0:
112,225,22165,2,0,L|209:224,1,85,8|0,0:0|0:0,0:0:0:0:
471,285,22498,2,0,L|474:160,1,85,8|0,0:0|0:0,0:0:0:0:
350,195,22832,2,0,L|234:195,1,85,8|0,0:0|0:0,0:0:0:0:
31,248,23165,6,0,L|231:248,2,170,8|8|8,0:0|0:0|0:0,0:0:0:0:
147,224,23998,1,0,0:0:0:0:
325,225,24165,2,0,L|328:106,1,85,8|0,0:0|0:0,0:0:0:0:
63,70,24498,5,10,0:0:0:0:
336,265,25832,6,0,L|335:154,1,85,6|2,0:0|0:0,0:0:0:0:
213,180,26165,2,0,L|209:74,1,85,10|0,0:0|0:0,0:0:0:0:
381,256,26498,2,0,L|380:145,1,85,2|2,0:0|0:0,0:0:0:0:
258,171,26831,2,0,L|254:65,1,85,10|0,0:0|0:0,0:0:0:0:
434,260,27165,6,0,L|433:155,1,85,10|2,0:0|0:0,0:0:0:0:
314,172,27498,2,0,L|310:62,1,85,10|2,0:0|0:0,0:0:0:0:
114,41,27832,1,10,0:0:0:0:
198,41,27998,1,2,0:0:0:0:
283,41,28165,1,10,0:0:0:0:
116,266,28498,6,0,L|117:155,1,85,2|2,0:0|0:0,0:0:0:0:
239,181,28831,2,0,L|243:75,1,85,10|0,0:0|0:0,0:0:0:0:
71,257,29165,2,0,L|72:146,1,85,2|2,0:0|0:0,0:0:0:0:
194,172,29498,2,0,L|198:66,1,85,10|0,0:0|0:0,0:0:0:0:
18,261,29831,6,0,L|19:156,1,85,10|2,0:0|0:0,0:0:0:0:
138,173,30165,2,0,L|142:63,1,85,10|8,0:0|0:0,0:0:0:0:
350,57,30498,1,10,0:0:0:0:
251,55,30665,2,0,L|188:55,2,42.5,8|8|10,0:0|0:0|0:0,0:0:0:0:
350,57,30998,1,8,0:0:0:0:
110,72,31165,6,0,L|110:185,1,85,14|2,0:0|0:0,0:0:0:0:
14,65,31498,2,0,L|14:177,1,85,10|0,0:0|0:0,0:0:0:0:
177,72,31832,2,0,L|177:185,1,85,10|2,0:0|0:0,0:0:0:0:
81,65,32165,2,0,L|81:177,1,85,10|0,0:0|0:0,0:0:0:0:
367,280,32498,5,10,0:0:0:0:
438,241,32664,1,2,0:0:0:0:
440,159,32831,1,10,0:0:0:0:
371,116,32998,1,2,0:0:0:0:
125,107,33165,2,0,L|13:107,2,85,10|2|10,0:0|0:0|0:0,0:0:0:0:
224,109,33665,1,2,0:0:0:0:
494,111,33832,6,0,L|379:112,1,85,10|2,0:0|0:0,0:0:0:0:
266,112,34165,2,0,L|147:111,1,85,10|0,0:0|0:0,0:0:0:0:
355,240,34498,2,0,L|354:137,1,85,10|8,0:0|0:0,0:0:0:0:
124,238,34832,2,0,L|42:239,2,42.5,8|8|8,0:0|0:0|0:0,0:0:0:0:
382,236,35165,5,6,0:0:0:0:
211,234,35832,2,0,L|117:232,1,85,2|2,0:0|0:0,0:0:0:0:
311,149,36165,1,2,0:0:0:0:
42,149,36498,5,2,0:0:0:0:
469,158,37165,5,4,0:0:0:0:
256,192,37332,12,0,39832,0:0:0:0:
