osu file format v14

[General]
AudioFilename: audio.mp3
AudioLeadIn: 0
PreviewTime: 25748
Countdown: 0
SampleSet: Soft
StackLeniency: 0.7
Mode: 2
LetterboxInBreaks: 0
WidescreenStoryboard: 1

[Editor]
Bookmarks: 11165,25832,31165
DistanceSpacing: 0.7
BeatDivisor: 4
GridSize: 32
TimelineZoom: 1

[Metadata]
Title:Guinea Pig Bridge
TitleUnicode:Guinea Pig Bridge
Artist:Parry Gripp
ArtistUnicode:Parry Gripp
Creator:Ascendance
Version:Cup
Source:
Tags:english vocalist children music pop nagasaki bio park wonjae paranoid grapes
BeatmapID:2234394
BeatmapSetID:1067188

[Difficulty]
HPDrainRate:3
CircleSize:2.5
OverallDifficulty:6
ApproachRate:6
SliderMultiplier:1.4
SliderTickRate:1

[Events]
//Background and Video events
0,0,"hi sotarks.jpg",0,0
//Break Periods
//Storyboard Layer 0 (Background)
//Storyboard Layer 1 (Fail)
//Storyboard Layer 2 (Pass)
//Storyboard Layer 3 (Foreground)
//Storyboard Layer 4 (Overlay)
//Storyboard Sound Samples

[TimingPoints]
499,333.333333333333,4,2,1,50,1,0
5829,-100,4,2,22,50,0,0
5832,-100,4,2,1,50,0,0
16498,-100,4,2,1,50,0,0
21832,-100,4,2,1,50,0,0
25832,-100,4,2,1,50,0,0
31165,-100,4,2,1,50,0,0
35832,-100,4,2,1,50,0,0
37165,-100,4,2,1,50,0,0
39832,-100,4,2,1,50,0,0

[Colours]
Combo1 : 75,75,75
Combo2 : 128,64,0
Combo3 : 0,128,0
Combo4 : 196,98,0

[HitObjects]
171,192,499,6,0,L|96:192,2,70,2|0|2,0:0|0:0|0:0,0:0:0:0:
296,193,1165,2,0,L|380:192,2,70,2|0|2,0:0|0:0|0:0,0:0:0:0:
169,193,1832,2,0,L|318:193,1,140,2|2,0:0|0:0,0:0:0:0:
436,193,2498,2,0,L|286:193,1,140,2|2,0:0|0:0,0:0:0:0:
171,172,3165,6,0,L|162:97,2,70,2|0|2,0:0|0:0|0:0,0:0:0:0:
296,193,3832,2,0,L|304:262,2,70,2|0|2,0:0|0:0|0:0,0:0:0:0:
170,186,4498,2,0,L|8:187,1,140,2|2,0:0|0:0,0:0:0:0:
155,202,5165,1,2,0:0:0:0:
224,201,5331,1,0,0:0:0:0:
294,200,5498,1,2,0:0:0:0:
462,207,5832,6,0,L|498:123,2,70,6|0|8,0:0|0:0|0:0,0:0:0:0:
309,211,6498,2,0,L|231:210,2,70,2|0|8,0:0|0:0|0:0,0:0:0:0:
449,211,7165,2,0,L|301:211,1,140,2|10,0:0|0:0,0:0:0:0:
160,168,7832,2,0,L|330:168,1,140,2|10,0:0|0:0,0:0:0:0:
149,136,8498,6,0,L|54:136,2,70,2|0|8,0:0|0:0|0:0,0:0:0:0:
298,96,9165,2,0,L|384:96,2,70,2|0|8,0:0|0:0|0:0,0:0:0:0:
153,42,9832,2,0,L|307:43,1,140,2|10,0:0|0:0,0:0:0:0:
446,37,10498,2,0,L|447:126,1,70,2|0,0:0|0:0,0:0:0:0:
371,118,10832,1,8,0:0:0:0:
202,119,11165,5,6,0:0:0:0:
48,117,11498,2,0,L|211:117,2,140,8|2|8,0:0|0:0|0:0,0:0:0:0:
200,95,12498,2,0,L|410:94,2,210,2|2|8,0:0|0:0|0:0,0:0:0:0:
48,66,13832,6,0,B|143:109|143:109|335:67,1,280,2|2,0:0|0:0,0:0:0:0:
405,66,14665,1,0,0:0:0:0:
405,66,14832,1,8,0:0:0:0:
251,67,15165,2,0,L|102:66,1,140,2|8,0:0|0:0,0:0:0:0:
255,121,15832,2,0,L|357:120,2,70,2|8|8,0:0|0:0|0:0,0:0:0:0:
87,121,16498,5,6,0:0:0:0:
240,132,16832,2,0,L|399:131,2,140,8|2|8,0:0|0:0|0:0,0:0:0:0:
88,159,17832,2,0,L|250:159,1,140,2|8,0:0|0:0,0:0:0:0:
378,191,18498,2,0,L|218:190,1,140,2|8,0:0|0:0,0:0:0:0:
83,191,19165,5,2,0:0:0:0:
236,192,19498,1,8,0:0:0:0:
390,197,19832,2,0,L|464:196,2,70,2|0|8,0:0|0:0|0:0,0:0:0:0:
236,192,20498,2,0,L|399:191,1,140,2|8,0:0|0:0,0:0:0:0:
221,190,21165,2,0,L|54:189,1,140,2|8,0:0|0:0,0:0:0:0:
234,175,21832,6,8,L|231:334,1,140,8|8,0:0|0:0,0:0:0:0:
77,318,22498,2,8,L|76:173,1,140,8|8,0:0|0:0,0:0:0:0:
228,198,23165,2,0,P|316:140|231:16,1,280,8|8,0:0|0:0,0:0:0:0:
163,18,23998,1,0,0:0:0:0:
85,21,24165,1,8,0:0:0:0:
238,19,24498,5,10,0:0:0:0:
329,69,25832,6,0,L|431:68,2,70,6|2|10,0:0|0:0|0:0,0:0:0:0:
176,89,26498,2,0,L|78:89,2,70,2|2|10,0:0|0:0|0:0,0:0:0:0:
326,121,27165,2,0,L|159:121,1,140,10|10,0:0|0:0,0:0:0:0:
32,134,27832,1,10,0:0:0:0:
81,134,27998,1,2,0:0:0:0:
130,134,28165,1,10,0:0:0:0:
283,137,28498,6,0,L|374:138,2,70,2|2|10,0:0|0:0|0:0,0:0:0:0:
143,202,29165,1,2,0:0:0:0:
191,202,29331,1,2,0:0:0:0:
240,203,29498,1,10,0:0:0:0:
395,211,29832,2,0,L|397:70,1,140,10|10,0:0|0:0,0:0:0:0:
264,149,30498,2,0,L|182:147,2,70,10|8|10,0:0|0:0|0:0,0:0:0:0:
432,159,31165,5,14,0:0:0:0:
362,159,31331,1,2,0:0:0:0:
292,159,31498,1,10,0:0:0:0:
143,239,31832,1,10,0:0:0:0:
213,239,31998,1,2,0:0:0:0:
283,240,32165,1,10,0:0:0:0:
436,240,32498,2,0,L|266:239,1,140,10|10,0:0|0:0,0:0:0:0:
141,229,33165,2,2,L|142:70,1,140,10|10,0:0|0:0,0:0:0:0:
296,81,33832,6,0,L|369:82,2,70,10|2|10,0:0|0:0|0:0,0:0:0:0:
145,47,34498,1,10,0:0:0:0:
79,65,34664,1,8,0:0:0:0:
49,125,34831,1,8,0:0:0:0:
73,189,34997,1,8,0:0:0:0:
163,205,35164,5,6,0:0:0:0:
365,208,35832,6,2,L|466:207,1,70
346,183,36165,2,0,L|181:183,1,140,2|2,0:0|0:0,0:0:0:0:
477,105,37165,5,4,0:0:0:0:
256,192,37498,12,0,39832,0:0:0:0:
