osu file format v14

[General]
AudioFilename: audio.mp3
AudioLeadIn: 0
PreviewTime: 25748
Countdown: 0
SampleSet: Soft
StackLeniency: 0.7
Mode: 2
LetterboxInBreaks: 0
WidescreenStoryboard: 1

[Editor]
Bookmarks: 11165,25832,31165
DistanceSpacing: 1.1
BeatDivisor: 4
GridSize: 32
TimelineZoom: 1.6

[Metadata]
Title:Guinea Pig Bridge
TitleUnicode:Guinea Pig Bridge
Artist:Parry Gripp
ArtistUnicode:Parry Gripp
Creator:Ascendance
Version:Ascenjae's Rain
Source:
Tags:english vocalist children music pop nagasaki bio park wonjae paranoid grapes
BeatmapID:2234330
BeatmapSetID:1067188

[Difficulty]
HPDrainRate:6
CircleSize:4
OverallDifficulty:9
ApproachRate:9
SliderMultiplier:2.2
SliderTickRate:2

[Events]
//Background and Video events
0,0,"hi sotarks.jpg",0,0
//Break Periods
//Storyboard Layer 0 (Background)
//Storyboard Layer 1 (Fail)
//Storyboard Layer 2 (Pass)
//Storyboard Layer 3 (Foreground)
//Storyboard Layer 4 (Overlay)
//Storyboard Sound Samples

[TimingPoints]
499,333.333333333333,4,2,1,50,1,0
5832,-100,4,2,1,50,0,0
16498,-100,4,2,1,50,0,0
21832,-100,4,2,1,50,0,0
25832,-100,4,2,1,50,0,0
31165,-100,4,2,1,50,0,0
35832,-100,4,2,1,50,0,0
37165,-100,4,2,1,50,0,0
39832,-100,4,2,1,50,0,0

[Colours]
Combo1 : 75,75,75
Combo2 : 128,64,0
Combo3 : 0,128,0
Combo4 : 196,98,0

[HitObjects]
171,249,499,6,0,L|309:251,2,110,2|0|2,0:0|0:0|0:0,0:0:0:0:
322,243,1165,6,0,L|188:249,2,110,2|0|2,0:0|0:0|0:0,0:0:0:0:
196,172,1832,2,0,L|322:173,1,110,2|0,0:0|0:0,0:0:0:0:
403,116,2165,2,0,L|293:120,1,110,2|0,0:0|0:0,0:0:0:0:
196,63,2498,2,0,L|326:70,1,110,2|0,0:0|0:0,0:0:0:0:
483,38,2832,2,0,L|360:65,1,110,2|0,0:0|0:0,0:0:0:0:
171,237,3165,6,0,L|308:247,2,110,2|0|2,0:0|0:0|0:0,0:0:0:0:
354,230,3832,2,0,L|223:247,2,110,2|0|2,0:0|0:0|0:0,0:0:0:0:
208,172,4498,2,0,L|80:176,1,110,2|0,0:0|0:0,0:0:0:0:
4,116,4832,2,0,L|114:120,1,110,2|0,0:0|0:0,0:0:0:0:
414,159,5165,2,0,L|415:15,1,110,2|0,0:0|0:0,0:0:0:0:
281,46,5498,2,0,L|148:39,1,110,2|0,0:0|0:0,0:0:0:0:
463,83,5832,6,0,L|470:199,1,110,6|0,0:0|0:0,0:0:0:0:
280,265,6165,1,8,0:0:0:0:
369,334,6498,2,0,L|376:185,1,110,2|0,0:0|0:0,0:0:0:0:
188,169,6832,1,8,0:0:0:0:
308,150,7165,2,0,L|309:23,1,110,2|0,0:0|0:0,0:0:0:0:
120,39,7498,2,0,L|-7:38,1,110,10|0,0:0|0:0,0:0:0:0:
206,119,7832,2,0,L|96:118,1,110,2|0,0:0|0:0,0:0:0:0:
394,207,8165,2,0,L|527:201,1,110,10|0,0:0|0:0,0:0:0:0:
225,201,8498,6,0,L|226:76,1,110,2|0,0:0|0:0,0:0:0:0:
419,61,8832,1,8,0:0:0:0:
303,164,9165,2,0,L|298:34,1,110,2|0,0:0|0:0,0:0:0:0:
476,32,9498,1,8,0:0:0:0:
201,190,9832,6,0,L|63:229,1,110,2|0,0:0|0:0,0:0:0:0:
275,285,10165,2,0,L|406:316,1,110,10|0,0:0|0:0,0:0:0:0:
143,316,10498,2,0,L|139:155,1,110,2|0,0:0|0:0,0:0:0:0:
286,207,10832,2,8,L|367:200,1,55
171,102,10998,2,8,L|169:25,1,55
470,213,11165,6,0,L|470:81,1,110,6|0,0:0|0:0,0:0:0:0:
329,167,11498,2,0,L|198:167,1,110,8|0,0:0|0:0,0:0:0:0:
369,76,11832,2,0,L|489:76,1,110,2|0,0:0|0:0,0:0:0:0:
167,42,12165,2,0,L|168:172,1,110,8|0,0:0|0:0,0:0:0:0:
314,132,12498,6,0,L|448:132,2,110,2|2|8,0:0|0:0|0:0,0:0:0:0:
153,174,12998,2,0,L|378:172,1,220,2|0,0:0|0:0,0:0:0:0:
231,142,13498,2,0,L|71:142,1,110,8|0,0:0|0:0,0:0:0:0:
382,333,13832,6,0,P|467:282|413:155,1,220,2|8,0:0|0:0,0:0:0:0:
318,160,14332,1,0,0:0:0:0:
181,159,14498,2,0,L|308:159,1,110,2|0,0:0|0:0,0:0:0:0:
458,71,14832,2,0,L|334:70,1,110,8|0,0:0|0:0,0:0:0:0:
81,8,15165,6,0,P|41:49|125:158,1,220,2|8,0:0|0:0,0:0:0:0:
250,150,15665,1,0,0:0:0:0:
107,152,15832,2,0,L|96:286,1,110,2|8,0:0|0:0,0:0:0:0:
155,281,16082,1,8,0:0:0:0:
385,341,16165,1,8,0:0:0:0:
433,319,16248,1,8,0:0:0:0:
443,268,16331,1,8,0:0:0:0:
406,230,16415,1,8,0:0:0:0:
204,92,16498,6,0,L|199:216,1,110,6|0,0:0|0:0,0:0:0:0:
341,138,16832,2,0,L|344:14,1,110,8|0,0:0|0:0,0:0:0:0:
171,218,17165,2,0,L|401:205,1,220,2|8,0:0|0:0,0:0:0:0:
265,172,17665,1,0,0:0:0:0:
131,184,17832,6,0,L|129:62,1,110,2|0,0:0|0:0,0:0:0:0:
302,175,18165,2,0,L|302:298,1,110,8|0,0:0|0:0,0:0:0:0:
104,288,18498,2,0,L|255:289,1,110,2|0,0:0|0:0,0:0:0:0:
361,337,18832,2,0,L|361:207,1,110,8|0,0:0|0:0,0:0:0:0:
63,141,19165,6,0,L|289:141,2,220,2|8|2,0:0|0:0|0:0,0:0:0:0:
176,114,19998,1,0,0:0:0:0:
61,41,20165,2,0,L|57:161,1,110,8|0,0:0|0:0,0:0:0:0:
239,263,20498,5,2,0:0:0:0:
327,205,20664,1,0,0:0:0:0:
322,100,20831,1,8,0:0:0:0:
229,51,20998,1,0,0:0:0:0:
92,44,21165,2,0,L|207:45,1,110,2|0,0:0|0:0,0:0:0:0:
386,120,21498,2,0,L|386:1,1,110,8|0,0:0|0:0,0:0:0:0:
151,117,21832,6,8,L|18:116,1,110,8|0,0:0|0:0,0:0:0:0:
351,241,22165,2,8,L|477:240,1,110,8|0,0:0|0:0,0:0:0:0:
141,344,22498,2,8,L|141:212,1,110,8|0,0:0|0:0,0:0:0:0:
308,152,22832,2,8,L|308:288,1,110,8|0,0:0|0:0,0:0:0:0:
34,108,23165,6,0,L|291:109,2,220,8|8|8,0:0|0:0|0:0,0:0:0:0:
147,79,23998,1,0,0:0:0:0:
389,74,24165,2,0,L|391:213,1,110,8|0,0:0|0:0,0:0:0:0:
71,42,24498,5,10,0:0:0:0:
457,178,25832,5,6,0:0:0:0:
322,176,25998,1,2,0:0:0:0:
457,178,26165,2,0,L|461:296,1,110,10|0,0:0|0:0,0:0:0:0:
161,307,26498,1,2,0:0:0:0:
290,310,26665,1,2,0:0:0:0:
161,307,26832,2,0,L|158:184,1,110,10|0,0:0|0:0,0:0:0:0:
392,121,27165,6,0,L|511:95,1,110,10|2,0:0|0:0,0:0:0:0:
182,125,27498,2,0,L|52:95,1,110,10|2,0:0|0:0,0:0:0:0:
346,72,27832,1,10,0:0:0:0:
80,200,27998,2,0,L|222:219,1,110,2|10,0:0|0:0,0:0:0:0:
307,231,28332,1,0,0:0:0:0:
40,215,28498,5,2,0:0:0:0:
171,251,28665,1,2,0:0:0:0:
40,215,28832,2,0,L|45:74,1,110,10|0,0:0|0:0,0:0:0:0:
337,67,29165,1,2,0:0:0:0:
202,58,29332,1,2,0:0:0:0:
337,67,29498,2,0,L|371:209,1,110,10|0,0:0|0:0,0:0:0:0:
104,260,29832,6,0,L|-6:309,1,110,10|2,0:0|0:0,0:0:0:0:
309,306,30165,2,0,L|431:338,1,110,10|8,0:0|0:0,0:0:0:0:
357,353,30415,1,8,0:0:0:0:
143,296,30498,1,10,0:0:0:0:
119,170,30664,1,8,0:0:0:0:
169,125,30747,1,8,0:0:0:0:
363,140,30832,1,10,0:0:0:0:
243,138,30998,2,0,L|171:136,1,55,8|8,0:0|0:0,0:0:0:0:
451,172,31165,6,0,L|453:45,1,110,14|2,0:0|0:0,0:0:0:0:
161,188,31498,2,0,L|156:323,1,110,10|0,0:0|0:0,0:0:0:0:
471,180,31832,2,0,L|351:174,1,110,10|2,0:0|0:0,0:0:0:0:
77,260,32165,2,0,L|191:268,1,110,10|0,0:0|0:0,0:0:0:0:
419,281,32498,5,10,0:0:0:0:
156,272,32665,1,2,0:0:0:0:
455,156,32832,2,0,L|459:299,1,110,10|2,0:0|0:0,0:0:0:0:
218,147,33165,2,2,L|98:145,1,110,10|2,0:0|0:0,0:0:0:0:
234,145,33498,2,2,L|356:146,1,110,10|2,0:0|0:0,0:0:0:0:
47,274,33832,6,0,L|42:157,1,110,10|2,0:0|0:0,0:0:0:0:
318,245,34165,2,0,L|448:246,1,110,10|0,0:0|0:0,0:0:0:0:
164,209,34498,2,0,L|164:86,1,110,10|8,0:0|0:0,0:0:0:0:
224,85,34748,1,8,0:0:0:0:
396,139,34832,2,8,L|396:77,1,55
229,190,34998,2,8,L|154:190,1,55
385,264,35165,5,6,0:0:0:0:
176,333,35832,2,2,L|178:208,1,110
367,191,36165,1,2,0:0:0:0:
49,189,36498,5,2,0:0:0:0:
447,185,37165,5,4,0:0:0:0:
256,192,37332,12,0,39832,0:0:0:0:
