osu file format v14

[General]
AudioFilename: audio.mp3
AudioLeadIn: 0
PreviewTime: 14508
Countdown: 0
SampleSet: Normal
StackLeniency: 0.6
Mode: 1
LetterboxInBreaks: 0
WidescreenStoryboard: 1

[Editor]
Bookmarks: 2766,7614,12538,12557,12576,12595,12614,12633,12652,12671,12690,12709,12728,12747,12766,14887,19735,24660,24679,24698,24717,24735,24754,24773,24792,24811,24830,24849,24868,24887,27008,29432,31857
DistanceSpacing: 2.2
BeatDivisor: 4
GridSize: 32
TimelineZoom: 2.25

[Metadata]
Title:Ben 10: Omniverse
TitleUnicode:Ben 10: Omniverse
Artist:Parry Gripp
ArtistUnicode:Parry Gripp
Creator:albionshallah
Version:Muzukashii
Source:Ben 10: Omniverse
Tags:rock english cartoon network extended version intro tv size omnitrix ben10 ten benten arityle i_love_hr randelman4ik katagiri k_a_t_a_g_i_r_i
BeatmapID:3786377
BeatmapSetID:1843362

[Difficulty]
HPDrainRate:9
CircleSize:7
OverallDifficulty:5
ApproachRate:10
SliderMultiplier:1.4
SliderTickRate:1

[Events]
//Background and Video events
0,0,"bg.jpg",0,60
//Break Periods
//Storyboard Layer 0 (Background)
//Storyboard Layer 1 (Fail)
//Storyboard Layer 2 (Pass)
//Storyboard Layer 3 (Foreground)
//Storyboard Layer 4 (Overlay)
//Storyboard Sound Samples

[TimingPoints]
342,303.030303030303,4,1,0,60,1,0
1478,-100,4,1,0,70,0,0
2690,-100,4,1,0,85,0,0

[HitObjects]
256,192,342,5,0,0:0:0:0:
256,192,645,1,0,0:0:0:0:
256,192,948,1,8,0:0:0:0:
256,192,1251,1,8,0:0:0:0:
255,191,1554,1,8,0:0:0:0:
255,191,1705,1,0,0:0:0:0:
255,191,1857,1,8,0:0:0:0:
255,191,2008,1,0,0:0:0:0:
255,191,2160,1,8,0:0:0:0:
256,191,2311,1,0,0:0:0:0:
255,191,2463,1,8,0:0:0:0:
255,191,2766,1,4,0:0:0:0:
255,191,3069,1,0,0:0:0:0:
255,191,3220,1,0,0:0:0:0:
255,191,3372,1,8,0:0:0:0:
255,191,3675,1,8,0:0:0:0:
255,191,3826,1,0,0:0:0:0:
255,191,3978,1,8,0:0:0:0:
255,191,4205,1,8,0:0:0:0:
255,191,4281,1,8,0:0:0:0:
255,191,4432,1,0,0:0:0:0:
255,191,4735,1,8,0:0:0:0:
255,191,4811,1,8,0:0:0:0:
255,191,4887,1,8,0:0:0:0:
255,191,5038,1,0,0:0:0:0:
255,191,5190,1,8,0:0:0:0:
255,191,5493,1,8,0:0:0:0:
255,191,5645,1,0,0:0:0:0:
255,191,5796,1,8,0:0:0:0:
255,191,5948,1,8,0:0:0:0:
255,191,6402,1,8,0:0:0:0:
255,191,6554,1,0,0:0:0:0:
255,191,6705,1,8,0:0:0:0:
256,192,6857,1,0,0:0:0:0:
256,192,6932,1,0,0:0:0:0:
256,192,7008,1,0,0:0:0:0:
256,192,7160,1,8,0:0:0:0:
256,192,7311,1,8,0:0:0:0:
255,191,7614,1,4,0:0:0:0:
255,191,7917,1,8,0:0:0:0:
255,191,8069,1,0,0:0:0:0:
255,191,8220,1,8,0:0:0:0:
255,191,8523,1,8,0:0:0:0:
255,191,8675,1,0,0:0:0:0:
255,191,8826,1,8,0:0:0:0:
255,191,8978,1,8,0:0:0:0:
256,192,9054,1,8,0:0:0:0:
255,191,9129,1,8,0:0:0:0:
255,191,9281,1,0,0:0:0:0:
256,192,9584,1,0,0:0:0:0:
256,192,9660,1,0,0:0:0:0:
255,191,9735,1,0,0:0:0:0:
255,191,10038,1,8,0:0:0:0:
255,191,10190,1,0,0:0:0:0:
255,191,10341,1,8,0:0:0:0:
255,191,10493,1,8,0:0:0:0:
255,191,10645,1,0,0:0:0:0:
255,191,10948,1,8,0:0:0:0:
255,191,11099,1,0,0:0:0:0:
255,191,11251,1,8,0:0:0:0:
255,191,11554,1,8,0:0:0:0:
255,191,11705,1,8,0:0:0:0:
255,191,12008,1,8,0:0:0:0:
255,191,12160,1,8,0:0:0:0:
255,191,12235,1,8,0:0:0:0:
255,191,12311,1,8,0:0:0:0:
255,191,12463,1,0,0:0:0:0:
255,191,12766,1,8,0:0:0:0:
255,191,12917,1,0,0:0:0:0:
255,191,13069,1,8,0:0:0:0:
255,191,13523,1,0,0:0:0:0:
255,191,13675,1,8,0:0:0:0:
256,192,13826,1,0,0:0:0:0:
255,191,13978,1,8,0:0:0:0:
256,192,14129,1,8,0:0:0:0:
256,192,14281,1,0,0:0:0:0:
256,192,14584,1,8,0:0:0:0:
256,192,14887,1,4,0:0:0:0:
255,191,15190,1,0,0:0:0:0:
255,191,15341,1,0,0:0:0:0:
255,191,15493,1,8,0:0:0:0:
255,191,15796,1,8,0:0:0:0:
255,191,15948,1,0,0:0:0:0:
255,191,16099,1,8,0:0:0:0:
255,191,16326,1,8,0:0:0:0:
255,191,16402,1,8,0:0:0:0:
255,191,16554,1,0,0:0:0:0:
255,191,16857,1,8,0:0:0:0:
255,191,16932,1,8,0:0:0:0:
255,191,17008,1,8,0:0:0:0:
255,191,17160,1,0,0:0:0:0:
255,191,17311,1,8,0:0:0:0:
255,191,17614,1,8,0:0:0:0:
255,191,17766,1,0,0:0:0:0:
255,191,17917,1,8,0:0:0:0:
255,191,18069,1,8,0:0:0:0:
255,191,18523,1,8,0:0:0:0:
255,191,18675,1,0,0:0:0:0:
255,191,18826,1,8,0:0:0:0:
256,192,18978,1,0,0:0:0:0:
256,192,19054,1,0,0:0:0:0:
256,192,19129,1,0,0:0:0:0:
255,191,19281,1,8,0:0:0:0:
255,191,19432,1,8,0:0:0:0:
255,191,19735,1,4,0:0:0:0:
255,191,20038,1,8,0:0:0:0:
255,191,20190,1,0,0:0:0:0:
255,191,20341,1,8,0:0:0:0:
255,191,20645,1,8,0:0:0:0:
255,191,20796,1,0,0:0:0:0:
255,191,20948,1,8,0:0:0:0:
255,191,21099,1,8,0:0:0:0:
256,192,21175,1,8,0:0:0:0:
255,191,21251,1,8,0:0:0:0:
255,191,21402,1,0,0:0:0:0:
255,191,21705,1,0,0:0:0:0:
255,191,21781,1,0,0:0:0:0:
255,191,21857,1,0,0:0:0:0:
255,191,22160,1,8,0:0:0:0:
255,191,22311,1,0,0:0:0:0:
255,191,22463,1,8,0:0:0:0:
256,192,22614,1,8,0:0:0:0:
255,191,22766,1,0,0:0:0:0:
255,191,23069,1,8,0:0:0:0:
255,191,23220,1,0,0:0:0:0:
255,191,23372,1,8,0:0:0:0:
255,191,23675,1,8,0:0:0:0:
255,191,23826,1,8,0:0:0:0:
255,191,24129,1,8,0:0:0:0:
255,191,24281,1,8,0:0:0:0:
255,191,24357,1,8,0:0:0:0:
255,191,24432,1,8,0:0:0:0:
255,191,24584,1,0,0:0:0:0:
255,191,24887,1,8,0:0:0:0:
255,191,25038,1,0,0:0:0:0:
255,191,25190,1,8,0:0:0:0:
255,191,25645,1,0,0:0:0:0:
255,191,25796,1,8,0:0:0:0:
255,191,25948,1,0,0:0:0:0:
255,191,26099,1,8,0:0:0:0:
255,191,26251,1,8,0:0:0:0:
255,191,26402,1,0,0:0:0:0:
255,191,26705,1,8,0:0:0:0:
255,191,27008,1,4,0:0:0:0:
255,191,27311,1,8,0:0:0:0:
255,191,27463,1,8,0:0:0:0:
255,191,27614,1,0,0:0:0:0:
255,191,27917,1,8,0:0:0:0:
255,191,28069,1,0,0:0:0:0:
255,191,28145,1,0,0:0:0:0:
255,191,28220,1,0,0:0:0:0:
255,191,28523,1,8,0:0:0:0:
255,191,28675,1,8,0:0:0:0:
255,191,28826,1,0,0:0:0:0:
255,191,28978,1,8,0:0:0:0:
255,191,29054,1,8,0:0:0:0:
255,191,29129,1,8,0:0:0:0:
255,191,29281,1,8,0:0:0:0:
255,191,29432,1,4,0:0:0:0:
255,191,30341,1,8,0:0:0:0:
255,191,30493,1,0,0:0:0:0:
255,191,30645,1,4,0:0:0:0:
255,191,31554,1,8,0:0:0:0:
255,191,31629,1,8,0:0:0:0:
255,191,31705,1,8,0:0:0:0:
255,191,31857,1,4,0:0:0:0:
