osu file format v14

[General]
AudioFilename: audio.mp3
AudioLeadIn: 0
PreviewTime: 14508
Countdown: 0
SampleSet: Normal
StackLeniency: 0.6
Mode: 1
LetterboxInBreaks: 0
WidescreenStoryboard: 1

[Editor]
Bookmarks: 2766,7614,12538,12557,12576,12595,12614,12633,12652,12671,12690,12709,12728,12747,12766,14887,19735,24660,24679,24698,24717,24735,24754,24773,24792,24811,24830,24849,24868,24887,27008,29432,31857
DistanceSpacing: 2.2
BeatDivisor: 4
GridSize: 32
TimelineZoom: 1.15

[Metadata]
Title:Ben 10: Omniverse
TitleUnicode:Ben 10: Omniverse
Artist:Parry Gripp
ArtistUnicode:Parry Gripp
Creator:albionshallah
Version:Kantan
Source:Ben 10: Omniverse
Tags:rock english cartoon network extended version intro tv size omnitrix ben10 ten benten arityle i_love_hr randelman4ik katagiri k_a_t_a_g_i_r_i
BeatmapID:3786376
BeatmapSetID:1843362

[Difficulty]
HPDrainRate:10
CircleSize:7
OverallDifficulty:3
ApproachRate:10
SliderMultiplier:1.4
SliderTickRate:1

[Events]
//Background and Video events
0,0,"bg.jpg",0,60
//Break Periods
//Storyboard Layer 0 (Background)
//Storyboard Layer 1 (Fail)
//Storyboard Layer 2 (Pass)
//Storyboard Layer 3 (Foreground)
//Storyboard Layer 4 (Overlay)
//Storyboard Sound Samples

[TimingPoints]
342,303.030303030303,4,1,0,60,1,0
1478,-100,4,1,0,70,0,0
2690,-100,4,1,0,85,0,0

[HitObjects]
256,192,342,5,8,0:0:0:0:
256,192,948,1,0,0:0:0:0:
256,192,1554,1,8,0:0:0:0:
256,192,1857,1,8,0:0:0:0:
256,192,2160,1,8,0:0:0:0:
256,192,2766,1,4,0:0:0:0:
256,192,3372,1,8,0:0:0:0:
256,192,3675,1,0,0:0:0:0:
256,192,3978,1,8,0:0:0:0:
256,192,4432,1,0,0:0:0:0:
256,192,4887,1,8,0:0:0:0:
256,192,5190,1,8,0:0:0:0:
256,192,5493,1,0,0:0:0:0:
256,192,5796,1,8,0:0:0:0:
256,192,6402,1,8,0:0:0:0:
256,192,7614,1,4,0:0:0:0:
256,192,8220,1,8,0:0:0:0:
256,192,8523,1,0,0:0:0:0:
256,192,8826,1,8,0:0:0:0:
256,192,9281,1,8,0:0:0:0:
256,192,10038,1,8,0:0:0:0:
256,192,10341,1,8,0:0:0:0:
256,192,10645,1,0,0:0:0:0:
256,192,10948,1,0,0:0:0:0:
256,192,11251,1,8,0:0:0:0:
256,192,11705,1,8,0:0:0:0:
256,192,12463,1,0,0:0:0:0:
256,192,13069,1,0,0:0:0:0:
256,192,13675,1,8,0:0:0:0:
256,192,14887,1,4,0:0:0:0:
256,192,15493,1,8,0:0:0:0:
256,192,15796,1,0,0:0:0:0:
256,192,16099,1,8,0:0:0:0:
256,192,16554,1,0,0:0:0:0:
256,192,17008,1,8,0:0:0:0:
256,192,17311,1,0,0:0:0:0:
256,192,17614,1,8,0:0:0:0:
256,192,17917,1,8,0:0:0:0:
256,192,18523,1,0,0:0:0:0:
256,192,19735,1,4,0:0:0:0:
256,192,20341,1,8,0:0:0:0:
256,192,20645,1,0,0:0:0:0:
256,192,20948,1,8,0:0:0:0:
256,192,21402,1,8,0:0:0:0:
256,192,22160,1,8,0:0:0:0:
256,192,22463,1,0,0:0:0:0:
256,192,22766,1,8,0:0:0:0:
256,192,23069,1,0,0:0:0:0:
256,192,23372,1,8,0:0:0:0:
256,192,23826,1,8,0:0:0:0:
256,192,24584,1,0,0:0:0:0:
256,192,25190,1,0,0:0:0:0:
256,192,25796,1,8,0:0:0:0:
256,192,27008,1,12,0:0:0:0:
256,192,27614,1,8,0:0:0:0:
256,192,28220,1,0,0:0:0:0:
256,192,29129,1,8,0:0:0:0:
256,192,29432,1,4,0:0:0:0:
256,192,30341,1,0,0:0:0:0:
256,192,30645,1,12,0:0:0:0:
256,192,31554,1,8,0:0:0:0:
256,192,31857,1,4,0:0:0:0:
