osu file format v14

[General]
AudioFilename: 09 - Dandy (feat. Yola).mp3
AudioLeadIn: 0
PreviewTime: 31991
Countdown: 0
SampleSet: Soft
StackLeniency: 0.7
Mode: 0
LetterboxInBreaks: 1
WidescreenStoryboard: 0

[Editor]
DistanceSpacing: 1.6
BeatDivisor: 4
GridSize: 4
TimelineZoom: 1

[Metadata]
Title:Dandy (feat. Yola)
TitleUnicode:Dandy (feat. Yola)
Artist:Parov Stelar
ArtistUnicode:Parov Stelar
Creator:Lgndzr
Version:Insane
Source:
Tags:coco
BeatmapID:399243
BeatmapSetID:163930

[Difficulty]
HPDrainRate:6
CircleSize:4
OverallDifficulty:8
ApproachRate:9
SliderMultiplier:2
SliderTickRate:1

[Events]
//Background and Video events
0,0,"dandy.png",0,0
//Break Periods
2,89696,91396
2,132195,141395
//Storyboard Layer 0 (Background)
//Storyboard Layer 1 (Fail)
//Storyboard Layer 2 (Pass)
//Storyboard Layer 3 (Foreground)
//Storyboard Sound Samples

[TimingPoints]
15995,500,4,1,0,60,1,0
21993,-111.111111111111,4,1,0,60,0,0
23993,-100,4,1,0,60,0,0
31995,-100,4,1,0,70,0,1
39995,-100,4,1,0,60,0,0
55993,-166.666666666667,4,2,0,50,0,0
73993,-100,4,1,0,60,0,0
107993,-166.666666666667,4,2,0,50,0,0
143995,-83.3333333333333,4,1,0,70,0,1
161995,-100,4,1,0,60,0,0

[Colours]
Combo1 : 209,88,91
Combo2 : 192,192,192
Combo3 : 231,1,6
Combo4 : 128,128,128

[HitObjects]
152,248,15995,6,0,L|312:224,1,150,4|0,0:0|0:0,0:0:0:0:
379,212,16495,1,0,0:0:0:0:
296,349,16745,1,0,0:0:0:0:
252,195,16995,2,0,P|220:147|124:139,1,150,8|0,0:0|0:0,0:0:0:0:
66,91,17495,2,0,L|218:67,1,150,0|0,0:0|0:0,0:0:0:0:
293,55,17995,5,8,0:0:0:0:
293,55,18495,1,0,0:0:0:0:
293,55,18745,1,0,0:0:0:0:
366,241,18995,1,8,0:0:0:0:
417,89,19245,1,0,0:0:0:0:
260,306,19495,1,0,0:0:0:0:
119,229,19745,1,0,0:0:0:0:
119,229,19995,6,0,L|78:107,1,100,8|0,0:0|0:0,0:0:0:0:
212,244,20495,1,0,0:0:0:0:
163,91,20745,1,0,0:0:0:0:
163,91,20995,2,0,P|211:35|283:35,1,150,8|0,0:0|0:0,0:0:0:0:
347,82,21495,2,0,L|307:226,1,150
323,297,21995,6,0,P|259:321|163:137,1,314.999990386963,8|0,0:0|0:0,0:0:0:0:
256,192,22995,12,0,23871,0:0:0:0:
296,72,23995,6,0,L|384:200,1,150,8|0,0:0|0:0,0:0:0:0:
430,259,24495,1,0,0:0:0:0:
288,334,24745,1,0,0:0:0:0:
163,233,24995,2,0,P|212:256|302:215,1,150,8|0,0:0|0:0,0:0:0:0:
333,150,25495,1,0,0:0:0:0:
214,42,25745,1,0,0:0:0:0:
63,97,25995,5,8,0:0:0:0:
63,97,26120,1,0,0:0:0:0:
63,97,26245,1,0,0:0:0:0:
79,256,26495,1,0,0:0:0:0:
79,256,26745,1,0,0:0:0:0:
218,334,26995,1,8,0:0:0:0:
218,334,27245,1,0,0:0:0:0:
371,289,27495,1,0,0:0:0:0:
443,146,27745,1,0,0:0:0:0:
326,36,27995,6,0,P|258:20|157:97,1,200,8|0,0:0|0:0,0:0:0:0:
158,92,28745,1,0,0:0:0:0:
299,233,28995,1,8,0:0:0:0:
103,192,29245,1,0,0:0:0:0:
292,128,29495,1,0,0:0:0:0:
463,230,29745,1,0,0:0:0:0:
291,333,29995,2,0,P|218:283|393:211,1,400,8|0,0:0|0:0,0:0:0:0:
384,256,31995,6,0,L|216:291,1,150,8|0,0:0|0:0,0:0:0:0:
159,305,32495,1,0,0:0:0:0:
37,200,32745,1,0,0:0:0:0:
121,63,32995,1,8,0:0:0:0:
121,63,33120,1,8,0:0:0:0:
121,63,33245,1,8,0:0:0:0:
409,109,33495,1,8,0:0:0:0:
409,109,33620,1,8,0:0:0:0:
409,109,33745,1,8,0:0:0:0:
132,222,33995,6,0,P|136:276|234:322,1,150,8|0,0:0|0:0,0:0:0:0:
291,315,34495,1,0,0:0:0:0:
383,184,34745,1,0,0:0:0:0:
278,62,34995,1,8,0:0:0:0:
278,62,35120,1,8,0:0:0:0:
278,62,35245,1,8,0:0:0:0:
469,258,35495,1,8,0:0:0:0:
469,258,35620,1,8,0:0:0:0:
469,258,35745,1,8,0:0:0:0:
124,108,35995,6,0,P|86:152|123:250,1,150,8|0,0:0|0:0,0:0:0:0:
164,289,36495,1,0,0:0:0:0:
321,315,36745,1,0,0:0:0:0:
422,191,36995,1,8,0:0:0:0:
312,72,37245,1,0,0:0:0:0:
272,224,37495,1,0,0:0:0:0:
272,224,37620,1,0,0:0:0:0:
272,224,37745,1,0,0:0:0:0:
272,224,37995,6,0,P|176:200|312:72,1,400,8|8,0:0|0:0,0:0:0:0:
80,144,39995,6,0,P|87:241|148:269,1,150,8|0,0:0|0:0,0:0:0:0:
203,281,40495,1,0,0:0:0:0:
357,237,40745,1,0,0:0:0:0:
306,85,40995,1,8,0:0:0:0:
297,79,41120,1,0,0:0:0:0:
287,74,41245,1,0,0:0:0:0:
277,70,41370,1,0,0:0:0:0:
267,67,41495,1,0,0:0:0:0:
267,67,41745,1,0,0:0:0:0:
120,131,41995,6,0,P|91:202|160:275,1,150,8|0,0:0|0:0,0:0:0:0:
185,314,42495,1,0,0:0:0:0:
292,195,42745,1,0,0:0:0:0:
411,301,42995,1,8,0:0:0:0:
423,298,43120,1,0,0:0:0:0:
432,294,43245,1,0,0:0:0:0:
440,288,43370,1,0,0:0:0:0:
447,281,43495,1,0,0:0:0:0:
447,281,43745,1,0,0:0:0:0:
399,128,43995,6,0,P|348:79|258:88,1,150,8|0,0:0|0:0,0:0:0:0:
200,115,44495,1,0,0:0:0:0:
112,248,44745,1,0,0:0:0:0:
267,211,44995,1,8,0:0:0:0:
276,210,45120,1,0,0:0:0:0:
285,211,45245,1,0,0:0:0:0:
294,214,45370,1,0,0:0:0:0:
302,219,45495,1,0,0:0:0:0:
302,219,45745,1,0,0:0:0:0:
179,321,45995,6,0,L|142:158,1,150,8|0,0:0|0:0,0:0:0:0:
135,95,46495,1,0,0:0:0:0:
73,242,46745,1,0,0:0:0:0:
232,259,46995,1,8,0:0:0:0:
239,265,47120,1,0,0:0:0:0:
247,269,47245,1,0,0:0:0:0:
256,271,47370,1,0,0:0:0:0:
264,276,47495,2,0,P|328:290|428:260,1,150
472,221,47995,5,8,0:0:0:0:
409,73,48245,1,0,0:0:0:0:
291,182,48495,1,0,0:0:0:0:
291,182,48620,1,0,0:0:0:0:
291,182,48745,1,0,0:0:0:0:
161,275,48995,1,8,0:0:0:0:
149,115,49245,1,0,0:0:0:0:
291,182,49495,2,0,P|259:230|323:302,1,150
381,323,49995,5,8,0:0:0:0:
497,213,50245,1,0,0:0:0:0:
383,100,50495,1,0,0:0:0:0:
383,100,50620,1,0,0:0:0:0:
383,100,50745,1,0,0:0:0:0:
224,77,50995,2,0,L|86:175,1,150,8|0,0:0|0:0,0:0:0:0:
163,215,51495,2,0,P|135:264|190:353,1,150
246,369,51995,5,8,0:0:0:0:
395,311,52245,1,0,0:0:0:0:
412,151,52495,2,0,P|381:90|301:60,1,150
229,73,52995,1,8,0:0:0:0:
99,166,53245,1,0,0:0:0:0:
170,309,53495,1,0,0:0:0:0:
296,208,53745,1,0,0:0:0:0:
424,104,53995,1,8,0:0:0:0:
256,192,54120,12,0,55745,0:0:0:0:
93,244,55995,5,0,0:0:0:0:
103,255,56120,1,0,0:0:0:0:
116,262,56245,1,0,0:0:0:0:
130,264,56370,1,0,0:0:0:0:
145,264,56495,1,0,0:0:0:0:
159,259,56620,1,0,0:0:0:0:
172,252,56745,1,0,0:0:0:0:
182,241,56870,1,0,0:0:0:0:
206,225,56995,5,4,0:0:0:0:
264,168,57245,1,0,0:0:0:0:
338,135,57495,1,0,0:0:0:0:
416,138,57745,1,0,0:0:0:0:
312,58,57995,5,0,0:0:0:0:
298,51,58120,1,0,0:0:0:0:
283,47,58245,1,0,0:0:0:0:
268,46,58370,1,0,0:0:0:0:
253,50,58495,1,0,0:0:0:0:
241,59,58620,1,0,0:0:0:0:
230,69,58745,1,0,0:0:0:0:
217,76,58870,1,0,0:0:0:0:
189,81,58995,5,4,0:0:0:0:
118,137,59245,1,0,0:0:0:0:
189,188,59495,1,0,0:0:0:0:
115,235,59745,1,0,0:0:0:0:
287,317,59995,5,0,0:0:0:0:
301,317,60120,1,0,0:0:0:0:
315,314,60245,1,0,0:0:0:0:
328,307,60370,1,0,0:0:0:0:
339,297,60495,1,0,0:0:0:0:
344,283,60620,1,0,0:0:0:0:
343,268,60745,1,0,0:0:0:0:
338,253,60870,1,0,0:0:0:0:
357,229,60995,5,4,0:0:0:0:
348,216,61120,1,0,0:0:0:0:
343,201,61245,1,0,0:0:0:0:
344,186,61370,1,0,0:0:0:0:
350,172,61495,1,0,0:0:0:0:
360,160,61620,1,0,0:0:0:0:
370,149,61745,1,0,0:0:0:0:
373,134,61870,1,0,0:0:0:0:
358,111,61995,5,4,0:0:0:0:
306,42,62245,1,0,0:0:0:0:
229,6,62495,1,0,0:0:0:0:
147,18,62745,1,0,0:0:0:0:
77,173,62995,5,4,0:0:0:0:
105,253,63245,1,0,0:0:0:0:
186,243,63495,1,0,0:0:0:0:
212,318,63745,1,0,0:0:0:0:
366,317,63995,5,0,0:0:0:0:
379,310,64120,1,0,0:0:0:0:
391,301,64245,1,0,0:0:0:0:
400,289,64370,1,0,0:0:0:0:
405,274,64495,1,0,0:0:0:0:
406,259,64620,1,0,0:0:0:0:
403,244,64745,1,0,0:0:0:0:
396,230,64870,1,0,0:0:0:0:
370,205,64995,5,4,0:0:0:0:
382,197,65120,1,0,0:0:0:0:
392,186,65245,1,0,0:0:0:0:
400,173,65370,1,0,0:0:0:0:
405,159,65495,1,0,0:0:0:0:
405,144,65620,1,0,0:0:0:0:
397,130,65745,1,0,0:0:0:0:
387,118,65870,1,0,0:0:0:0:
373,82,65995,5,4,0:0:0:0:
360,90,66120,1,0,0:0:0:0:
345,92,66245,1,0,0:0:0:0:
330,91,66370,1,0,0:0:0:0:
315,87,66495,1,0,0:0:0:0:
300,82,66620,1,0,0:0:0:0:
286,76,66745,1,0,0:0:0:0:
273,68,66870,1,0,0:0:0:0:
245,68,66995,5,4,0:0:0:0:
175,108,67245,1,0,0:0:0:0:
189,190,67495,1,0,0:0:0:0:
272,204,67745,1,0,0:0:0:0:
417,272,67995,5,0,0:0:0:0:
410,285,68120,1,0,0:0:0:0:
400,296,68245,1,0,0:0:0:0:
387,303,68370,1,0,0:0:0:0:
372,307,68495,1,0,0:0:0:0:
357,308,68620,1,0,0:0:0:0:
342,306,68745,1,0,0:0:0:0:
327,301,68870,1,0,0:0:0:0:
302,272,68995,5,4,0:0:0:0:
288,265,69120,1,0,0:0:0:0:
273,263,69245,1,0,0:0:0:0:
258,265,69370,1,0,0:0:0:0:
244,271,69495,1,0,0:0:0:0:
232,280,69620,1,0,0:0:0:0:
218,286,69745,1,0,0:0:0:0:
203,288,69870,1,0,0:0:0:0:
175,273,69995,5,4,0:0:0:0:
161,266,70120,1,0,0:0:0:0:
150,255,70245,1,0,0:0:0:0:
143,241,70370,1,0,0:0:0:0:
140,226,70495,1,4,0:0:0:0:
140,211,70620,1,0,0:0:0:0:
143,196,70745,1,0,0:0:0:0:
151,183,70870,1,0,0:0:0:0:
161,172,70995,1,4,0:0:0:0:
256,192,71995,12,0,73746,0:0:0:0:
112,184,73995,6,0,P|128:136|240:96,1,150,8|0,0:0|0:0,0:0:0:0:
290,104,74495,1,0,0:0:0:0:
356,249,74745,1,0,0:0:0:0:
196,232,74995,2,0,P|212:280|328:290,1,150,8|0,0:0|0:0,0:0:0:0:
356,248,75496,2,0,L|420:112,1,150
448,37,75995,1,8,0:0:0:0:
129,71,76495,5,0,0:0:0:0:
48,208,76746,1,0,0:0:0:0:
176,304,76995,1,8,0:0:0:0:
160,144,77245,1,0,0:0:0:0:
280,40,77496,1,0,0:0:0:0:
312,192,77745,1,0,0:0:0:0:
371,346,77995,6,0,P|457:312|451:224,1,150,8|0,0:0|0:0,0:0:0:0:
455,183,78496,1,0,0:0:0:0:
344,67,78746,1,0,0:0:0:0:
345,67,78995,2,0,L|257:171,1,100,8|0,0:0|0:0,0:0:0:0:
122,171,79496,2,0,L|184:92,1,100
256,236,79995,6,0,P|325:310|494:124,1,400,8|8,0:0|0:0,0:0:0:0:
424,200,81995,6,0,L|296:104,1,150,8|0,0:0|0:0,0:0:0:0:
224,64,82495,1,0,0:0:0:0:
56,136,82745,1,0,0:0:0:0:
104,296,82995,1,8,0:0:0:0:
160,144,83245,1,0,0:0:0:0:
104,296,83495,2,0,P|176:336|228:324,1,100,0|8,0:0|0:0,0:0:0:0:
344,284,83995,1,8,0:0:0:0:
483,131,84496,5,0,0:0:0:0:
483,131,84995,1,8,0:0:0:0:
380,254,85245,1,0,0:0:0:0:
221,237,85495,2,0,P|156:208|148:144,1,100,0|8,0:0|0:0,0:0:0:0:
148,24,85995,1,8,0:0:0:0:
306,32,86245,1,0,0:0:0:0:
397,164,86496,5,0,0:0:0:0:
397,164,86620,1,0,0:0:0:0:
397,164,86745,1,0,0:0:0:0:
333,310,86995,1,8,0:0:0:0:
173,332,87246,1,0,0:0:0:0:
341,226,87495,1,0,0:0:0:0:
162,133,87746,1,0,0:0:0:0:
416,85,87996,6,0,L|318:101,1,100,8|0,0:0|0:0,0:0:0:0:
108,204,88496,2,0,L|208:218,1,100
435,292,88996,2,0,L|337:312,1,100,8|0,0:0|0:0,0:0:0:0:
337,312,89496,1,0,0:0:0:0:
390,96,91996,6,0,P|324:143|223:122,1,150,8|0,0:0|0:0,0:0:0:0:
185,104,92496,1,0,0:0:0:0:
70,215,92746,1,0,0:0:0:0:
185,326,92996,1,8,0:0:0:0:
185,326,93246,1,0,0:0:0:0:
185,326,93496,2,0,P|254:289|250:192,1,150
275,143,93996,6,0,L|379:319,1,200,8|0,0:0|0:0,0:0:0:0:
449,172,94745,1,0,0:0:0:0:
337,57,94995,1,8,0:0:0:0:
175,57,95245,1,0,0:0:0:0:
63,172,95495,2,0,P|47:233|133:270,1,150
125,356,95996,6,0,L|237:172,1,200,8|0,0:0|0:0,0:0:0:0:
307,45,96745,1,0,0:0:0:0:
287,203,96995,1,8,0:0:0:0:
408,307,97245,1,0,0:0:0:0:
473,161,97495,1,0,0:0:0:0:
473,161,97620,1,0,0:0:0:0:
473,161,97745,1,0,0:0:0:0:
473,161,97996,6,0,P|434:230|311:221,1,200,8|0,0:0|0:0,0:0:0:0:
39,223,98995,6,0,P|78:154|201:163,1,200,8|0,0:0|0:0,0:0:0:0:
473,161,99996,6,0,L|321:137,1,150,8|0,0:0|0:0,0:0:0:0:
244,127,100496,1,0,0:0:0:0:
343,252,100746,1,0,0:0:0:0:
204,332,100996,1,8,0:0:0:0:
82,174,101245,1,0,0:0:0:0:
232,41,101495,1,0,0:0:0:0:
378,105,101745,1,0,0:0:0:0:
420,259,101996,6,0,P|336:326|282:300,1,150,8|0,0:0|0:0,0:0:0:0:
244,265,102496,1,0,0:0:0:0:
373,170,102746,1,0,0:0:0:0:
373,170,102996,2,0,P|277:162|245:98,1,150,8|0,0:0|0:0,0:0:0:0:
214,51,103495,2,0,P|198:123|94:147,1,150
57,129,103996,5,8,0:0:0:0:
128,271,104245,1,0,0:0:0:0:
128,271,104495,1,0,0:0:0:0:
279,322,104745,1,0,0:0:0:0:
423,251,104996,5,8,0:0:0:0:
277,184,105246,1,0,0:0:0:0:
395,77,105495,2,0,P|341:108|246:60,1,150
215,15,105996,5,8,0:0:0:0:
89,114,106246,1,0,0:0:0:0:
137,266,106496,1,0,0:0:0:0:
137,266,106620,1,0,0:0:0:0:
137,266,106746,1,0,0:0:0:0:
89,114,106995,2,0,P|146:197|217:196,1,150,8|0,0:0|0:0,0:0:0:0:
261,167,107496,1,0,0:0:0:0:
355,295,107745,1,0,0:0:0:0:
263,167,107996,5,8,0:0:0:0:
277,168,108120,1,0,0:0:0:0:
291,166,108245,1,0,0:0:0:0:
304,159,108370,1,0,0:0:0:0:
315,149,108495,1,0,0:0:0:0:
323,136,108620,1,0,0:0:0:0:
328,122,108745,1,0,0:0:0:0:
326,107,108870,1,0,0:0:0:0:
316,83,108995,5,4,0:0:0:0:
240,40,109245,1,0,0:0:0:0:
159,63,109495,1,0,0:0:0:0:
120,138,109745,1,0,0:0:0:0:
92,283,109995,5,0,0:0:0:0:
105,276,110120,1,0,0:0:0:0:
119,273,110245,1,0,0:0:0:0:
133,273,110370,1,0,0:0:0:0:
147,277,110495,1,0,0:0:0:0:
161,282,110620,1,0,0:0:0:0:
174,288,110745,1,0,0:0:0:0:
188,293,110870,1,0,0:0:0:0:
212,304,110995,5,4,0:0:0:0:
275,248,111245,1,0,0:0:0:0:
336,304,111495,1,0,0:0:0:0:
389,243,111745,1,0,0:0:0:0:
338,111,111995,5,0,0:0:0:0:
323,114,112120,1,0,0:0:0:0:
308,114,112245,1,0,0:0:0:0:
293,110,112370,1,0,0:0:0:0:
280,102,112495,1,0,0:0:0:0:
267,93,112620,1,0,0:0:0:0:
254,84,112745,1,0,0:0:0:0:
239,79,112870,1,0,0:0:0:0:
202,82,112995,5,4,0:0:0:0:
196,95,113120,1,0,0:0:0:0:
188,108,113245,1,0,0:0:0:0:
177,118,113370,1,0,0:0:0:0:
164,126,113495,1,0,0:0:0:0:
150,131,113620,1,0,0:0:0:0:
137,139,113745,1,0,0:0:0:0:
128,151,113870,1,0,0:0:0:0:
116,177,113995,5,4,0:0:0:0:
145,262,114245,1,0,0:0:0:0:
223,307,114495,1,0,0:0:0:0:
314,312,114745,1,0,0:0:0:0:
419,229,114995,5,4,0:0:0:0:
387,144,115245,1,0,0:0:0:0:
326,83,115495,1,0,0:0:0:0:
244,60,115745,1,0,0:0:0:0:
109,105,115995,5,0,0:0:0:0:
112,119,116120,1,0,0:0:0:0:
119,132,116245,1,0,0:0:0:0:
129,142,116370,1,0,0:0:0:0:
140,151,116495,1,0,0:0:0:0:
152,159,116620,1,0,0:0:0:0:
163,169,116745,1,0,0:0:0:0:
169,182,116870,1,0,0:0:0:0:
189,214,116995,5,4,0:0:0:0:
203,214,117120,1,0,0:0:0:0:
217,217,117245,1,0,0:0:0:0:
230,222,117370,1,0,0:0:0:0:
242,230,117495,1,0,0:0:0:0:
253,239,117620,1,0,0:0:0:0:
264,248,117745,1,0,0:0:0:0:
277,254,117870,1,0,0:0:0:0:
306,267,117995,5,4,0:0:0:0:
386,210,118245,1,0,0:0:0:0:
343,81,118495,5,0,0:0:0:0:
329,87,118620,1,0,0:0:0:0:
314,89,118745,1,0,0:0:0:0:
299,88,118870,1,0,0:0:0:0:
267,81,118995,5,4,0:0:0:0:
171,102,119245,1,0,0:0:0:0:
107,166,119495,1,0,0:0:0:0:
114,248,119745,1,0,0:0:0:0:
224,324,119995,5,0,0:0:0:0:
233,312,120120,1,0,0:0:0:0:
244,302,120245,1,0,0:0:0:0:
258,297,120370,1,0,0:0:0:0:
272,294,120495,1,0,0:0:0:0:
286,292,120620,1,0,0:0:0:0:
300,289,120745,1,0,0:0:0:0:
313,282,120870,1,0,0:0:0:0:
323,252,120995,5,4,0:0:0:0:
316,238,121120,1,0,0:0:0:0:
311,223,121245,1,0,0:0:0:0:
313,208,121370,1,0,0:0:0:0:
318,194,121495,1,0,0:0:0:0:
321,179,121620,1,0,0:0:0:0:
319,164,121745,1,0,0:0:0:0:
311,150,121870,1,0,0:0:0:0:
291,133,121995,5,4,0:0:0:0:
210,97,122245,1,0,0:0:0:0:
125,109,122495,1,0,0:0:0:0:
64,255,122995,5,4,0:0:0:0:
133,310,123245,1,0,0:0:0:0:
218,296,123495,1,0,0:0:0:0:
268,231,123745,1,0,0:0:0:0:
404,181,123995,5,0,0:0:0:0:
400,166,124120,1,0,0:0:0:0:
393,152,124245,1,0,0:0:0:0:
383,140,124370,1,0,0:0:0:0:
372,129,124495,1,0,0:0:0:0:
359,120,124620,1,0,0:0:0:0:
345,112,124745,1,0,0:0:0:0:
330,106,124870,1,0,0:0:0:0:
299,108,124995,5,4,0:0:0:0:
220,143,125245,1,0,0:0:0:0:
151,96,125495,1,0,0:0:0:0:
82,145,125745,1,0,0:0:0:0:
55,248,125995,5,0,0:0:0:0:
65,258,126120,1,0,0:0:0:0:
75,268,126245,1,0,0:0:0:0:
87,276,126370,1,0,0:0:0:0:
101,280,126495,1,0,0:0:0:0:
115,282,126620,1,0,0:0:0:0:
129,282,126745,1,0,0:0:0:0:
143,279,126870,1,0,0:0:0:0:
171,270,126995,5,4,0:0:0:0:
238,318,127245,1,0,0:0:0:0:
319,321,127495,1,0,0:0:0:0:
388,282,127745,1,0,0:0:0:0:
341,223,127995,5,0,0:0:0:0:
332,214,128120,1,0,0:0:0:0:
325,204,128245,1,0,0:0:0:0:
320,193,128370,1,0,0:0:0:0:
318,181,128495,1,0,0:0:0:0:
319,169,128620,1,0,0:0:0:0:
320,157,128745,1,0,0:0:0:0:
322,145,128870,1,0,0:0:0:0:
289,116,128995,5,4,0:0:0:0:
277,106,129120,1,0,0:0:0:0:
264,97,129245,1,0,0:0:0:0:
249,92,129370,1,0,0:0:0:0:
234,89,129495,1,0,0:0:0:0:
219,89,129620,1,0,0:0:0:0:
204,93,129745,1,0,0:0:0:0:
190,100,129870,1,0,0:0:0:0:
158,121,129995,5,4,0:0:0:0:
163,134,130120,1,0,0:0:0:0:
165,148,130245,1,0,0:0:0:0:
162,162,130370,1,0,0:0:0:0:
156,175,130495,1,0,0:0:0:0:
148,188,130620,1,0,0:0:0:0:
139,200,130745,1,0,0:0:0:0:
129,211,130870,1,0,0:0:0:0:
123,243,130995,5,4,0:0:0:0:
137,242,131120,1,0,0:0:0:0:
151,244,131245,1,0,0:0:0:0:
165,248,131370,1,4,0:0:0:0:
178,255,131495,1,4,0:0:0:0:
189,264,131620,1,0,0:0:0:0:
199,274,131745,1,4,0:0:0:0:
208,285,131870,1,0,0:0:0:0:
216,297,131995,1,4,0:0:0:0:
256,192,141995,12,0,143746,0:0:0:0:
104,160,143995,6,0,P|87:238|201:310,1,179.999994506836,8|0,0:0|0:0,0:0:0:0:
243,330,144495,1,0,0:0:0:0:
422,261,144745,1,0,0:0:0:0:
359,79,144995,1,8,0:0:0:0:
359,79,145120,1,8,0:0:0:0:
359,79,145245,1,8,0:0:0:0:
243,330,145495,1,8,0:0:0:0:
243,330,145620,1,8,0:0:0:0:
243,330,145745,1,8,0:0:0:0:
102,198,145995,6,0,P|219:200|263:132,1,179.999994506836,8|0,0:0|0:0,0:0:0:0:
275,63,146495,1,0,0:0:0:0:
443,155,146745,1,0,0:0:0:0:
345,320,146995,1,8,0:0:0:0:
345,320,147120,1,8,0:0:0:0:
345,320,147245,1,8,0:0:0:0:
168,72,147495,1,8,0:0:0:0:
168,72,147620,1,8,0:0:0:0:
168,72,147745,1,8,0:0:0:0:
98,250,147995,6,0,P|144:298|267:276,1,179.999994506836,8|0,0:0|0:0,0:0:0:0:
319,223,148495,1,0,0:0:0:0:
319,223,148745,1,0,0:0:0:0:
135,166,148995,1,8,0:0:0:0:
301,70,149245,1,0,0:0:0:0:
450,190,149495,1,0,0:0:0:0:
450,190,149620,1,0,0:0:0:0:
450,190,149745,1,0,0:0:0:0:
450,190,149995,6,0,P|431:274|314:299,1,179.999994506836,8|0,0:0|0:0,0:0:0:0:
258,281,150495,1,0,0:0:0:0:
152,120,150745,1,0,0:0:0:0:
343,113,150995,1,8,0:0:0:0:
343,113,151245,1,0,0:0:0:0:
258,282,151495,1,0,0:0:0:0:
449,296,151745,1,0,0:0:0:0:
258,281,151995,6,0,P|202:220|273:112,1,179.999994506836,8|0,0:0|0:0,0:0:0:0:
304,75,152495,1,0,0:0:0:0:
120,130,152745,1,0,0:0:0:0:
87,319,152995,1,8,0:0:0:0:
87,319,153120,1,8,0:0:0:0:
87,319,153245,1,8,0:0:0:0:
408,62,153495,1,8,0:0:0:0:
408,62,153620,1,8,0:0:0:0:
408,62,153745,1,8,0:0:0:0:
222,110,153995,6,0,P|262:182|382:158,1,179.999994506836,8|0,0:0|0:0,0:0:0:0:
431,131,154495,1,0,0:0:0:0:
454,321,154745,1,0,0:0:0:0:
265,355,154995,1,8,0:0:0:0:
265,355,155120,1,8,0:0:0:0:
265,355,155245,1,8,0:0:0:0:
251,36,155495,1,8,0:0:0:0:
251,36,155620,1,8,0:0:0:0:
251,36,155745,1,8,0:0:0:0:
95,147,155995,6,0,P|62:203|153:296,1,179.999994506836,8|0,0:0|0:0,0:0:0:0:
208,325,156495,1,0,0:0:0:0:
393,273,156745,1,0,0:0:0:0:
403,81,156995,1,8,0:0:0:0:
403,81,157245,1,0,0:0:0:0:
403,81,157495,2,0,P|384:156|271:172,1,179.999994506836
271,88,157995,6,0,P|73:101|184:265,1,479.999985351563,8|8,0:0|0:0,0:0:0:0:
320,280,159495,5,0,0:0:0:0:
400,160,159745,1,0,0:0:0:0:
256,192,159995,5,8,0:0:0:0:
256,192,160245,1,8,0:0:0:0:
256,192,161245,1,8,0:0:0:0:
288,80,161495,1,8,0:0:0:0:
336,320,161745,1,8,0:0:0:0:
72,160,161995,1,12,0:0:0:0:
