osu file format v14

[General]
AudioFilename: audio.mp3
AudioLeadIn: 0
PreviewTime: 62101
Countdown: 0
SampleSet: Normal
StackLeniency: 0.2
Mode: 1
LetterboxInBreaks: 0
WidescreenStoryboard: 0

[Editor]
Bookmarks: 13540,25540
DistanceSpacing: 1.2
BeatDivisor: 4
GridSize: 4
TimelineZoom: 1.200001

[Metadata]
Title:Ju Tou San Chi Tian Qi Qing
TitleUnicode:舉頭三尺天氣晴
Artist:Paroto
ArtistUnicode:パロト
Creator:KittyAdventure
Version:Fapu's Oni
Source:家有大貓
Tags:Nekojishi jiā yǒu dà māo jia you da mao mau Nviek5 クエン酸P 晴空和音 Triodust KuensanP Parrot 3R2 空氣載體 A Sunny Day is Watching over You Vocal Title furry yaoi kemono Shiroi Hiroshi Collab SyraxAxoJaxco Error Error- gokugohan12468 Faputa
BeatmapID:1479321
BeatmapSetID:695009

[Difficulty]
HPDrainRate:5
CircleSize:2
OverallDifficulty:6
ApproachRate:9
SliderMultiplier:1.4
SliderTickRate:2

[Events]
//Background and Video events
0,0,"Taiko BG.jpg",0,0
//Break Periods
//Storyboard Layer 0 (Background)
//Storyboard Layer 1 (Fail)
//Storyboard Layer 2 (Pass)
//Storyboard Layer 3 (Foreground)
//Storyboard Sound Samples

[TimingPoints]
1540,375,4,1,0,70,1,0
49540,-100,4,1,0,45,0,0
61540,-100,4,1,0,70,0,0
63031,375,4,1,0,70,1,1
87031,-100,4,1,0,45,0,0

[HitObjects]
256,192,1540,5,12,0:0:0:0:
256,192,1915,1,0,0:0:0:0:
256,192,2102,1,8,0:0:0:0:
256,192,2665,1,0,0:0:0:0:
256,192,3040,1,8,0:0:0:0:
256,192,3602,1,8,0:0:0:0:
256,192,3790,1,0,0:0:0:0:
256,192,4165,1,0,0:0:0:0:
256,192,4540,1,8,0:0:0:0:
256,192,4915,1,8,0:0:0:0:
256,192,5290,1,0,0:0:0:0:
256,192,5477,1,8,0:0:0:0:
256,192,5852,1,0,0:0:0:0:
256,192,6415,1,0,0:0:0:0:
256,192,6790,1,8,0:0:0:0:
256,192,6977,1,0,0:0:0:0:
256,192,7540,1,8,0:0:0:0:
256,192,7915,1,0,0:0:0:0:
256,192,8290,1,0,0:0:0:0:
256,192,8477,1,8,0:0:0:0:
256,192,8852,1,8,0:0:0:0:
256,192,9040,1,0,0:0:0:0:
256,192,9415,1,8,0:0:0:0:
256,192,9790,1,8,0:0:0:0:
256,192,10165,1,0,0:0:0:0:
256,192,10540,1,8,0:0:0:0:
256,192,10727,1,0,0:0:0:0:
256,192,10915,1,0,0:0:0:0:
256,192,11102,1,0,0:0:0:0:
256,192,11290,1,8,0:0:0:0:
256,192,11477,1,8,0:0:0:0:
256,192,11665,1,8,0:0:0:0:
256,192,11852,1,0,0:0:0:0:
256,192,12040,1,8,0:0:0:0:
256,192,12133,1,8,0:0:0:0:
256,192,12227,1,8,0:0:0:0:
256,192,12321,1,8,0:0:0:0:
256,192,12415,1,0,0:0:0:0:
256,192,12508,1,0,0:0:0:0:
256,192,12602,1,0,0:0:0:0:
256,192,12696,1,0,0:0:0:0:
256,192,12790,1,8,0:0:0:0:
256,192,12977,1,8,0:0:0:0:
256,192,13165,1,8,0:0:0:0:
256,192,13258,1,8,0:0:0:0:
256,192,13352,1,0,0:0:0:0:
256,192,13446,1,0,0:0:0:0:
256,192,13540,1,12,0:0:0:0:
256,192,13727,1,0,0:0:0:0:
256,192,13821,1,8,0:0:0:0:
256,192,14102,1,8,0:0:0:0:
256,192,14477,1,8,0:0:0:0:
256,192,14665,1,0,0:0:0:0:
256,192,14852,1,8,0:0:0:0:
256,192,15040,1,8,0:0:0:0:
256,192,15227,1,8,0:0:0:0:
256,192,15321,1,0,0:0:0:0:
256,192,15602,1,8,0:0:0:0:
256,192,15977,1,0,0:0:0:0:
256,192,16165,1,8,0:0:0:0:
256,192,16352,1,0,0:0:0:0:
256,192,16540,1,0,0:0:0:0:
256,192,16727,1,8,0:0:0:0:
256,192,16821,1,0,0:0:0:0:
256,192,17102,1,8,0:0:0:0:
256,192,17477,1,8,0:0:0:0:
256,192,17665,1,8,0:0:0:0:
256,192,17852,1,0,0:0:0:0:
256,192,18040,1,8,0:0:0:0:
256,192,18227,1,0,0:0:0:0:
256,192,18321,1,8,0:0:0:0:
256,192,18602,1,0,0:0:0:0:
256,192,18977,1,8,0:0:0:0:
256,192,19071,1,8,0:0:0:0:
256,192,19165,1,0,0:0:0:0:
256,192,19258,1,0,0:0:0:0:
256,192,19352,1,0,0:0:0:0:
256,192,19540,1,12,0:0:0:0:
256,192,19727,1,0,0:0:0:0:
256,192,19821,1,8,0:0:0:0:
256,192,20102,1,8,0:0:0:0:
256,192,20477,1,8,0:0:0:0:
256,192,20665,1,8,0:0:0:0:
256,192,20852,1,0,0:0:0:0:
256,192,21040,1,8,0:0:0:0:
256,192,21227,1,8,0:0:0:0:
256,192,21321,1,0,0:0:0:0:
256,192,21602,1,8,0:0:0:0:
256,192,21977,1,0,0:0:0:0:
256,192,22165,1,8,0:0:0:0:
256,192,22352,1,8,0:0:0:0:
256,192,22540,1,0,0:0:0:0:
256,192,22727,1,0,0:0:0:0:
256,192,22821,1,8,0:0:0:0:
256,192,23102,1,8,0:0:0:0:
256,192,23477,1,8,0:0:0:0:
256,192,23665,1,0,0:0:0:0:
256,192,23852,1,0,0:0:0:0:
256,192,24040,1,8,0:0:0:0:
256,192,24227,1,8,0:0:0:0:
256,192,24321,1,0,0:0:0:0:
256,192,24602,1,0,0:0:0:0:
256,192,24977,1,8,0:0:0:0:
256,192,25071,1,8,0:0:0:0:
256,192,25165,1,0,0:0:0:0:
256,192,25258,1,0,0:0:0:0:
256,192,25352,1,0,0:0:0:0:
256,192,25540,1,4,0:0:0:0:
256,192,25915,1,0,0:0:0:0:
256,192,26102,1,8,0:0:0:0:
256,192,26290,1,8,0:0:0:0:
256,192,26477,1,0,0:0:0:0:
256,192,26852,1,8,0:0:0:0:
256,192,27040,1,8,0:0:0:0:
256,192,27415,1,0,0:0:0:0:
256,192,27790,1,8,0:0:0:0:
256,192,28165,1,0,0:0:0:0:
256,192,28540,1,8,0:0:0:0:
256,192,28915,1,8,0:0:0:0:
256,192,29102,1,0,0:0:0:0:
256,192,29290,1,0,0:0:0:0:
256,192,29477,1,8,0:0:0:0:
256,192,29852,1,0,0:0:0:0:
256,192,30040,1,8,0:0:0:0:
256,192,30415,1,8,0:0:0:0:
256,192,30790,1,0,0:0:0:0:
256,192,31165,1,8,0:0:0:0:
256,192,31352,1,0,0:0:0:0:
256,192,31540,1,0,0:0:0:0:
256,192,31915,1,0,0:0:0:0:
256,192,32102,1,8,0:0:0:0:
256,192,32290,1,8,0:0:0:0:
256,192,32477,1,0,0:0:0:0:
256,192,32852,1,8,0:0:0:0:
256,192,33040,1,0,0:0:0:0:
256,192,33415,1,0,0:0:0:0:
256,192,33790,1,8,0:0:0:0:
256,192,34165,1,8,0:0:0:0:
256,192,34540,2,8,L|340:184,2,70.000000298023
256,192,35290,1,0,0:0:0:0:
256,192,35665,1,8,0:0:0:0:
256,192,35852,1,0,0:0:0:0:
256,192,36040,1,0,0:0:0:0:
256,192,36415,1,8,0:0:0:0:
256,192,36790,1,8,0:0:0:0:
256,192,36977,1,0,0:0:0:0:
256,192,37165,1,8,0:0:0:0:
256,192,37352,1,0,0:0:0:0:
256,192,37446,1,0,0:0:0:0:
256,192,37540,1,12,0:0:0:0:
256,192,37915,1,0,0:0:0:0:
256,192,38102,1,8,0:0:0:0:
256,192,38290,1,8,0:0:0:0:
256,192,38477,1,8,0:0:0:0:
256,192,38852,1,0,0:0:0:0:
256,192,39040,1,8,0:0:0:0:
256,192,39415,1,0,0:0:0:0:
256,192,39790,1,8,0:0:0:0:
256,192,40165,1,8,0:0:0:0:
256,192,40352,1,0,0:0:0:0:
256,192,40446,1,0,0:0:0:0:
256,192,40540,1,8,0:0:0:0:
256,192,40915,1,8,0:0:0:0:
256,192,41102,1,0,0:0:0:0:
256,192,41290,1,0,0:0:0:0:
256,192,41477,1,8,0:0:0:0:
256,192,41852,1,8,0:0:0:0:
256,192,42040,1,0,0:0:0:0:
256,192,42415,1,8,0:0:0:0:
256,192,42790,1,0,0:0:0:0:
256,192,43165,1,0,0:0:0:0:
256,192,43352,1,0,0:0:0:0:
256,192,43446,1,0,0:0:0:0:
256,192,43540,1,8,0:0:0:0:
256,192,43915,1,0,0:0:0:0:
256,192,44102,1,8,0:0:0:0:
256,192,44290,1,8,0:0:0:0:
256,192,44477,1,8,0:0:0:0:
256,192,44852,1,8,0:0:0:0:
256,192,45040,1,0,0:0:0:0:
256,192,45415,1,0,0:0:0:0:
256,192,45790,1,8,0:0:0:0:
256,192,46165,1,8,0:0:0:0:
256,192,46540,1,8,0:0:0:0:
256,192,46915,1,0,0:0:0:0:
256,192,47102,1,8,0:0:0:0:
256,192,47196,1,8,0:0:0:0:
256,192,47290,1,0,0:0:0:0:
256,192,47665,1,8,0:0:0:0:
256,192,47852,1,0,0:0:0:0:
264,192,47946,1,0,0:0:0:0:
256,192,48040,1,8,0:0:0:0:
256,192,48227,1,0,0:0:0:0:
256,192,48415,1,8,0:0:0:0:
256,192,48790,1,8,0:0:0:0:
256,192,48977,1,0,0:0:0:0:
256,192,49165,1,8,0:0:0:0:
256,192,49352,1,0,0:0:0:0:
256,192,49446,1,0,0:0:0:0:
256,192,49540,1,12,0:0:0:0:
256,192,49915,1,0,0:0:0:0:
256,192,50102,1,8,0:0:0:0:
256,192,50665,1,0,0:0:0:0:
256,192,50852,1,0,0:0:0:0:
256,192,50946,1,0,0:0:0:0:
256,192,51040,1,0,0:0:0:0:
256,192,51415,1,0,0:0:0:0:
256,192,51602,1,0,0:0:0:0:
256,192,51696,1,8,0:0:0:0:
256,192,51790,1,0,0:0:0:0:
256,192,51977,1,0,0:0:0:0:
256,192,52165,1,8,0:0:0:0:
256,192,52352,1,8,0:0:0:0:
256,192,52446,1,8,0:0:0:0:
256,192,52540,1,0,0:0:0:0:
256,192,52915,1,8,0:0:0:0:
256,192,53102,1,0,0:0:0:0:
256,192,53290,1,0,0:0:0:0:
256,192,53383,1,0,0:0:0:0:
256,192,53477,1,0,0:0:0:0:
256,192,53665,1,8,0:0:0:0:
256,192,53852,1,0,0:0:0:0:
256,192,53946,1,8,0:0:0:0:
256,192,54040,1,0,0:0:0:0:
256,192,54227,1,0,0:0:0:0:
256,192,54415,1,8,0:0:0:0:
256,192,54602,1,0,0:0:0:0:
256,192,54696,1,8,0:0:0:0:
256,192,54790,1,0,0:0:0:0:
256,192,54977,1,0,0:0:0:0:
256,192,55165,1,8,0:0:0:0:
256,192,55540,1,8,0:0:0:0:
256,192,55727,1,0,0:0:0:0:
256,192,55915,1,8,0:0:0:0:
256,192,56102,1,0,0:0:0:0:
256,192,56196,1,0,0:0:0:0:
256,192,56290,1,8,0:0:0:0:
256,192,56477,1,0,0:0:0:0:
256,192,56665,1,8,0:0:0:0:
256,192,56852,1,8,0:0:0:0:
256,192,56946,1,8,0:0:0:0:
256,192,57040,1,0,0:0:0:0:
256,192,57227,1,0,0:0:0:0:
256,192,57415,1,8,0:0:0:0:
256,192,57602,1,0,0:0:0:0:
256,192,57696,1,8,0:0:0:0:
256,192,57790,1,0,0:0:0:0:
256,192,58165,1,8,0:0:0:0:
256,192,58352,1,8,0:0:0:0:
256,192,58446,1,0,0:0:0:0:
256,192,58540,1,8,0:0:0:0:
256,192,58727,1,0,0:0:0:0:
256,192,58915,1,0,0:0:0:0:
256,192,59102,1,8,0:0:0:0:
256,192,59290,1,0,0:0:0:0:
256,192,59383,1,0,0:0:0:0:
256,192,59477,1,0,0:0:0:0:
256,192,59665,1,8,0:0:0:0:
256,192,59852,1,0,0:0:0:0:
256,192,60040,1,8,0:0:0:0:
256,192,60415,1,8,0:0:0:0:
256,192,60790,12,0,61352,0:0:0:0:
256,192,61540,5,8,0:0:0:0:
256,192,61633,1,0,0:0:0:0:
256,192,61727,1,0,0:0:0:0:
256,192,61821,1,8,0:0:0:0:
256,192,61915,1,0,0:0:0:0:
256,192,62102,1,8,0:0:0:0:
256,192,62196,1,0,0:0:0:0:
256,192,62290,1,0,0:0:0:0:
256,192,62383,1,0,0:0:0:0:
256,192,62477,1,0,0:0:0:0:
256,192,62665,1,12,0:0:0:0:
256,192,62852,1,0,0:0:0:0:
256,192,63031,1,4,0:0:0:0:
256,192,63218,1,8,0:0:0:0:
256,192,63312,1,8,0:0:0:0:
256,192,63406,1,0,0:0:0:0:
256,192,63593,1,0,0:0:0:0:
256,192,63781,1,0,0:0:0:0:
256,192,63874,1,0,0:0:0:0:
256,192,63968,1,8,0:0:0:0:
256,192,64156,1,8,0:0:0:0:
256,192,64531,1,8,0:0:0:0:
256,192,64718,1,0,0:0:0:0:
256,192,64812,1,8,0:0:0:0:
256,192,64906,1,0,0:0:0:0:
256,192,65093,1,0,0:0:0:0:
256,192,65281,1,8,0:0:0:0:
256,192,65374,1,0,0:0:0:0:
256,192,65468,1,0,0:0:0:0:
256,192,65656,1,8,0:0:0:0:
256,192,66031,1,0,0:0:0:0:
256,192,66218,1,0,0:0:0:0:
256,192,66406,1,8,0:0:0:0:
256,192,66499,1,0,0:0:0:0:
256,192,66687,1,0,0:0:0:0:
256,192,66781,1,8,0:0:0:0:
256,192,66968,1,0,0:0:0:0:
256,192,67156,1,8,0:0:0:0:
256,192,67343,1,0,0:0:0:0:
256,192,67437,1,0,0:0:0:0:
256,192,67531,1,8,0:0:0:0:
256,192,67718,1,8,0:0:0:0:
256,192,67812,1,8,0:0:0:0:
256,192,67906,1,0,0:0:0:0:
256,192,68093,1,0,0:0:0:0:
256,192,68281,1,8,0:0:0:0:
256,192,68468,1,0,0:0:0:0:
256,192,68656,1,8,0:0:0:0:
256,192,68749,1,0,0:0:0:0:
256,192,68843,1,0,0:0:0:0:
256,192,69031,1,12,0:0:0:0:
256,192,69406,1,8,0:0:0:0:
256,192,69593,1,0,0:0:0:0:
256,192,69781,1,8,0:0:0:0:
256,192,69874,1,8,0:0:0:0:
256,192,69968,1,0,0:0:0:0:
256,192,70156,1,0,0:0:0:0:
256,192,70343,1,8,0:0:0:0:
256,192,70531,1,0,0:0:0:0:
256,192,70906,1,0,0:0:0:0:
256,192,71093,1,8,0:0:0:0:
256,192,71281,1,0,0:0:0:0:
256,192,71374,1,0,0:0:0:0:
256,192,71468,1,8,0:0:0:0:
256,192,71656,1,8,0:0:0:0:
256,192,71843,1,0,0:0:0:0:
256,192,72031,1,8,0:0:0:0:
256,192,72406,1,0,0:0:0:0:
256,192,72593,1,0,0:0:0:0:
256,192,72781,1,8,0:0:0:0:
256,192,72874,1,0,0:0:0:0:
256,192,73062,1,0,0:0:0:0:
256,192,73156,1,8,0:0:0:0:
256,192,73343,1,0,0:0:0:0:
256,192,73531,1,0,0:0:0:0:
256,192,73624,1,0,0:0:0:0:
256,192,73718,1,8,0:0:0:0:
256,192,73906,1,0,0:0:0:0:
256,192,74093,1,8,0:0:0:0:
256,192,74281,1,0,0:0:0:0:
256,192,74374,1,0,0:0:0:0:
256,192,74468,1,8,0:0:0:0:
256,192,74562,1,8,0:0:0:0:
256,192,74656,1,8,0:0:0:0:
256,192,74749,1,8,0:0:0:0:
256,192,74843,1,0,0:0:0:0:
256,192,75031,1,12,0:0:0:0:
256,192,75218,1,8,0:0:0:0:
256,192,75312,1,8,0:0:0:0:
256,192,75406,1,0,0:0:0:0:
256,192,75593,1,0,0:0:0:0:
256,192,75781,1,8,0:0:0:0:
256,192,75874,1,0,0:0:0:0:
256,192,75968,1,8,0:0:0:0:
256,192,76156,1,8,0:0:0:0:
256,192,76531,1,8,0:0:0:0:
256,192,76718,1,0,0:0:0:0:
256,192,76812,1,8,0:0:0:0:
256,192,76906,1,0,0:0:0:0:
256,192,77093,1,0,0:0:0:0:
256,192,77281,1,8,0:0:0:0:
256,192,77374,1,0,0:0:0:0:
256,192,77468,1,8,0:0:0:0:
256,192,77656,1,0,0:0:0:0:
256,192,78031,1,0,0:0:0:0:
256,192,78218,1,0,0:0:0:0:
256,192,78406,1,8,0:0:0:0:
256,192,78499,1,0,0:0:0:0:
256,192,78687,1,0,0:0:0:0:
256,192,78781,1,8,0:0:0:0:
256,192,78968,1,8,0:0:0:0:
256,192,79156,1,8,0:0:0:0:
256,192,79343,1,0,0:0:0:0:
256,192,79437,1,0,0:0:0:0:
256,192,79531,1,8,0:0:0:0:
256,192,79718,1,8,0:0:0:0:
256,192,79812,1,0,0:0:0:0:
256,192,79906,1,0,0:0:0:0:
256,192,80093,1,0,0:0:0:0:
256,192,80281,1,8,0:0:0:0:
256,192,80468,1,8,0:0:0:0:
256,192,80656,1,0,0:0:0:0:
256,192,80749,1,0,0:0:0:0:
256,192,80843,1,0,0:0:0:0:
256,192,81031,1,12,0:0:0:0:
256,192,81406,1,8,0:0:0:0:
256,192,81593,1,0,0:0:0:0:
256,192,81781,1,8,0:0:0:0:
256,192,81874,1,8,0:0:0:0:
256,192,81968,1,0,0:0:0:0:
256,192,82156,1,0,0:0:0:0:
256,192,82343,1,8,0:0:0:0:
256,192,82531,1,0,0:0:0:0:
256,192,82906,1,0,0:0:0:0:
256,192,83093,1,8,0:0:0:0:
256,192,83281,1,0,0:0:0:0:
256,192,83374,1,0,0:0:0:0:
256,192,83468,1,8,0:0:0:0:
256,192,83656,1,8,0:0:0:0:
256,192,83843,1,0,0:0:0:0:
256,192,84031,1,8,0:0:0:0:
256,192,84406,1,8,0:0:0:0:
256,192,84593,1,0,0:0:0:0:
256,192,84687,1,0,0:0:0:0:
256,192,84781,1,8,0:0:0:0:
256,192,84874,1,0,0:0:0:0:
256,192,85062,1,0,0:0:0:0:
256,192,85156,1,8,0:0:0:0:
256,192,85343,1,0,0:0:0:0:
256,192,85531,1,0,0:0:0:0:
256,192,85624,1,8,0:0:0:0:
256,192,85718,1,8,0:0:0:0:
256,192,85812,1,8,0:0:0:0:
256,192,85906,1,0,0:0:0:0:
256,192,86093,1,0,0:0:0:0:
256,192,86281,1,8,0:0:0:0:
256,192,86374,1,8,0:0:0:0:
256,192,86468,1,0,0:0:0:0:
256,192,86562,1,0,0:0:0:0:
256,192,86656,1,8,0:0:0:0:
256,192,86749,1,0,0:0:0:0:
256,192,86843,1,0,0:0:0:0:
256,192,87031,1,12,0:0:0:0:
256,192,87218,12,0,91531,0:0:0:0:
