osu file format v14

[General]
AudioFilename: audio.mp3
AudioLeadIn: 0
PreviewTime: 62101
Countdown: 0
SampleSet: Soft
StackLeniency: 0.4
Mode: 0
LetterboxInBreaks: 0
WidescreenStoryboard: 0

[Editor]
DistanceSpacing: 1.4
BeatDivisor: 4
GridSize: 4
TimelineZoom: 3.799999

[Metadata]
Title:Ju Tou San Chi Tian Qi Qing
TitleUnicode:舉頭三尺天氣晴
Artist:Paroto
ArtistUnicode:パロト
Creator:KittyAdventure
Version:Family
Source:家有大貓
Tags:Nekojishi jiā yǒu dà māo jia you da mao mau Nviek5 クエン酸P 晴空和音 Triodust KuensanP Parrot 3R2 空氣載體 A Sunny Day is Watching over You Vocal Title furry yaoi kemono Shiroi Hiroshi Collab SyraxAxoJaxco Error Error- gokugohan12468 Faputa
BeatmapID:1470238
BeatmapSetID:695009

[Difficulty]
HPDrainRate:6.5
CircleSize:4
OverallDifficulty:8.5
ApproachRate:9
SliderMultiplier:1.7
SliderTickRate:2

[Events]
//Background and Video events
Video,0,"123.avi"
0,0,"BG.jpg",0,0
//Break Periods
//Storyboard Layer 0 (Background)
//Storyboard Layer 1 (Fail)
//Storyboard Layer 2 (Pass)
//Storyboard Layer 3 (Foreground)
//Storyboard Sound Samples

[TimingPoints]
1540,375,4,2,1,70,1,0
1540,-133.333333333333,4,2,1,70,0,0
7446,-133.333333333333,4,2,1,5,0,0
7540,-117.647058823529,4,2,1,70,0,0
9321,-117.647058823529,4,2,1,5,0,0
9415,-117.647058823529,4,2,1,70,0,0
10446,-117.647058823529,4,2,1,5,0,0
10540,-117.647058823529,4,2,1,70,0,0
13165,-83.3333333333333,4,2,1,70,0,0
13352,-66.6666666666667,4,2,1,70,0,0
13540,-100,4,2,1,70,0,0
18977,-66.6666666666667,4,2,1,70,0,0
19540,-100,4,2,1,70,0,0
33321,-100,4,2,1,5,0,0
33415,-100,4,2,1,70,0,0
34821,-100,4,2,1,5,0,0
34915,-100,4,2,1,70,0,0
45321,-100,4,2,1,5,0,0
45415,-100,4,2,1,70,0,0
46821,-100,4,2,1,5,0,0
46915,-100,4,2,1,70,0,0
49540,-133.333333333333,4,2,1,45,0,0
52071,-133.333333333333,4,2,1,5,0,0
52165,-133.333333333333,4,2,1,45,0,0
60415,-200,4,2,1,45,0,0
61446,-200,4,2,1,5,0,0
61540,-100,4,2,1,70,0,0
62477,-66.6666666666667,4,2,1,70,0,0
62665,-133.333333333333,4,2,1,70,0,0
62946,-133.333333333333,4,2,1,5,0,0
63031,375,4,2,1,70,1,1
70812,-100,4,2,1,5,0,1
70906,-100,4,2,1,70,0,1
74937,-100,4,2,1,70,0,0
75031,-100,4,2,1,70,0,1
80656,-66.6666666666667,4,2,1,70,0,1
81031,-100,4,2,1,70,0,1
82812,-100,4,2,1,5,0,1
82906,-100,4,2,1,70,0,1
87031,-133.333333333333,4,2,1,45,0,0
87312,-133.333333333333,4,2,1,5,0,0
87406,-133.333333333333,4,2,1,45,0,0
87687,-133.333333333333,4,2,1,5,0,0
87781,-133.333333333333,4,2,1,45,0,0
88062,-133.333333333333,4,2,1,5,0,0
88156,-133.333333333333,4,2,1,45,0,0
88812,-133.333333333333,4,2,1,5,0,0
88906,-133.333333333333,4,2,1,45,0,0
89187,-133.333333333333,4,2,1,5,0,0
89281,-133.333333333333,4,2,1,45,0,0
89562,-133.333333333333,4,2,1,5,0,0
89656,-133.333333333333,4,2,1,45,0,0
89843,-153.846153846153,4,2,1,45,0,0
89937,-153.846153846153,4,2,1,5,0,0
91437,-200,4,2,1,5,0,0

[Colours]
Combo1 : 193,132,132
Combo2 : 232,116,0
Combo3 : 217,217,0

[HitObjects]
48,200,1540,6,0,B|80:144|64:88|64:88|144:208|144:208|128:136|172:80,1,382.500014591218,6|2,0:0|0:0,0:0:0:0:
319,187,3040,2,0,P|315:143|291:215,1,255.000009727478,2|2,0:0|0:0,0:0:0:0:
277,218,4165,1,2,0:0:0:0:
184,88,4540,6,0,B|156:104|156:140|156:140|140:100|96:88,1,127.500004863739,2|2,0:0|0:0,0:0:0:0:
148,228,5290,1,2,0:0:0:0:
164,204,5477,2,0,L|156:136,1,63.7500024318696,0|2,0:0|0:0,0:0:0:0:
302,195,5852,5,2,0:0:0:0:
260,128,6040,2,0,P|316:116|372:160,1,127.500004863739,2|0,0:0|0:0,0:0:0:0:
302,195,6790,5,2,0:0:0:0:
260,261,6977,2,0,P|224:209|266:124,1,159.375006079674,2|0,0:0|0:0,0:0:0:0:
302,195,7540,6,0,B|258:247|324:284|282:339,1,144.500002756119,2|2,0:3|0:3,0:0:0:0:
104,352,8290,2,0,P|144:296|216:296,1,144.500002756119,2|2,0:3|0:3,0:0:0:0:
181,365,8852,1,2,0:3:0:0:
108,216,9040,6,0,P|72:184|76:104,1,108.375002067089,2|0,0:3|0:0,0:0:0:0:
128,72,9415,2,0,L|208:76,1,72.2500013780594,2|0,0:3|0:0,0:0:0:0:
328,4,9790,2,0,L|255:0,1,72.2500013780594,2|0,0:3|0:0,0:0:0:0:
408,84,10165,1,2,0:3:0:0:
452,12,10352,1,0,0:0:0:0:
316,88,10540,5,2,0:0:0:0:
276,164,10727,1,0,0:0:0:0:
360,156,10915,1,2,0:0:0:0:
232,96,11102,1,0,0:0:0:0:
328,232,11290,1,2,0:0:0:0:
408,84,11477,1,0,0:0:0:0:
244,240,11665,1,2,0:0:0:0:
412,220,11852,1,0,0:0:0:0:
176,184,12040,5,2,0:0:0:0:
164,224,12133,1,0,0:0:0:0:
132,252,12227,1,0,0:0:0:0:
88,260,12321,1,0,0:0:0:0:
48,244,12415,1,4,0:3:0:0:
20,212,12508,1,0,0:0:0:0:
12,168,12602,1,0,0:0:0:0:
32,128,12696,1,0,0:0:0:0:
64,100,12790,6,0,L|116:112,1,36.1250006890297,2|0,0:3|0:0,0:0:0:0:
208,32,12977,2,0,L|168:40,1,36.1250006890297
188,172,13165,6,0,L|180:104,1,50.9999984436036,8|0,0:0|0:0,0:0:0:0:
32,12,13352,6,0,L|104:28,1,63.7500024318696
284,0,13540,5,6,0:0:0:0:
464,76,13727,1,2,0:0:0:0:
468,92,13821,1,2,0:0:0:0:
464,108,13915,1,8,0:0:0:0:
272,184,14102,2,0,L|276:76,1,85,2|2,0:0|0:0,0:0:0:0:
368,64,14477,1,0,0:0:0:0:
340,328,14665,1,8,0:0:0:0:
192,204,14852,1,0,0:0:0:0:
380,152,15040,5,6,0:0:0:0:
208,356,15227,1,2,0:0:0:0:
204,320,15321,1,2,0:0:0:0:
200,280,15415,1,8,0:0:0:0:
196,244,15508,1,0,0:0:0:0:
192,204,15602,5,2,0:0:0:0:
304,236,15790,1,2,0:0:0:0:
276,124,15977,1,0,0:0:0:0:
96,52,16165,2,0,L|8:64,1,85,8|0,0:0|0:0,0:0:0:0:
184,104,16540,5,6,0:0:0:0:
276,124,16727,1,0,0:0:0:0:
168,320,16915,1,8,0:0:0:0:
104,248,17102,2,0,P|96:204|112:160,1,85,2|2,0:0|0:0,0:0:0:0:
184,104,17477,1,2,0:0:0:0:
252,312,17665,2,0,L|160:320,1,85,8|0,0:0|0:0,0:0:0:0:
360,160,18040,5,6,0:0:0:0:
252,312,18227,1,2,0:0:0:0:
256,328,18321,1,2,0:0:0:0:
260,344,18415,1,8,0:0:0:0:
360,160,18602,1,2,0:0:0:0:
200,216,18790,1,2,0:0:0:0:
0,220,18977,6,0,P|32:244|76:244,1,63.7500024318696,2|0,0:0|0:0,0:0:0:0:
200,216,19165,6,0,P|162:216|128:244,1,63.7500024318696,8|0,0:0|0:0,0:0:0:0:
104,368,19352,6,0,P|120:324|104:276,1,63.7500024318696,2|0,0:0|0:0,0:0:0:0:
84,168,19540,5,6,0:0:0:0:
12,360,19727,1,2,0:0:0:0:
12,360,19821,1,2,0:0:0:0:
12,360,19915,1,8,0:0:0:0:
84,168,20102,2,0,L|168:176,1,85,2|2,0:0|0:0,0:0:0:0:
296,64,20477,1,0,0:0:0:0:
132,24,20665,1,8,0:0:0:0:
168,176,20852,1,0,0:0:0:0:
8,120,21040,5,6,0:0:0:0:
272,236,21227,1,2,0:0:0:0:
264,268,21321,1,2,0:0:0:0:
256,300,21415,1,8,0:0:0:0:
248,332,21508,1,0,0:0:0:0:
240,364,21602,1,2,0:0:0:0:
120,264,21790,5,2,0:0:0:0:
144,352,21977,1,0,0:0:0:0:
376,220,22165,1,8,0:0:0:0:
360,304,22352,1,0,0:0:0:0:
160,188,22540,5,6,0:0:0:0:
56,332,22727,1,2,0:0:0:0:
32,320,22821,1,2,0:0:0:0:
12,308,22915,1,8,0:0:0:0:
56,292,23008,1,0,0:0:0:0:
104,276,23102,1,2,0:0:0:0:
4,168,23290,5,2,0:0:0:0:
88,128,23477,1,0,0:0:0:0:
168,352,23665,1,8,0:0:0:0:
260,368,23852,1,2,0:0:0:0:
104,276,24040,5,6,0:0:0:0:
280,132,24227,1,2,0:0:0:0:
276,156,24321,1,2,0:0:0:0:
272,180,24415,1,8,0:0:0:0:
168,24,24602,5,2,0:0:0:0:
404,20,24790,1,2,0:0:0:0:
376,104,24977,1,4,0:3:0:0:
168,24,25165,2,0,L|176:80,1,42.5,8|0,0:0|0:0,0:0:0:0:
188,156,25352,1,0,0:0:0:0:
12,96,25540,5,6,0:0:0:0:
100,132,25727,1,0,0:0:0:0:
0,296,25915,1,8,0:0:0:0:
96,332,26102,1,0,0:0:0:0:
164,240,26290,2,0,P|124:224|80:232,1,85,2|0,0:0|0:0,0:0:0:0:
236,324,26665,1,8,0:0:0:0:
164,240,26852,1,0,0:0:0:0:
352,120,27040,6,0,P|372:172|364:208,1,85,2|0,0:0|0:0,0:0:0:0:
168,76,27415,1,8,0:0:0:0:
83,230,27602,1,0,0:0:0:0:
292,176,27790,6,0,P|252:216|212:216,1,85,2|0,0:0|0:0,0:0:0:0:
56,104,28165,1,8,0:0:0:0:
224,144,28352,1,0,0:0:0:0:
40,332,28540,5,6,0:0:0:0:
124,368,28727,1,0,0:0:0:0:
59,188,28915,2,0,L|55:103,1,85,8|2,0:0|0:0,0:0:0:0:
200,312,29290,5,2,0:0:0:0:
116,284,29477,1,0,0:0:0:0:
273,133,29665,2,0,L|277:221,1,85,8|0,0:0|0:0,0:0:0:0:
200,96,30040,6,0,P|240:56|288:56,1,85,2|0,0:0|0:0,0:0:0:0:
384,124,30415,1,8,0:0:0:0:
364,24,30602,1,0,0:0:0:0:
176,172,30790,6,0,P|136:148|124:92,1,85,2|0,0:0|0:0,0:0:0:0:
266,51,31165,1,8,0:0:0:0:
200,96,31352,1,0,0:0:0:0:
68,28,31540,5,6,0:0:0:0:
20,152,31727,1,0,0:0:0:0:
200,96,31915,1,8,0:0:0:0:
100,200,32102,5,0,0:0:0:0:
246,230,32290,1,2,0:0:0:0:
200,96,32477,1,0,0:0:0:0:
230,310,32665,2,0,P|278:306|318:258,1,85,8|0,0:0|0:0,0:0:0:0:
168,260,33040,6,0,P|148:320|176:376,1,127.5,2|0,0:0|0:0,0:0:0:0:
188,384,33415,2,0,L|92:376,1,85,8|0,0:0|0:0,0:0:0:0:
0,240,33790,2,0,L|96:232,1,85,2|0,0:0|0:0,0:0:0:0:
200,96,34165,2,0,L|104:88,1,85,8|0,0:0|0:0,0:0:0:0:
236,172,34540,6,0,P|276:132|256:36,1,127.5,6|0,0:0|0:0,0:0:0:0:
212,16,34915,1,8,0:0:0:0:
200,96,35102,1,2,0:0:0:0:
280,252,35290,2,0,L|380:248,1,85,2|0,0:0|0:0,0:0:0:0:
472,144,35665,1,8,0:0:0:0:
480,243,35852,1,0,0:0:0:0:
276,64,36040,5,2,0:0:0:0:
372,52,36227,1,0,0:0:0:0:
364,248,36415,1,8,0:0:0:0:
372,52,36602,5,0,0:0:0:0:
472,144,36790,1,2,0:0:0:0:
364,248,36977,1,0,0:0:0:0:
504,32,37165,5,8,0:0:0:0:
496,60,37258,1,4,0:3:0:0:
488,88,37352,1,4,0:3:0:0:
480,116,37446,1,4,0:3:0:0:
472,144,37540,5,6,0:0:0:0:
356,152,37727,1,0,0:0:0:0:
248,48,37915,2,0,L|160:52,1,85,8|0,0:0|0:0,0:0:0:0:
44,172,38290,6,0,P|84:160|116:100,1,85,2|0,0:0|0:0,0:0:0:0:
80,16,38665,1,8,0:0:0:0:
40,92,38852,1,0,0:0:0:0:
248,48,39040,5,2,0:0:0:0:
408,104,39227,1,0,0:0:0:0:
248,48,39415,2,0,L|260:148,1,85,8|0,0:0|0:0,0:0:0:0:
184,248,39790,5,2,0:0:0:0:
24,304,39977,1,0,0:0:0:0:
184,248,40165,2,0,L|172:348,1,85,8|0,0:0|0:0,0:0:0:0:
376,368,40540,5,6,0:0:0:0:
360,272,40727,1,0,0:0:0:0:
512,184,40915,2,0,L|504:284,1,85,8|2,0:0|0:0,0:0:0:0:
392,120,41290,5,0,0:0:0:0:
268,300,41477,2,0,L|276:200,1,85,0|8,0:0|0:0,0:0:0:0:
152,116,41852,1,0,0:0:0:0:
28,248,42040,5,2,0:0:0:0:
152,116,42227,1,0,0:0:0:0:
28,248,42415,2,0,P|56:288|112:296,1,85,8|0,0:0|0:0,0:0:0:0:
24,92,42790,5,2,0:0:0:0:
100,220,42977,1,0,0:0:0:0:
24,92,43165,2,0,P|52:52|108:44,1,85,8|0,0:0|0:0,0:0:0:0:
180,104,43540,6,0,B|144:120|144:120|76:112,1,85,6|0,0:0|0:0,0:0:0:0:
256,32,43915,1,8,0:0:0:0:
180,104,44102,5,0,0:0:0:0:
207,228,44290,1,0,0:0:0:0:
88,320,44477,2,0,L|-12:308,1,85,0|8,0:0|0:0,0:0:0:0:
3,309,44852,1,0,0:0:0:0:
180,104,45040,6,0,L|208:232,1,127.5,2|0,0:0|0:0,0:0:0:0:
180,316,45415,1,8,0:0:0:0:
84,208,45602,1,0,0:0:0:0:
288,144,45790,2,0,P|340:144|376:184,1,85,2|0,0:0|0:0,0:0:0:0:
480,276,46165,2,0,P|428:276|392:316,1,85,8|0,0:0|0:0,0:0:0:0:
448,188,46540,6,0,B|460:152|444:120|444:120|460:100|460:100|448:72|460:32,1,127.5,6|0,0:0|0:0,0:0:0:0:
504,4,46915,1,8,0:0:0:0:
372,44,47102,1,0,0:0:0:0:
372,163,47290,2,0,P|348:200|296:212,1,85,2|0,0:0|0:0,0:0:0:0:
408,264,47665,2,0,P|456:288|472:324,1,85,8|0,0:0|0:0,0:0:0:0:
300,136,48040,6,0,L|308:52,1,85,2|0,0:0|0:0,0:0:0:0:
160,112,48415,2,0,L|168:196,1,85,8|0,0:0|0:0,0:0:0:0:
224,60,48790,2,0,P|196:36|148:32,1,85,2|0,0:0|0:0,0:0:0:0:
36,116,49165,1,8,0:0:0:0:
88,324,49352,2,0,P|116:316|144:284,1,42.5,2|2,0:0|0:0,0:0:0:0:
171,239,49540,6,0,L|158:92,1,127.500004863739,6|2,0:0|0:0,0:0:0:0:
256,64,50102,2,0,P|280:96|256:180,1,127.500004863739,2|0,0:0|0:0,0:0:0:0:
72,184,50665,1,2,0:0:0:0:
0,76,50852,1,0,0:0:0:0:
0,76,50946,2,0,B|48:56|48:56|116:68,1,95.6250036478044,2|0,0:0|0:0,0:0:0:0:
188,124,51415,1,2,0:0:0:0:
280,60,51602,1,0,0:0:0:0:
280,60,51696,1,2,0:0:0:0:
280,60,51790,6,0,B|328:40|328:40|396:52,1,95.6250036478044,2|0,0:0|0:0,0:0:0:0:
448,96,52165,1,2,0:0:0:0:
392,180,52352,1,0,0:0:0:0:
340,240,52540,6,0,P|312:184|344:116,2,127.500004863739,2|2|2,0:0|0:0|0:0,0:0:0:0:
340,240,53665,2,0,L|424:236,1,63.7500024318696,2|0,0:0|0:0,0:0:0:0:
228,180,54040,6,0,B|180:164|148:192|148:192|116:176|116:176|88:204|36:192,1,191.250007295609,2|2,0:0|0:0,0:0:0:0:
0,132,54696,1,0,0:0:0:0:
0,132,54790,1,2,0:0:0:0:
76,88,54977,1,0,0:0:0:0:
120,268,55165,1,2,0:0:0:0:
198,252,55352,1,0,0:0:0:0:
72,328,55540,6,0,P|44:288|72:208,1,127.500004863739,2|2,0:0|0:0,0:0:0:0:
168,208,56102,2,0,P|196:248|168:328,1,127.500004863739,2|0,0:0|0:0,0:0:0:0:
120,268,56665,1,2,0:0:0:0:
116,144,56852,1,0,0:0:0:0:
248,172,57040,6,0,B|304:136|324:204|380:164,1,127.500004863739,2|2,0:0|0:0,0:0:0:0:
416,92,57602,1,0,0:0:0:0:
416,92,57696,1,2,0:0:0:0:
416,92,57790,2,0,L|336:88,1,63.7500024318696,2|0,0:0|0:0,0:0:0:0:
292,28,58165,2,0,L|228:31,1,63.7500024318696,2|0,0:0|0:0,0:0:0:0:
145,106,58540,6,0,P|201:90|225:10,1,127.500004863739,2|2,0:0|0:0,0:0:0:0:
240,240,59102,2,0,P|256:200|200:112,1,127.500004863739,2|0,0:0|0:0,0:0:0:0:
336,172,59665,2,0,P|372:176|408:164,1,63.7500024318696,2|0,0:0|0:0,0:0:0:0:
452,104,60040,5,2,0:0:0:0:
452,104,60415,6,0,B|380:204|516:232|440:340,1,233.75,2|0,0:0|0:0,0:0:0:0:
380,376,61540,5,4,2:3:0:0:
340,368,61633,1,4,0:3:0:0:
304,344,61727,1,4,0:3:0:0:
292,304,61821,1,0,0:3:0:0:
300,264,61915,2,0,P|316:236|344:216,1,42.5,4|0,0:3|0:0,0:0:0:0:
192,164,62102,5,8,0:0:0:0:
184,216,62196,1,0,0:0:0:0:
152,256,62290,1,4,0:3:0:0:
104,268,62383,1,4,0:3:0:0:
52,264,62477,2,0,P|24:240|16:208,1,63.7500024318696,4|0,0:3|0:0,0:0:0:0:
56,128,62665,6,0,L|164:132,1,95.6250036478044,8|0,0:0|0:0,0:0:0:0:
216,48,63031,5,6,0:0:0:0:
272,120,63218,1,0,0:0:0:0:
368,16,63406,1,8,0:0:0:0:
484,120,63593,2,0,L|472:204,1,85,2|0,0:0|0:0,0:0:0:0:
392,252,63968,1,0,0:0:0:0:
426,68,64156,2,0,P|466:44|526:56,1,85,8|0,0:0|0:0,0:0:0:0:
312,132,64531,6,0,L|216:128,1,85,6|0,0:0|0:0,0:0:0:0:
44,208,64906,2,0,L|128:211,1,85,8|0,0:0|0:0,0:0:0:0:
140,36,65281,2,0,L|136:128,1,85,2|0,0:0|0:0,0:0:0:0:
216,304,65656,2,0,L|219:219,1,85,8|0,0:0|0:0,0:0:0:0:
216,384,66031,6,0,P|264:368|288:320,1,85,6|0,0:0|0:0,0:0:0:0:
136,240,66406,1,8,0:0:0:0:
124,340,66593,1,0,0:0:0:0:
301,258,66781,6,0,P|275:224|235:214,1,85,2|0,0:0|0:0,0:0:0:0:
216,384,67156,1,8,0:0:0:0:
283,341,67343,1,0,0:0:0:0:
136,240,67531,5,6,0:0:0:0:
124,340,67718,1,0,0:0:0:0:
28,152,67906,1,8,0:0:0:0:
124,340,68093,1,0,0:0:0:0:
235,213,68281,1,2,0:0:0:0:
28,152,68468,5,4,0:3:0:0:
32,172,68562,1,0,0:0:0:0:
36,188,68656,1,4,0:3:0:0:
0,272,68843,1,0,0:0:0:0:
96,88,69031,5,6,0:0:0:0:
184,128,69218,1,0,0:0:0:0:
260,8,69406,1,8,0:0:0:0:
176,36,69593,1,0,0:0:0:0:
296,84,69781,2,0,P|336:48|340:0,1,85,2|0,0:0|0:0,0:0:0:0:
176,36,70156,1,8,0:0:0:0:
184,128,70343,1,0,0:0:0:0:
303,211,70531,6,0,L|295:79,1,127.5,6|0,0:0|0:0,0:0:0:0:
342,19,70906,2,0,P|378:43|434:39,1,85,8|0,0:0|0:0,0:0:0:0:
508,200,71281,1,2,0:0:0:0:
303,211,71468,1,0,0:0:0:0:
512,368,71656,1,8,0:0:0:0:
312,380,71843,1,0,0:0:0:0:
303,211,72031,6,0,P|343:175|343:115,1,85,6|0,0:0|0:0,0:0:0:0:
224,224,72406,2,0,P|237:263|270:288,1,85,8|0,0:0|0:0,0:0:0:0:
192,148,72781,2,0,P|152:184|152:244,1,85,2|0,0:0|0:0,0:0:0:0:
271,135,73156,2,0,P|257:95|224:70,1,85,8|0,0:0|0:0,0:0:0:0:
356,84,73531,6,0,L|364:-12,1,85,6|0,0:0|0:0,0:0:0:0:
468,104,73906,2,0,P|434:129|421:168,1,85,8|0,0:0|0:0,0:0:0:0:
488,272,74281,5,6,0:3:0:0:
500,180,74468,1,0,0:0:0:0:
480,364,74656,1,6,0:3:0:0:
396,248,74843,1,0,0:0:0:0:
140,240,75031,6,0,B|192:264|192:264|304:256,1,170,6|8,0:0|0:0,0:0:0:0:
344,164,75593,1,0,0:0:0:0:
248,344,75781,2,0,L|152:352,1,85,2|0,0:0|0:0,0:0:0:0:
55,247,76156,2,0,L|139:239,1,85,8|0,0:0|0:0,0:0:0:0:
248,344,76531,6,0,P|276:280|368:272,1,170,6|8,0:0|0:0,0:0:0:0:
476,192,77093,1,0,0:0:0:0:
352,64,77281,2,0,L|360:156,1,85,2|0,0:0|0:0,0:0:0:0:
328,340,77656,1,8,0:0:0:0:
444,328,77843,1,0,0:0:0:0:
284,220,78031,6,0,P|256:184|204:176,1,85,6|0,0:0|0:0,0:0:0:0:
72,280,78406,1,8,0:0:0:0:
216,364,78593,1,0,0:0:0:0:
352,56,78781,5,2,0:0:0:0:
284,220,78968,1,0,0:0:0:0:
472,188,79156,1,8,0:0:0:0:
368,144,79343,1,0,0:0:0:0:
340,304,79531,5,6,0:0:0:0:
368,144,79718,1,0,0:0:0:0:
409,345,79906,2,0,L|493:333,1,85,8|0,0:0|0:0,0:0:0:0:
340,304,80281,2,0,P|328:360|348:400,1,85,2|0,0:0|0:0,0:0:0:0:
408,260,80656,6,0,P|368:228|316:232,1,63.7500024318696,8|0,0:0|0:0,0:0:0:0:
476,200,80843,6,0,P|496:153|479:103,1,63.7500024318696,4|0,0:3|0:0,0:0:0:0:
404,60,81031,6,0,L|416:152,1,85,6|0,0:0|0:0,0:0:0:0:
260,104,81406,2,0,L|270:19,1,85,8|0,0:0|0:0,0:0:0:0:
312,164,81781,2,0,P|264:184|208:160,1,85,2|0,0:0|0:0,0:0:0:0:
324,332,82156,2,0,L|340:236,1,85,8|0,0:0|0:0,0:0:0:0:
512,384,82531,6,0,P|464:344|384:368,1,127.5,6|0,0:0|0:0,0:0:0:0:
484,264,82906,2,0,P|504:220|488:164,1,85,8|0,0:0|0:0,0:0:0:0:
364,112,83281,1,2,0:0:0:0:
421,210,83468,1,0,0:0:0:0:
423,26,83656,1,8,0:0:0:0:
260,92,83843,1,0,0:0:0:0:
482,116,84031,5,6,0:0:0:0:
307,199,84218,1,0,0:0:0:0:
316,5,84406,2,0,L|192:12,1,85,8|0,0:0|0:0,0:0:0:0:
92,184,84781,2,0,L|176:179,1,85,2|0,0:0|0:0,0:0:0:0:
32,132,85156,2,0,P|12:196|32:236,1,85,8|0,0:0|0:0,0:0:0:0:
108,332,85531,5,6,0:0:0:0:
92,184,85718,1,0,0:0:0:0:
268,312,85906,1,8,0:0:0:0:
252,164,86093,1,0,0:0:0:0:
344,248,86281,2,0,L|456:252,2,85,2|0|8,0:0|0:0|0:0,0:0:0:0:
116,168,86843,1,2,0:0:0:0:
116,168,86937,1,2,0:0:0:0:
116,168,87031,6,0,P|96:208|104:260,1,95.6250036478044,6|0,0:0|0:0,0:0:0:0:
264,196,87406,6,0,P|240:155|197:135,1,95.6250036478044,2|0,0:0|0:0,0:0:0:0:
172,316,87781,6,0,P|218:312|255:282,1,95.6250036478044,2|0,0:0|0:0,0:0:0:0:
192,236,88156,5,2,0:0:0:0:
352,364,88343,2,0,L|516:352,1,159.375006079674,2|0,0:0|0:0,0:0:0:0:
388,276,88906,6,0,L|280:284,1,95.6250036478044,2|0,0:0|0:0,0:0:0:0:
232,220,89281,6,0,L|272:132,1,95.6250036478044,2|0,0:0|0:0,0:0:0:0:
356,112,89656,5,2,0:0:0:0:
356,112,89843,6,0,B|440:252|440:252|240:268|240:268|288:172,1,469.624978502275,2|0,0:0|0:0,0:0:0:0:
