osu file format v14

[General]
AudioFilename: audio.mp3
AudioLeadIn: 0
PreviewTime: 61540
Countdown: 0
SampleSet: Soft
StackLeniency: 0.3
Mode: 0
LetterboxInBreaks: 0
WidescreenStoryboard: 1

[Editor]
Bookmarks: 7540,13540,19540,25540,31540,37540,43540,49540,55540,63031,69031,75031,81031,87031
DistanceSpacing: 0.3
BeatDivisor: 4
GridSize: 32
TimelineZoom: 2.1

[Metadata]
Title:Ju Tou San Chi Tian Qi Qing
TitleUnicode:舉頭三尺天氣晴
Artist:Paroto
ArtistUnicode:パロト
Creator:DigiDrake
Version:Insane
Source:家有大貓
Tags:jiā yǒu dà māo jia you da mao mau Nviek5 クエン酸p 晴空和音 Chinese Video Game Nekojishi Triodust KuensanP Parrot A Sunny Day is Watching over You (Vocal) 空氣載體 Gay Yaoi Bara Furry Bearizm Glaceon KittyAdventure Flask
BeatmapID:1952297
BeatmapSetID:929378

[Difficulty]
HPDrainRate:5
CircleSize:4.1
OverallDifficulty:7.8
ApproachRate:9
SliderMultiplier:1.9
SliderTickRate:1

[Events]
//Background and Video events
Video,0,"bara.avi"
0,0,"kitties.jpg",0,0
//Break Periods
//Storyboard Layer 0 (Background)
//Storyboard Layer 1 (Fail)
//Storyboard Layer 2 (Pass)
//Storyboard Layer 3 (Foreground)
//Storyboard Layer 4 (Overlay)
//Storyboard Sound Samples

[TimingPoints]
1540,375,4,2,1,25,1,0
1540,-166.666666666667,4,2,1,25,0,0
1727,-166.666666666667,4,2,1,5,0,0
2665,-166.666666666667,4,2,1,25,0,0
3040,-166.666666666667,4,2,1,25,0,0
3133,-166.666666666667,4,2,1,5,0,0
3790,-166.666666666667,4,2,1,25,0,0
3883,-166.666666666667,4,2,1,25,0,0
4540,-166.666666666667,4,2,1,25,0,0
4633,-166.666666666667,4,2,1,5,0,0
5852,-166.666666666667,4,2,1,25,0,0
6040,-166.666666666667,4,2,1,25,0,0
6133,-166.666666666667,4,2,1,5,0,0
6790,-166.666666666667,4,2,1,25,0,0
6883,-166.666666666667,4,2,1,5,0,0
7540,-100,4,2,3,25,0,0
9040,-83.3333333333333,4,2,3,25,0,0
12040,-100,4,2,3,30,0,0
12790,-100,4,2,3,30,0,0
12977,-100,4,2,3,35,0,0
13540,-71.4285714285714,4,2,2,60,0,0
13821,-71.4285714285714,4,2,1,60,0,0
13915,-71.4285714285714,4,2,1,60,0,0
14102,-76.9230769230769,4,2,1,60,0,0
14665,-66.6666666666667,4,2,1,60,0,0
15602,-76.9230769230769,4,2,1,60,0,0
15883,-76.9230769230769,4,2,1,60,0,0
15977,-76.9230769230769,4,2,1,60,0,0
16540,-66.6666666666667,4,2,1,60,0,0
16821,-66.6666666666667,4,2,1,60,0,0
16915,-66.6666666666667,4,2,1,60,0,0
17102,-76.9230769230769,4,2,1,60,0,0
18040,-66.6666666666667,4,2,1,60,0,0
18602,-76.9230769230769,4,2,1,60,0,0
18883,-76.9230769230769,4,2,1,60,0,0
18977,-76.9230769230769,4,2,2,60,0,0
19540,-66.6666666666667,4,2,2,60,0,0
19821,-66.6666666666667,4,2,1,60,0,0
19915,-76.9230769230769,4,2,1,60,0,0
20946,-76.9230769230769,4,2,1,60,0,0
21040,-66.6666666666667,4,2,1,60,0,0
21790,-66.6666666666667,4,2,1,60,0,0
22821,-66.6666666666667,4,2,1,60,0,0
22915,-66.6666666666667,4,2,1,60,0,0
23102,-76.9230769230769,4,2,1,60,0,0
24040,-66.6666666666667,4,2,1,60,0,0
24977,-66.6666666666667,4,2,2,60,0,0
25540,-76.9230769230769,4,2,1,60,0,0
26102,-90.9090909090909,4,2,1,60,0,0
27321,-90.9090909090909,4,2,1,5,0,0
27415,-90.9090909090909,4,2,1,60,0,0
27696,-90.9090909090909,4,2,1,5,0,0
27790,-90.9090909090909,4,2,1,60,0,0
28446,-90.9090909090909,4,2,1,5,0,0
28540,-90.9090909090909,4,2,1,60,0,0
28821,-76.9230769230769,4,2,1,5,0,0
28915,-76.9230769230769,4,2,1,60,0,0
29102,-90.9090909090909,4,2,1,60,0,0
30321,-90.9090909090909,4,2,1,5,0,0
30415,-90.9090909090909,4,2,1,60,0,0
30696,-90.9090909090909,4,2,1,5,0,0
30790,-90.9090909090909,4,2,1,60,0,0
31540,-76.9230769230769,4,2,1,60,0,0
31821,-76.9230769230769,4,2,1,5,0,0
31915,-76.9230769230769,4,2,1,60,0,0
32665,-90.9090909090909,4,2,1,60,0,0
33696,-90.9090909090909,4,2,1,5,0,0
33790,-90.9090909090909,4,2,1,60,0,0
34540,-76.9230769230769,4,2,1,60,0,0
34821,-76.9230769230769,4,2,1,5,0,0
34915,-76.9230769230769,4,2,1,60,0,0
35102,-90.9090909090909,4,2,1,60,0,0
36040,-76.9230769230769,4,2,1,60,0,0
36321,-76.9230769230769,4,2,1,5,0,0
36415,-76.9230769230769,4,2,1,60,0,0
36790,-76.9230769230769,4,2,2,60,0,0
37540,-76.9230769230769,4,2,1,60,0,0
37821,-76.9230769230769,4,2,1,5,0,0
37915,-83.3333333333333,4,2,1,60,0,0
39321,-83.3333333333333,4,2,1,5,0,0
39415,-83.3333333333333,4,2,1,60,0,0
39696,-83.3333333333333,4,2,1,5,0,0
39790,-83.3333333333333,4,2,1,60,0,0
40446,-83.3333333333333,4,2,1,5,0,0
40540,-76.9230769230769,4,2,1,60,0,0
40821,-76.9230769230769,4,2,1,5,0,0
40915,-83.3333333333333,4,2,1,60,0,0
42321,-83.3333333333333,4,2,1,5,0,0
42415,-83.3333333333333,4,2,1,60,0,0
42696,-83.3333333333333,4,2,1,5,0,0
42790,-83.3333333333333,4,2,1,60,0,0
43540,-76.9230769230769,4,2,1,60,0,0
43821,-76.9230769230769,4,2,1,5,0,0
43915,-83.3333333333333,4,2,1,60,0,0
45133,-83.3333333333333,4,2,1,5,0,0
45227,-83.3333333333333,4,2,1,60,0,0
45696,-83.3333333333333,4,2,1,5,0,0
45790,-83.3333333333333,4,2,1,60,0,0
46446,-83.3333333333333,4,2,1,5,0,0
46540,-76.9230769230769,4,2,1,60,0,0
46821,-76.9230769230769,4,2,1,5,0,0
46915,-83.3333333333333,4,2,1,60,0,0
47571,-83.3333333333333,4,2,1,5,0,0
47665,-83.3333333333333,4,2,1,60,0,0
48321,-83.3333333333333,4,2,1,5,0,0
48415,-83.3333333333333,4,2,1,60,0,0
48696,-83.3333333333333,4,2,1,5,0,0
48790,-83.3333333333333,4,2,1,60,0,0
49540,-111.111111111111,4,2,1,50,0,0
52821,-111.111111111111,4,2,1,50,0,0
52915,-111.111111111111,4,2,1,50,0,0
60321,-111.111111111111,4,2,1,5,0,0
60415,-111.111111111111,4,2,1,50,0,0
60696,-125,4,2,1,50,0,0
61540,-83.3333333333333,4,2,2,50,0,0
62665,-166.666666666667,4,2,1,60,0,0
62946,-166.666666666667,4,2,1,5,0,0
63031,375,4,2,2,70,1,1
63031,-62.5,4,2,2,70,0,1
63312,-62.5,4,2,1,70,0,1
63406,-62.5,4,2,1,70,0,1
63593,-76.9230769230769,4,2,1,70,0,1
63968,-76.9230769230769,4,2,1,70,0,1
64531,-66.6666666666667,4,2,1,70,0,1
64906,-76.9230769230769,4,2,1,70,0,1
66031,-66.6666666666667,4,2,1,70,0,1
66406,-76.9230769230769,4,2,1,70,0,1
67531,-66.6666666666667,4,2,1,70,0,1
67906,-76.9230769230769,4,2,1,70,0,1
68468,-76.9230769230769,4,2,2,70,0,1
68843,-76.9230769230769,4,2,1,70,0,1
69031,-66.6666666666667,4,2,2,70,0,1
69312,-66.6666666666667,4,2,1,70,0,1
69406,-76.9230769230769,4,2,1,70,0,1
70531,-71.4285714285714,4,2,1,70,0,1
70906,-76.9230769230769,4,2,1,70,0,1
72031,-66.6666666666667,4,2,1,70,0,1
72406,-76.9230769230769,4,2,1,70,0,1
73156,-76.9230769230769,4,2,1,70,0,1
73531,-66.6666666666667,4,2,1,70,0,1
73906,-66.6666666666667,4,2,1,70,0,1
74468,-66.6666666666667,4,2,2,70,0,1
75031,-66.6666666666667,4,2,2,70,0,1
75312,-66.6666666666667,4,2,1,70,0,1
75406,-76.9230769230769,4,2,1,70,0,1
76531,-66.6666666666667,4,2,1,70,0,1
76906,-76.9230769230769,4,2,1,70,0,1
78031,-66.6666666666667,4,2,1,70,0,1
78406,-76.9230769230769,4,2,1,70,0,1
79531,-66.6666666666667,4,2,1,70,0,1
79906,-66.6666666666667,4,2,1,70,0,1
80468,-66.6666666666667,4,2,2,70,0,1
81031,-66.6666666666667,4,2,2,70,0,1
81312,-66.6666666666667,4,2,1,70,0,1
81406,-76.9230769230769,4,2,1,70,0,1
82531,-66.6666666666667,4,2,1,70,0,1
82906,-76.9230769230769,4,2,1,70,0,1
84031,-66.6666666666667,4,2,1,70,0,1
84406,-76.9230769230769,4,2,1,70,0,1
85531,-66.6666666666667,4,2,1,70,0,1
85906,-66.6666666666667,4,2,1,70,0,1
86468,-66.6666666666667,4,2,2,70,0,1
87031,-166.666666666667,4,2,1,35,0,0
87124,-166.666666666667,4,2,1,35,0,0
87781,-166.666666666667,4,2,1,35,0,0
88156,-142.857142857143,4,2,1,35,0,0
88718,-142.857142857143,4,2,1,5,0,0
88812,-166.666666666667,4,2,1,5,0,0
88906,-166.666666666667,4,2,1,35,0,0
89187,-166.666666666667,4,2,1,5,0,0
89281,-181.818181818182,4,2,1,35,0,0
89562,-181.818181818182,4,2,1,5,0,0
89656,-133.333333333333,4,2,1,35,0,0
89843,-175.438596491228,4,2,1,35,0,0
89937,-200,4,2,1,5,0,0

[Colours]
Combo1 : 207,172,151
Combo2 : 228,163,105
Combo3 : 225,204,134

[HitObjects]
115,83,1540,6,0,B|183:102|222:62|186:36|243:15|317:8|338:87|338:87|298:74|261:103,1,341.999989562989,6|2,0:0|0:0,0:0:0:0:
315,160,3040,6,0,B|313:219|363:240|363:240|304:226|261:281,1,199.499993911743,2|0,0:0|0:0,0:0:0:0:
257,282,3790,2,0,B|218:313|176:296|169:221|223:244|206:266,1,113.999996520996,2|2,0:0|0:0,0:0:0:0:
130,317,4540,6,0,B|100:281|112:218|147:193|147:193|123:166|61:197|98:213|47:263|-26:244|-21:183|-21:183|1:199|27:194,1,398.999987823487,2|2,0:0|0:0,0:0:0:0:
110,53,6040,6,0,B|156:91|146:151|146:151|182:110|235:121,1,199.499993911743,2|0,0:0|0:0,0:0:0:0:
251,130,6790,6,0,B|281:185|248:238|220:252|220:252|189:217|217:188,1,199.499993911743,2|0,0:0|0:0,0:0:0:0:
272,257,7540,6,0,B|377:274|304:338|426:354,3,190,10|10|10|10,3:1|3:1|3:1|3:1,0:0:0:0:
253,350,8852,1,2,0:0:0:0:
443,247,9040,6,0,B|316:258|398:340|252:349,3,227.999993041992,10|10|10|10,3:1|3:1|3:1|3:1,0:0:0:0:
449,360,10352,1,2,0:1:0:0:
262,232,10540,5,10,3:1:0:0:
344,194,10727,1,8,0:1:0:0:
212,148,10915,1,8,3:1:0:0:
336,106,11102,5,8,0:1:0:0:
184,139,11290,1,8,3:1:0:0:
328,22,11477,1,8,0:1:0:0:
169,26,11665,5,8,3:1:0:0:
355,115,11852,1,8,0:1:0:0:
109,190,12040,5,10,3:1:0:0:
81,239,12133,1,8,0:1:0:0:
82,295,12227,1,8,0:1:0:0:
111,343,12321,1,8,0:1:0:0:
166,359,12415,5,8,3:1:0:0:
168,349,12508,1,8,0:1:0:0:
158,346,12602,1,8,0:1:0:0:
155,355,12696,1,8,0:1:0:0:
201,367,12790,6,0,P|237:355|285:366,1,47.5,8|8,3:1|0:1,0:0:0:0:
272,270,12977,2,0,P|306:285|335:325,1,47.5,8|8,3:1|0:1,0:0:0:0:
434,365,13165,6,0,P|468:349|497:309,1,47.5,8|8,3:1|0:1,0:0:0:0:
442,121,13352,1,8,3:1:0:0:
423,153,13446,1,8,0:1:0:0:
433,190,13540,6,0,B|381:191|350:233|385:256|324:301|268:267,1,199.499993911743,12|0,3:1|0:0,0:0:0:0:
251,247,13915,1,8,3:2:0:0:
163,347,14102,2,0,P|116:303|43:311,1,123.499994346619,8|0,0:3|0:0,0:0:0:0:
166,364,14477,1,8,0:3:0:0:
119,219,14665,2,0,B|90:171|115:130|132:121|132:121|131:149|149:173,1,142.500005435944,8|0,3:2|0:0,0:0:0:0:
214,178,14946,1,0,0:0:0:0:
221,179,15040,6,0,P|280:130|256:58,1,142.500005435944,12|0,0:3|0:0,0:0:0:0:
204,34,15321,1,0,0:0:0:0:
204,34,15415,1,8,3:2:0:0:
356,116,15602,2,0,B|439:116|453:43|453:43|428:65|388:56,1,185.249991519928,8|0,0:3|0:0,0:0:0:0:
387,47,15977,1,8,0:3:0:0:
286,199,16165,2,0,P|292:238|305:258,1,61.7499971733095,8|0,3:2|0:0,0:0:0:0:
333,350,16352,2,0,P|361:368|389:373,1,61.7499971733095
512,212,16540,6,0,B|477:198|465:154|465:154|471:236|413:285,1,213.750008153916,4|0,3:1|0:0,0:0:0:0:
407,292,16915,1,8,3:2:0:0:
304,257,17102,1,8,0:3:0:0:
333,350,17290,1,0,0:0:0:0:
379,200,17477,1,8,0:3:0:0:
240,194,17665,2,0,B|205:188|188:164|188:164|184:201|143:225,1,123.499994346619,8|0,3:2|0:0,0:0:0:0:
112,152,17946,1,0,0:0:0:0:
112,152,18040,6,0,P|120:55|78:6,1,142.500005435944,4|0,3:1|0:0,0:0:0:0:
27,48,18321,1,0,0:0:0:0:
20,51,18415,1,8,3:2:0:0:
207,77,18602,2,0,B|253:84|279:48|279:48|271:117|337:146,1,185.249991519928,8|0,0:3|0:0,0:0:0:0:
399,134,18977,2,0,P|425:106|423:56,1,61.7499971733095,12|12,3:0|3:0,0:0:0:0:
361,204,19165,2,0,P|372:240|416:263,2,61.7499971733095,12|12|12,3:0|3:0|3:0,0:0:0:0:
182,274,19540,6,0,B|43:243|43:243|77:277|60:332,1,213.750008153916,4|0,3:1|0:0,0:0:0:0:
61,325,19915,1,8,3:2:0:0:
32,142,20102,2,0,L|157:131,1,123.499994346619,8|0,0:3|0:0,0:0:0:0:
252,186,20477,1,8,0:3:0:0:
313,33,20665,2,0,B|252:35|225:93|225:93|198:51|152:54,1,185.249991519928,8|0,3:2|0:0,0:0:0:0:
155,131,21040,6,0,P|167:213|135:260,1,142.500005435944,12|0,0:3|0:0,0:0:0:0:
64,296,21321,1,0,0:0:0:0:
61,287,21415,2,0,B|89:256|150:304|116:320|140:353|184:357,1,142.500005435944,8|8,3:2|0:3,0:0:0:0:
238,376,21696,1,0,0:0:0:0:
240,367,21790,1,0,0:0:0:0:
303,243,21977,1,8,0:3:0:0:
310,343,22165,6,0,P|323:308|307:261,1,71.2500027179719,8|0,3:2|0:2,0:0:0:0:
374,222,22352,2,0,P|356:189|311:170,1,71.2500027179719,0|0,0:2|0:2,0:0:0:0:
199,155,22540,6,0,P|288:160|337:55,1,213.750008153916,4|0,3:1|0:0,0:0:0:0:
326,42,22915,1,8,3:2:0:0:
461,128,23102,2,0,P|468:67|442:13,1,123.499994346619,8|0,0:3|0:0,0:0:0:0:
456,142,23477,1,8,0:3:0:0:
326,42,23665,2,0,B|292:36|269:60|269:60|252:27|214:24,1,123.499994346619,8|8,3:2|0:3,0:0:0:0:
199,102,23946,1,0,0:0:0:0:
196,111,24040,6,0,B|154:172|108:128|108:128|125:130|151:114,1,142.500005435944,4|0,3:1|0:0,0:0:0:0:
113,49,24321,1,0,0:2:0:0:
113,49,24415,2,0,P|43:54|18:122,1,142.500005435944,8|8,3:2|0:3,0:0:0:0:
106,236,24790,1,0,0:2:0:0:
108,128,24977,1,0,1:0:0:0:
45,295,25165,1,12,3:0:0:0:
88,316,25258,1,12,3:0:0:0:
137,310,25352,1,12,3:0:0:0:
174,278,25446,1,12,3:0:0:0:
187,231,25540,6,0,B|243:185|322:246|284:255|326:320|402:287,1,246.999988693238,4|8,3:2|0:0,0:0:0:0:
462,160,26102,1,2,1:0:0:0:
356,115,26290,2,0,L|370:233,1,104.500003189087,2|2,0:0|0:0,0:0:0:0:
437,355,26665,1,8,0:0:0:0:
401,287,26852,1,2,0:0:0:0:
253,351,27040,6,0,P|206:354|153:312,1,104.500003189087,2|0,0:0|0:0,0:0:0:0:
224,176,27415,2,0,B|263:154|263:154|228:272,1,156.750004783631,8|0,0:0|0:0,0:0:0:0:
226,280,27790,1,0,0:0:0:0:
100,172,27977,1,0,1:0:0:0:
61,327,28165,2,0,B|72:277|44:226|44:226|67:248|99:249,1,156.750004783631,8|0,0:0|0:0,0:0:0:0:
100,172,28540,6,0,B|180:165|187:76|187:76|150:69|127:112,1,209.000006378174,4|8,0:1|0:0,0:0:0:0:
89,248,29102,1,2,1:0:0:0:
270,212,29290,1,2,0:0:0:0:
175,168,29477,1,2,0:0:0:0:
267,324,29665,2,0,P|324:325|386:351,1,104.500003189087,8|2,0:0|0:0,0:0:0:0:
451,186,30040,5,2,0:0:0:0:
382,247,30227,1,0,0:0:0:0:
304,88,30415,2,0,B|404:111|404:111|431:94|431:65,1,156.750004783631,8|0,0:0|0:0,0:0:0:0:
423,47,30790,1,0,0:0:0:0:
314,75,30977,1,0,1:0:0:0:
314,208,31165,5,8,0:0:0:0:
196,117,31352,1,0,1:0:0:0:
124,259,31540,6,0,B|47:220|-8:293|2:340|2:340|26:310|72:312,1,246.999988693238,4|8,0:1|0:0,0:0:0:0:
167,356,32102,1,2,1:0:0:0:
206,244,32290,1,2,0:0:0:0:
315,288,32477,1,2,0:0:0:0:
326,122,32665,2,0,L|209:135,1,104.500003189087,8|2,0:0|0:0,0:0:0:0:
412,58,33040,5,0,0:0:0:0:
316,24,33227,1,0,1:0:0:0:
413,161,33415,2,0,B|428:212|403:256|403:256|445:269|470:224,1,156.750004783631,10|0,0:0|0:0,0:0:0:0:
471,228,33790,1,2,0:0:0:0:
336,198,33977,1,2,1:0:0:0:
241,349,34165,5,10,0:0:0:0:
374,288,34352,1,0,1:0:0:0:
171,273,34540,6,0,B|72:258|109:350|7:305|7:305|13:262|59:260,1,246.999988693238,6|8,0:1|0:0,0:0:0:0:
152,346,35102,1,2,1:0:0:0:
109,194,35290,2,0,P|103:136|120:83,1,104.500003189087,2|0,0:0|0:0,0:0:0:0:
49,260,35665,1,8,0:0:0:0:
200,188,35852,1,2,0:0:0:0:
320,313,36040,6,0,B|442:289|442:289|405:275|396:240,1,185.249991519928,2|0,1:1|0:0,0:0:0:0:
394,227,36415,1,10,0:0:0:0:
461,140,36602,1,0,1:0:0:0:
292,21,36790,5,10,3:0:0:0:
339,124,36977,1,8,3:0:0:0:
257,203,37165,6,0,P|233:189|177:198,1,61.7499971733095,10|8,3:0|3:0,0:0:0:0:
68,302,37352,1,8,3:0:0:0:
68,302,37446,1,8,3:0:0:0:
68,302,37540,6,0,B|103:295|118:265|118:265|119:342|171:372,1,185.249991519928,4|0,3:2|0:0,0:0:0:0:
191,375,37915,1,8,0:0:0:0:
312,276,38102,1,2,1:0:0:0:
213,283,38290,1,2,0:0:0:0:
362,352,38477,1,2,0:0:0:0:
421,190,38665,2,0,P|363:200|298:198,1,113.999996520996,8|2,0:0|1:0,0:0:0:0:
147,50,39040,5,2,0:0:0:0:
211,116,39227,1,0,0:0:0:0:
361,43,39415,2,0,B|320:-5|249:14|249:14|255:49|293:55,1,170.999994781494,8|0,0:0|0:0,0:0:0:0:
288,63,39790,1,0,0:0:0:0:
362,133,39977,1,0,1:0:0:0:
211,116,40165,2,0,P|143:137|133:241,1,170.999994781494,8|0,0:0|0:0,0:0:0:0:
140,245,40540,6,0,B|230:263|252:182|252:182|234:194|194:192,1,185.249991519928,4|0,0:1|0:0,0:0:0:0:
197,190,40915,1,8,0:0:0:0:
265,344,41102,1,2,1:0:0:0:
176,324,41290,1,2,0:0:0:0:
316,268,41477,1,2,0:0:0:0:
293,131,41665,2,0,P|290:199|306:252,1,113.999996520996,8|2,0:0|0:0,0:0:0:0:
472,334,42040,5,2,0:0:0:0:
405,268,42227,1,0,0:0:0:0:
265,344,42415,2,0,B|146:326|146:326|182:317|196:286,1,170.999994781494,10|0,0:0|0:0,0:0:0:0:
197,279,42790,1,0,0:0:0:0:
117,153,42977,1,0,1:0:0:0:
45,323,43165,5,8,0:0:0:0:
126,249,43352,1,0,0:0:0:0:
5,115,43540,6,0,B|-2:47|69:26|99:43|99:43|99:76|59:111,1,185.249991519928,4|0,0:1|0:0,0:0:0:0:
73,92,43915,1,8,0:0:0:0:
193,155,44102,1,2,1:0:0:0:
269,31,44290,1,2,0:0:0:0:
177,68,44477,1,2,0:0:0:0:
284,195,44665,2,0,L|402:184,1,113.999996520996,8|2,0:0|0:0,0:0:0:0:
261,12,45040,5,0,0:0:0:0:
173,49,45227,1,0,1:0:0:0:
388,63,45415,2,0,B|309:48|280:112|280:112|344:107,1,170.999994781494,10|0,0:0|0:0,0:0:0:0:
337,114,45790,1,2,0:0:0:0:
403,195,45977,1,2,1:0:0:0:
291,291,46165,2,0,P|203:276|178:204,1,170.999994781494,10|0,0:0|0:0,0:0:0:0:
182,186,46540,6,0,B|152:249|72:213|71:172|71:172|92:182|120:175,1,185.249991519928,6|0,0:1|0:0,0:0:0:0:
114,163,46915,1,8,0:0:0:0:
210,57,47102,1,2,1:0:0:0:
273,113,47290,2,0,P|333:112|383:85,1,113.999996520996,2|0,0:0|0:0,0:0:0:0:
264,250,47665,1,8,0:0:0:0:
345,200,47852,1,2,1:0:0:0:
429,289,48040,6,0,P|369:281|312:363,1,170.999994781494,2|0,0:1|0:0,0:0:0:0:
296,380,48415,2,0,P|237:379|198:341,1,113.999996520996,10|0,0:0|0:0,0:0:0:0:
154,213,48790,1,2,0:0:0:0:
94,292,48977,1,0,1:0:0:0:
20,105,49165,1,10,0:0:0:0:
122,134,49352,1,8,0:2:0:0:
122,134,49446,1,8,0:2:0:0:
122,134,49540,6,0,B|174:144|200:103|200:103|248:89|271:129,1,170.999994781494,6|0,0:2|0:0,0:0:0:0:
343,203,50102,1,2,0:0:0:0:
343,203,50196,2,0,P|411:199|425:130,1,128.249996086121,0|0,0:0|0:0,0:0:0:0:
374,78,50665,1,0,0:0:0:0:
270,127,50852,1,0,0:0:0:0:
267,130,50946,1,0,0:0:0:0:
264,133,51040,6,0,L|168:143,1,85.4999973907472,0|0,0:0|0:0,0:0:0:0:
95,227,51415,1,0,0:0:0:0:
43,129,51602,1,0,0:0:0:0:
43,129,51696,1,0,0:0:0:0:
43,129,51790,2,0,P|44:54|101:96,1,170.999994781494,2|0,0:0|0:0,0:0:0:0:
95,227,52352,1,0,0:0:0:0:
94,231,52446,1,0,0:0:0:0:
92,235,52540,6,0,B|165:260|142:207|216:230,1,128.249996086121,6|0,0:1|0:0,0:0:0:0:
234,246,52915,2,0,P|257:278|249:345,1,85.4999973907472,2|2,0:0|0:0,0:0:0:0:
468,319,53290,6,0,B|437:321|412:351|412:351|414:276|356:248,1,170.999994781494,2|2,0:0|0:0,0:0:0:0:
320,165,53852,1,2,0:0:0:0:
324,172,53946,1,0,0:0:0:0:
329,178,54040,6,0,B|357:215|408:224|434:211|434:211|436:182|395:164,1,170.999994781494,2|2,0:0|0:0,0:0:0:0:
337,82,54602,1,0,0:0:0:0:
337,82,54696,1,0,0:0:0:0:
337,82,54790,2,0,P|292:82|239:124,1,85.4999973907472,2|0,0:0|0:0,0:0:0:0:
199,188,55165,1,2,0:0:0:0:
219,290,55352,1,2,0:0:0:0:
185,167,55540,6,0,B|130:153|95:206|95:206|94:171|64:147,1,170.999994781494,6|0,0:1|0:0,0:0:0:0:
66,30,56102,1,2,0:0:0:0:
66,30,56196,2,0,L|195:46,1,128.249996086121,0|0,0:0|0:0,0:0:0:0:
289,135,56665,1,2,0:0:0:0:
363,70,56852,1,2,0:0:0:0:
366,68,56946,1,0,0:0:0:0:
369,66,57040,6,0,B|417:66|437:111|437:111|475:106|494:72|475:38,1,170.999994781494,2|0,0:0|0:0,0:0:0:0:
370,151,57602,1,0,0:0:0:0:
370,151,57696,1,0,0:0:0:0:
370,151,57790,2,0,P|357:196|387:257,1,85.4999973907472,0|0,0:0|0:0,0:0:0:0:
454,302,58165,1,0,0:0:0:0:
331,353,58352,1,0,0:0:0:0:
331,353,58446,1,0,0:0:0:0:
331,353,58540,6,0,B|269:380|232:325|255:326|231:282|159:295,1,170.999994781494,6|0,0:1|0:0,0:0:0:0:
130,228,59102,2,0,P|96:248|83:276,1,42.7499986953736,2|0,0:0|0:0,0:0:0:0:
17,228,59290,2,0,P|8:247|6:268,2,42.7499986953736
84,351,59665,1,2,0:0:0:0:
250,248,59852,1,2,0:0:0:0:
260,327,60040,6,0,B|225:325|202:351|202:351|207:318|185:292,1,128.249996086121,6|0,0:2|0:0,0:0:0:0:
172,279,60415,1,2,0:0:0:0:
325,265,60602,1,0,0:0:0:0:
325,265,60696,2,0,B|340:209|287:156|220:168|220:168|202:229|251:248,1,266,0|0,0:0|0:0,0:0:0:0:
476,334,61540,5,8,1:3:0:0:
460,297,61633,1,8,3:0:0:0:
418,279,61727,1,8,3:0:0:0:
463,271,61821,1,8,3:0:0:0:
494,247,61915,2,0,P|505:221|500:180,1,56.9999982604981,8|8,3:0|3:0,0:0:0:0:
339,113,62102,5,10,1:3:0:0:
336,152,62195,1,8,3:0:0:0:
354,187,62289,1,8,3:0:0:0:
388,206,62383,1,8,3:0:0:0:
428,205,62477,1,10,3:0:0:0:
358,36,62665,6,0,P|315:36|277:62,1,85.4999973907472,6|0,0:2|0:0,0:0:0:0:
233,146,63031,6,0,B|219:195|129:232|98:162|98:162|125:177|155:167,1,228,6|0,3:1|0:0,0:0:0:0:
233,146,63406,1,8,3:2:0:0:
138,287,63593,2,0,B|75:282|47:227|47:227|56:272|15:318,1,185.249991519928,10|0,0:3|0:0,0:0:0:0:
18,311,63968,1,10,0:3:0:0:
151,363,64156,2,0,P|187:349|209:309,1,61.7499971733095,10|0,3:2|0:2,0:0:0:0:
265,258,64343,1,0,0:0:0:0:
265,258,64437,1,0,0:0:0:0:
265,258,64531,6,0,B|331:222|405:244|405:244|367:255|349:302,1,213.750008153916,14|0,0:3|0:0,0:0:0:0:
347,306,64906,1,8,3:2:0:0:
301,167,65093,1,8,0:3:0:0:
429,234,65281,2,0,P|433:201|441:167,1,61.7499971733095,2|0,0:0|0:0,0:0:0:0:
493,59,65468,1,8,0:3:0:0:
489,70,65562,1,0,0:0:0:0:
482,80,65656,2,0,B|451:106|376:96|384:21|384:21|394:40|418:53,1,185.249991519928,10|0,3:2|0:0,0:0:0:0:
323,91,66031,6,0,B|254:113|217:59|217:59|231:125|186:149,1,213.750008153916,6|0,3:1|0:0,0:0:0:0:
170,158,66406,2,0,P|104:154|63:114,1,123.499994346619,10|8,3:2|0:3,0:0:0:0:
136,321,66781,1,2,0:2:0:0:
241,248,66968,1,10,0:3:0:0:
45,219,67156,2,0,L|56:292,1,61.7499971733095,8|0,3:2|0:2,0:0:0:0:
226,352,67343,1,2,0:0:0:0:
226,352,67437,1,0,0:0:0:0:
226,352,67531,6,0,B|362:333|362:333|371:289|338:265,1,213.750008153916,4|0,3:1|0:0,0:0:0:0:
318,250,67906,1,10,3:2:0:0:
383,121,68093,1,8,0:3:0:0:
438,190,68281,5,2,0:0:0:0:
252,108,68468,1,14,3:3:0:0:
223,95,68562,1,12,3:3:0:0:
198,76,68656,1,12,3:3:0:0:
397,45,68843,6,0,P|351:49|318:75,1,61.7499971733095,2|0,0:0|0:0,0:0:0:0:
232,218,69031,6,0,B|177:245|99:220|89:169|89:169|122:165|134:188,1,213.750008153916,14|0,3:1|0:0,0:0:0:0:
232,218,69406,1,10,3:2:0:0:
70,339,69593,1,8,0:3:0:0:
248,310,69781,5,2,0:0:0:0:
148,282,69968,1,8,0:3:0:0:
350,332,70156,2,0,P|366:304|364:267,1,61.7499971733095,10|0,3:2|0:2,0:0:0:0:
329,136,70343,1,2,0:0:0:0:
325,166,70437,1,0,0:0:0:0:
336,197,70531,6,0,B|382:182|424:214|424:214|460:208|479:160|448:126,1,199.499993911743,14|0,0:3|0:0,0:0:0:0:
437,116,70906,2,0,P|440:49|491:26,1,123.499994346619,10|8,3:2|0:3,0:0:0:0:
278,55,71281,5,2,0:0:0:0:
414,14,71468,1,10,0:3:0:0:
232,122,71656,6,0,P|203:121|175:103,1,61.7499971733095,10|0,3:2|0:0,0:0:0:0:
64,199,71843,1,2,0:0:0:0:
64,199,71937,1,0,0:0:0:0:
64,199,72031,6,0,B|122:234|133:309|86:387|36:309|68:287,1,213.750008153916,6|0,3:1|0:0,0:0:0:0:
81,278,72406,1,10,3:2:0:0:
241,220,72593,1,8,0:3:0:0:
303,320,72781,2,0,B|182:280|182:280|186:319|162:354,1,185.249991519928,2|0,0:0|0:0,0:0:0:0:
158,355,73156,1,10,3:2:0:0:
252,202,73343,1,0,0:0:0:0:
406,328,73531,6,0,B|435:324|463:338|475:362|475:362|443:287|481:207,1,213.750008153916,6|0,3:1|0:0,0:0:0:0:
486,215,73906,1,10,3:2:0:0:
379,101,74093,1,8,0:3:0:0:
474,116,74281,5,2,0:0:0:0:
356,243,74468,1,4,3:0:0:0:
332,226,74561,1,0,3:0:0:0:
306,214,74655,1,10,3:2:0:0:
280,205,74749,1,12,3:0:0:0:
252,202,74843,1,12,3:0:0:0:
282,296,75031,6,0,B|239:193|155:191|155:191|176:217|177:257,1,213.750008153916,14|0,3:1|0:0,0:0:0:0:
282,296,75406,1,8,3:2:0:0:
101,339,75593,1,10,0:3:0:0:
200,351,75781,1,2,0:0:0:0:
49,267,75968,1,10,0:3:0:0:
90,131,76156,6,0,P|117:106|135:75,1,61.7499971733095,10|0,3:2|0:0,0:0:0:0:
236,158,76343,1,0,0:0:0:0:
236,158,76437,1,0,0:0:0:0:
236,158,76531,6,0,B|255:114|327:131|351:184|320:181|347:231|391:229|401:193|376:183,1,213.750008153916,14|0,0:3|0:0,0:0:0:0:
365,176,76906,1,8,3:2:0:0:
269,239,77093,1,10,0:3:0:0:
378,297,77281,2,0,P|408:293|435:278,1,61.7499971733095,2|0,0:2|0:2,0:0:0:0:
499,184,77468,1,10,0:3:0:0:
400,343,77656,2,0,P|363:341|330:319,1,61.7499971733095,8|0,3:2|0:2,0:0:0:0:
269,239,77843,1,0,0:0:0:0:
269,239,77937,1,0,0:0:0:0:
269,239,78031,6,0,P|175:233|150:346,1,213.750008153916,6|0,3:1|0:0,0:0:0:0:
158,344,78406,2,0,P|189:309|177:235,1,123.499994346619,10|8,3:2|0:3,0:0:0:0:
293,150,78781,1,2,0:2:0:0:
109,81,78968,1,10,0:3:0:0:
162,142,79156,5,10,3:2:0:0:
253,80,79343,1,2,0:0:0:0:
342,219,79531,6,0,B|387:144|472:180|472:180|463:218|424:221,1,213.750008153916,4|0,3:1|0:0,0:0:0:0:
416,222,79906,1,10,3:2:0:0:
500,339,80093,1,8,0:3:0:0:
377,379,80281,1,2,0:0:0:0:
420,303,80468,1,2,1:0:0:0:
392,296,80561,1,0,3:0:0:0:
364,297,80655,1,8,3:2:0:0:
337,306,80749,1,12,3:3:0:0:
313,322,80843,1,12,3:3:0:0:
155,339,81031,6,0,B|181:323|216:283|172:261|210:229|261:241|261:241|234:257|225:291,1,213.750008153916,14|0,3:1|0:0,0:0:0:0:
155,339,81406,1,10,3:2:0:0:
104,205,81593,1,8,0:3:0:0:
197,142,81781,1,2,0:0:0:0:
179,23,81968,1,8,0:3:0:0:
1,149,82156,6,0,L|68:136,1,61.7499971733095,10|0,3:2|0:2,0:0:0:0:
191,182,82343,1,10,0:3:0:0:
191,182,82437,1,0,0:2:0:0:
191,182,82531,6,0,B|336:197|336:197|296:177|296:137,1,213.750008153916,14|0,0:3|0:0,0:0:0:0:
297,121,82906,2,0,B|297:48|388:44|371:85|348:77,1,123.499994346619,10|8,3:2|0:3,0:0:0:0:
215,111,83281,1,2,0:0:0:0:
274,14,83468,1,8,0:3:0:0:
128,103,83656,1,10,3:2:0:0:
229,228,83843,2,0,P|261:219|295:216,1,61.7499971733095,2|0,0:2|0:2,0:0:0:0:
443,182,84031,6,0,B|446:227|403:282|342:270|342:270|369:241|362:207,1,213.750008153916,4|0,3:1|0:0,0:0:0:0:
443,182,84406,1,8,3:2:0:0:
294,142,84593,1,8,0:3:0:0:
371,101,84781,5,0,0:2:0:0:
281,318,84968,1,8,0:3:0:0:
214,251,85156,6,0,P|182:260|148:263,1,61.7499971733095,8|0,3:2|0:0,0:0:0:0:
44,185,85343,1,8,0:3:0:0:
44,185,85437,1,0,0:0:0:0:
44,185,85531,6,0,B|65:143|138:136|160:171|160:171|114:160|111:115,1,213.750008153916,4|0,3:1|0:0,0:0:0:0:
115,95,85906,1,10,3:2:0:0:
194,26,86093,1,8,0:3:0:0:
20,54,86281,5,2,0:2:0:0:
229,122,86468,1,2,1:0:0:0:
160,190,86656,5,8,3:2:0:0:
378,49,86843,1,12,3:0:0:0:
378,49,86937,1,12,3:0:0:0:
378,49,87031,6,0,B|348:91|353:150|406:137|432:188|347:247|321:176|341:148,1,227.999993041992,6|2,0:0|0:0,0:0:0:0:
206,221,88156,1,2,0:0:0:0:
365,271,88343,6,0,B|312:272|282:233|282:233|273:281|228:295,1,166.249994926453,2|2,0:0|0:0,0:0:0:0:
219,295,88906,6,0,P|161:285|132:248,1,85.4999973907472,2|0,0:0|0:0,0:0:0:0:
142,267,89281,2,0,P|112:314|69:327,1,78.3750023918153,2|0,0:0|0:0,0:0:0:0:
77,327,89656,1,2,0:0:0:0:
99,205,89843,6,0,B|139:162|252:188|253:283|211:257|167:324|235:403|341:425|390:378|398:273|284:282|294:338,1,433.199994711914,2|0,0:0|0:0,0:0:0:0:
