osu file format v14

[General]
AudioFilename: audio.mp3
AudioLeadIn: 0
PreviewTime: 61540
Countdown: 0
SampleSet: Soft
StackLeniency: 0.2
Mode: 0
LetterboxInBreaks: 0
WidescreenStoryboard: 0

[Editor]
DistanceSpacing: 1
BeatDivisor: 8
GridSize: 4
TimelineZoom: 2.1

[Metadata]
Title:Ju Tou San Chi Tian Qi Qing
TitleUnicode:舉頭三尺天氣晴
Artist:Paroto
ArtistUnicode:パロト
Creator:DigiDrake
Version:KittyAdventure's Hard
Source:家有大貓
Tags:jiā yǒu dà māo jia you da mao mau Nviek5 クエン酸p 晴空和音 Chinese Video Game Nekojishi Triodust KuensanP Parrot A Sunny Day is Watching over You (Vocal) 空氣載體 Gay Yaoi Bara Furry Bearizm Glaceon KittyAdventure Flask
BeatmapID:2048310
BeatmapSetID:929378

[Difficulty]
HPDrainRate:4
CircleSize:3.5
OverallDifficulty:6.5
ApproachRate:7
SliderMultiplier:1.5
SliderTickRate:2

[Events]
//Background and Video events
Video,0,"bara.avi"
0,0,"KittyAdventure's BG.jpg",0,0
//Break Periods
//Storyboard Layer 0 (Background)
//Storyboard Layer 1 (Fail)
//Storyboard Layer 2 (Pass)
//Storyboard Layer 3 (Foreground)
//Storyboard Layer 4 (Overlay)
//Storyboard Sound Samples

[TimingPoints]
1540,375,4,2,20,30,1,0
7540,-100,4,2,20,60,0,0
13540,-100,4,2,20,70,0,1
19352,-100,4,2,20,70,0,0
19540,-100,4,2,20,70,0,1
25540,-100,4,2,20,60,0,0
26665,-100,4,2,22,40,0,0
26852,-100,4,2,20,60,0,0
29665,-100,4,2,22,40,0,0
29852,-100,4,2,20,60,0,0
33040,-100,4,2,25,60,0,0
33227,-100,4,2,20,60,0,0
37540,-100,4,2,20,65,0,0
41665,-100,4,2,22,45,0,0
41852,-100,4,2,20,65,0,0
49540,-142.857142857143,4,2,20,40,0,0
60415,-100,4,2,20,50,0,0
61540,-100,4,2,20,60,0,0
63031,375,4,2,20,70,1,1
68656,-100,4,2,20,70,0,0
69031,-100,4,2,20,70,0,1
70531,-100,4,2,25,70,0,1
70718,-100,4,2,20,70,0,1
74843,-100,4,2,20,70,0,0
75031,-100,4,2,20,70,0,1
77656,-100,4,2,22,50,0,1
77843,-100,4,2,20,70,0,1
79531,-100,4,2,25,70,0,1
79718,-100,4,2,20,70,0,1
80843,-100,4,2,20,70,0,0
81031,-100,4,2,20,70,0,1
82531,-100,4,2,25,70,0,1
82718,-100,4,2,20,70,0,1
87031,-100,4,2,20,30,0,0
89843,-142.857142857143,4,2,20,25,0,0

[Colours]
Combo1 : 207,172,151
Combo2 : 228,163,105
Combo3 : 225,204,134

[HitObjects]
436,250,1540,6,0,P|384:199|310:207,1,150,6|0,0:0|0:0,0:0:0:0:
287,286,2102,2,0,P|297:325|280:374,1,75,0|0,0:0|0:0,0:0:0:0:
213,326,2477,1,0,0:0:0:0:
139,366,2665,2,0,P|129:327|146:278,1,75,2|0,0:0|0:0,0:0:0:0:
63,254,3040,6,0,P|158:228|202:113,1,225,2|0,0:0|0:0,0:0:0:0:
140,64,3790,2,0,L|323:91,1,150,2|2,0:0|0:0,0:0:0:0:
440,25,4540,6,0,P|413:49|399:91,1,75,2|0,0:0|0:0,0:0:0:0:
456,146,4915,2,0,P|472:202|495:219,1,75,2|0,0:0|0:0,0:0:0:0:
472,293,5290,2,0,L|396:284,1,75,2|0,0:0|0:0,0:0:0:0:
254,367,5852,6,0,B|276:332|259:297|259:297|237:255|267:213,1,150,2|0,0:0|0:0,0:0:0:0:
184,175,6415,2,0,P|154:104|182:39,1,150,0|2,0:0|0:0,0:0:0:0:
260,83,6977,2,0,P|330:51|395:87,1,150,2|0,0:0|0:0,0:0:0:0:
472,38,7540,5,2,0:3:0:0:
510,198,7915,1,2,0:3:0:0:
388,309,8290,1,2,0:3:0:0:
233,250,8665,1,2,0:3:0:0:
268,88,9040,5,2,0:3:0:0:
130,0,9415,1,2,0:3:0:0:
6,109,9790,1,2,0:3:0:0:
64,263,10165,1,2,0:3:0:0:
233,250,10540,6,0,L|317:245,1,75,2|0,0:0|0:0,0:0:0:0:
327,165,10915,2,0,L|401:169,1,75,2|0,0:0|0:0,0:0:0:0:
423,256,11290,1,2,0:0:0:0:
487,194,11477,1,0,0:0:0:0:
468,105,11665,1,2,0:0:0:0:
439,20,11852,1,0,0:0:0:0:
364,71,12040,6,0,L|325:66,3,37.5,2|0|0|0,0:0|0:0|0:0|0:0,0:0:0:0:
298,36,12415,2,0,L|260:40,3,37.5,4|0|0|0,0:3|0:0|0:0|0:0,0:0:0:0:
225,62,12790,2,0,L|186:57,3,37.5,2|0|0|0,0:3|0:0|0:0|0:0,0:0:0:0:
162,24,13165,2,0,L|124:28,3,37.5,8|0|0|0,0:0|0:0|0:0|0:0,0:0:0:0:
86,21,13540,6,0,B|106:65|106:65|82:176,1,150,6|8,0:0|0:0,0:0:0:0:
34,229,14102,2,0,P|103:193|164:224,1,150,2|0,0:0|0:0,0:0:0:0:
215,286,14665,2,0,L|297:280,1,75,8|0,0:0|0:0,0:0:0:0:
281,198,15040,6,0,L|438:184,1,150,6|8,0:0|0:0,0:0:0:0:
488,126,15602,2,0,P|478:68|396:37,1,150,2|0,0:0|0:0,0:0:0:0:
338,92,16165,1,8,0:0:0:0:
256,81,16352,1,0,0:0:0:0:
173,70,16540,6,0,L|184:231,1,150,6|8,0:0|0:0,0:0:0:0:
127,280,17102,2,0,P|65:286|-3:233,1,150,2|2,0:0|0:0,0:0:0:0:
57,177,17665,1,8,0:0:0:0:
18,104,17852,1,0,0:0:0:0:
75,44,18040,6,0,B|134:41|134:41|162:55|162:55|226:50,1,150,6|8,0:0|0:0,0:0:0:0:
300,25,18602,2,0,P|256:57|241:153,1,150,2|2,0:0|0:0,0:0:0:0:
317,205,19165,1,8,0:0:0:0:
317,205,19258,1,0,0:0:0:0:
317,205,19352,1,2,0:0:0:0:
241,253,19540,6,0,B|202:235|169:254|169:254|131:274|91:255,1,150,6|8,0:0|0:0,0:0:0:0:
27,212,20102,2,0,P|67:162|71:71,1,150,2|0,0:0|0:0,0:0:0:0:
145,37,20665,2,0,P|186:58|218:59,1,75,8|0,0:0|0:0,0:0:0:0:
302,42,21040,6,0,B|297:93|297:93|316:126|316:126|311:196,1,150,6|8,0:0|0:0,0:0:0:0:
251,253,21602,2,0,P|317:275|383:235,1,150,2|0,0:0|0:0,0:0:0:0:
394,153,22165,1,8,0:0:0:0:
475,162,22352,1,0,0:0:0:0:
447,83,22540,6,0,B|396:32|396:32|316:67,1,150,6|8,0:0|0:0,0:0:0:0:
242,63,23102,2,0,B|170:31|170:31|119:82,1,150,2|0,0:0|0:0,0:0:0:0:
179,138,23665,1,8,0:0:0:0:
173,220,23852,1,2,0:0:0:0:
97,258,24040,6,0,P|165:245|215:307,1,150,6|8,0:0|0:0,0:0:0:0:
296,300,24602,2,0,P|342:245|413:257,1,150,2|4,0:0|0:3,0:0:0:0:
495,220,25165,1,8,0:0:0:0:
441,143,25352,1,0,0:0:0:0:
446,113,25446,1,0,0:0:0:0:
450,83,25540,6,0,L|301:95,1,150,6|8,0:0|0:0,0:0:0:0:
235,44,26102,1,0,0:0:0:0:
184,109,26290,1,2,0:0:0:0:
122,54,26477,2,0,P|56:75|23:160,1,150
89,192,27040,5,2,0:0:0:0:
77,273,27227,1,0,0:0:0:0:
155,247,27415,1,8,0:0:0:0:
281,352,27790,5,2,0:0:0:0:
361,367,27977,1,0,0:0:0:0:
340,286,28165,1,8,0:0:0:0:
479,197,28540,6,0,P|471:127|406:82,1,150,6|8,0:0|0:0,0:0:0:0:
339,126,29102,1,2,0:0:0:0:
270,79,29290,1,2,0:0:0:0:
197,117,29477,2,0,B|149:113|149:113|117:130|117:130|88:113|51:124,1,150,0|0,0:0|0:0,0:0:0:0:
74,203,30040,5,2,0:0:0:0:
65,284,30227,1,0,0:0:0:0:
56,366,30415,1,8,0:0:0:0:
220,368,30790,5,2,0:0:0:0:
211,286,30978,1,0,0:0:0:0:
202,205,31165,1,8,0:0:0:0:
279,232,31352,1,0,0:0:0:0:
353,267,31540,6,0,L|504:242,1,150,6|8,0:0|0:0,0:0:0:0:
490,160,32102,1,0,0:0:0:0:
477,78,32290,1,2,0:0:0:0:
412,129,32477,2,0,P|363:128|336:113,1,75,0|8,0:0|0:0,0:0:0:0:
391,46,32852,6,0,P|333:79|256:53,1,150,0|0,0:0|0:0,0:0:0:0:
177,34,33415,2,0,L|101:38,1,75,8|0,0:0|0:0,0:0:0:0:
103,120,33790,2,0,L|177:116,1,75,2|0,0:0|0:0,0:0:0:0:
180,198,34165,2,0,L|105:201,1,75,8|0,0:0|0:0,0:0:0:0:
101,283,34540,6,0,P|37:250|29:176,1,150,6|8,0:0|0:0,0:0:0:0:
24,95,35102,1,2,0:0:0:0:
103,120,35290,2,0,L|257:110,1,150,2|8,0:0|0:0,0:0:0:0:
314,55,35852,1,0,0:0:0:0:
337,134,36040,6,0,L|347:288,1,150,2|8,0:0|0:0,0:0:0:0:
200,360,36790,1,2,0:0:0:0:
117,361,36977,1,0,0:0:0:0:
48,314,37165,1,8,0:0:0:0:
34,232,37352,1,4,0:3:0:0:
34,232,37446,1,4,0:3:0:0:
34,232,37540,6,0,P|31:178|97:111,1,150,6|8,0:0|0:0,0:0:0:0:
150,171,38102,1,0,0:0:0:0:
181,94,38290,2,0,L|255:100,1,75,2|0,0:0|0:0,0:0:0:0:
279,179,38665,2,0,L|353:185,1,75,8|0,0:0|0:0,0:0:0:0:
420,136,39040,5,2,0:0:0:0:
500,154,39227,1,0,0:0:0:0:
443,214,39415,1,8,0:0:0:0:
345,346,39790,5,2,0:0:0:0:
264,364,39977,1,0,0:0:0:0:
289,285,40165,1,8,0:0:0:0:
124,274,40540,6,0,P|61:279|2:205,1,150,6|8,0:0|0:0,0:0:0:0:
64,162,41102,1,2,0:0:0:0:
31,85,41290,1,0,0:0:0:0:
96,34,41477,2,0,P|139:68|231:52,1,150
294,5,42040,5,2,0:0:0:0:
374,20,42227,1,0,0:0:0:0:
455,35,42415,1,8,0:0:0:0:
340,153,42790,5,2,0:0:0:0:
422,146,42977,1,0,0:0:0:0:
504,135,43165,1,8,0:0:0:0:
481,214,43352,1,0,0:0:0:0:
444,288,43540,6,0,B|408:266|370:288|370:288|336:311|298:293,1,150,6|8,0:0|0:0,0:0:0:0:
230,253,44102,1,0,0:0:0:0:
163,301,44290,2,0,P|126:310|90:303,1,75,0|0,0:0|0:0,0:0:0:0:
29,247,44665,2,0,P|19:210|26:174,1,75,8|0,0:0|0:0,0:0:0:0:
65,101,45040,5,2,0:0:0:0:
139,66,45227,1,0,0:0:0:0:
142,149,45415,2,0,L|219:142,1,75,8|0,0:0|0:0,0:0:0:0:
265,75,45790,2,0,P|293:107|299:143,1,75,2|0,0:0|0:0,0:0:0:0:
378,159,46165,2,0,P|401:130|435:116,1,75,8|0,0:0|0:0,0:0:0:0:
452,197,46540,6,0,P|475:247|436:338,1,150,6|8,0:0|0:0,0:0:0:0:
372,292,47102,1,0,0:0:0:0:
312,349,47290,2,0,B|276:327|238:349|238:349|204:372|166:354,1,150,2|8,0:0|0:0,0:0:0:0:
196,277,47852,1,0,0:0:0:0:
113,270,48040,6,0,P|127:229|153:204,1,75,2|0,0:0|0:0,0:0:0:0:
154,124,48415,2,0,P|195:138|220:164,1,75,8|0,0:0|0:0,0:0:0:0:
268,224,48790,2,0,B|303:209|303:209|342:218,1,75,2|0,0:0|0:0,0:0:0:0:
419,234,49165,2,0,B|454:242|454:242|489:227,1,75,8|2,0:0|0:0,0:0:0:0:
501,187,49446,1,2,0:0:0:0:
501,187,49540,6,0,P|501:121|303:109,1,314.999990386963,6|2,0:0|0:0,0:0:0:0:
151,35,51040,2,0,P|88:55|58:185,1,209.999993591309,0|2,0:0|0:0,0:0:0:0:
207,258,52165,1,2,0:0:0:0:
81,369,52540,6,0,P|62:330|2:303,2,104.999996795654,2|2|2,0:0|0:0|0:0,0:0:0:0:
207,258,53665,1,2,0:0:0:0:
261,322,53852,1,0,0:0:0:0:
297,246,54040,6,0,P|376:254|507:86,1,314.999990386963,2|2,0:0|0:0,0:0:0:0:
348,29,55540,6,0,B|282:81|260:5|193:59,2,157.499995193482,2|2|2,0:0|0:0|0:0,0:0:0:0:
412,83,56852,1,0,0:0:0:0:
352,143,57040,2,0,P|296:184|421:188,1,314.999990386963,2|2,0:0|0:0,0:0:0:0:
348,29,58540,6,0,P|290:25|243:56,1,104.999996795654,2|2,0:0|0:0,0:0:0:0:
170,20,59102,2,0,P|151:42|145:119,1,104.999996795654,2|0,0:0|0:0,0:0:0:0:
205,174,59665,2,0,P|236:178|262:170,1,52.4999983978272,2|0,0:0|0:0,0:0:0:0:
306,240,60040,5,2,0:0:0:0:
393,77,60415,6,0,B|338:65|338:65|295:92|295:92|242:64|242:64|132:131|151:3|40:49,1,375,2|0,0:0|0:0,0:0:0:0:
14,129,61540,6,0,L|22:181,3,37.5,4|4|4|0,2:3|0:3|0:3|0:3,0:0:0:0:
53,189,61915,2,0,L|45:241,1,37.5,4|0,0:3|0:0,0:0:0:0:
18,256,62102,6,0,L|23:293,3,37.5,8|0|4|4,0:0|0:0|0:3|0:3,0:0:0:0:
58,315,62477,2,0,L|52:352,1,37.5,4|0,0:3|0:0,0:0:0:0:
91,364,62665,5,8,0:0:0:0:
180,372,62852,1,0,0:0:0:0:
272,377,63031,6,0,L|264:224,1,150,6|8,0:0|0:0,0:0:0:0:
346,191,63593,2,0,P|416:213|491:157,1,150,2|0,0:0|0:0,0:0:0:0:
507,91,64156,1,8,0:0:0:0:
440,30,64343,1,0,0:0:0:0:
350,23,64531,6,0,L|194:31,1,150,6|8,0:0|0:0,0:0:0:0:
42,117,65281,1,2,0:0:0:0:
97,187,65468,1,0,0:0:0:0:
8,206,65656,2,0,L|16:296,1,75,8|0,0:0|0:0,0:0:0:0:
28,369,66031,6,0,B|86:364|86:364|116:340|116:340|170:335,1,150,6|8,0:0|0:0,0:0:0:0:
338,273,66781,1,2,0:0:0:0:
401,336,66968,2,0,P|422:300|422:256,2,75,0|8|0,0:0|0:0|0:0,0:0:0:0:
338,273,67531,6,0,L|322:120,1,150,6|8,0:0|0:0,0:0:0:0:
171,25,68281,1,2,0:0:0:0:
99,79,68468,1,4,0:3:0:0:
99,79,68562,1,0,0:0:0:0:
99,79,68656,2,0,L|102:162,1,75,4|0,0:3|0:0,0:0:0:0:
169,213,69031,6,0,B|103:176|103:176|59:256,1,150,6|8,0:0|0:0,0:0:0:0:
216,342,69781,1,2,0:0:0:0:
305,332,69968,1,0,0:0:0:0:
395,326,70156,1,8,0:0:0:0:
349,248,70343,2,0,P|360:178|434:132,1,150,0|0,0:0|0:0,0:0:0:0:
493,79,70906,6,0,P|438:95|362:32,1,150,8|2,0:0|0:0,0:0:0:0:
287,2,71468,1,0,0:0:0:0:
196,6,71656,1,8,0:0:0:0:
137,75,71843,1,0,0:0:0:0:
150,164,72031,6,0,P|106:170|79:194,1,75,6|0,0:0|0:0,0:0:0:0:
114,273,72406,2,0,P|158:267|185:243,1,75,8|0,0:0|0:0,0:0:0:0:
235,176,72781,2,0,P|279:182|306:206,1,75,2|0,0:0|0:0,0:0:0:0:
384,236,73156,2,0,P|420:233|451:211,1,75,8|0,0:0|0:0,0:0:0:0:
486,128,73531,6,0,P|483:91|461:60,1,75,6|0,0:0|0:0,0:0:0:0:
372,46,73906,2,0,L|297:55,1,75,8|0,0:0|0:0,0:0:0:0:
228,113,74281,1,6,0:3:0:0:
164,50,74468,1,0,0:0:0:0:
74,57,74656,1,6,0:3:0:0:
24,131,74843,1,0,0:0:0:0:
32,220,75031,6,0,P|76:283|153:286,1,150,6|8,0:0|0:0,0:0:0:0:
189,212,75593,1,0,0:0:0:0:
238,287,75781,1,2,0:0:0:0:
327,288,75968,1,0,0:0:0:0:
372,210,76156,2,0,P|410:233|446:235,1,75,8|0,0:0|0:0,0:0:0:0:
508,177,76531,6,0,B|534:133|534:133|503:21,1,150,6|8,0:0|0:0,0:0:0:0:
425,72,77093,1,0,0:0:0:0:
347,26,77281,1,2,0:0:0:0:
269,70,77468,2,0,P|225:101|130:87,1,150,0|0,0:0|0:0,0:0:0:0:
44,75,78031,6,0,L|49:162,1,75,6|0,0:0|0:0,0:0:0:0:
130,187,78406,2,0,L|125:274,1,75,8|0,0:0|0:0,0:0:0:0:
125,352,78781,1,2,0:0:0:0:
212,334,78968,1,0,0:0:0:0:
300,316,79156,1,8,0:0:0:0:
387,298,79343,6,0,B|403:257|403:257|372:141,1,150,0|0,0:0|0:0,0:0:0:0:
313,88,79906,2,0,P|269:102|235:93,1,75,8|0,0:0|0:0,0:0:0:0:
172,38,80281,2,0,P|135:32|100:46,1,75,2|0,0:0|0:0,0:0:0:0:
34,107,80656,2,0,L|40:166,1,37.5,8|0,0:0|0:0,0:0:0:0:
81,154,80843,2,0,L|87:213,1,37.5,4|0,0:3|0:0,0:0:0:0:
63,231,81031,6,0,P|116:213|192:263,1,150,6|8,0:0|0:0,0:0:0:0:
334,367,81781,1,2,0:0:0:0:
423,356,81968,1,0,0:0:0:0:
479,285,82156,1,8,0:0:0:0:
455,198,82343,6,0,B|416:180|381:201|381:201|341:223|301:200,1,150,0|0,0:0|0:0,0:0:0:0:
251,137,82906,2,0,P|271:86|263:56,1,75,8|0,0:0|0:0,0:0:0:0:
198,9,83281,2,0,P|143:12|119:32,1,75,2|0,0:0|0:0,0:0:0:0:
128,113,83656,1,8,0:0:0:0:
47,73,83843,1,0,0:0:0:0:
49,163,84031,6,0,L|53:248,1,75,6|0,0:0|0:0,0:0:0:0:
127,287,84406,1,8,0:0:0:0:
198,232,84593,2,0,P|236:245|272:237,1,75,0|2,0:0|0:0,0:0:0:0:
355,265,84968,1,0,0:0:0:0:
339,176,85156,1,8,0:0:0:0:
397,107,85343,1,0,0:0:0:0:
364,22,85531,6,0,B|293:47|293:47|221:22,1,150,6|8,0:0|0:0,0:0:0:0:
80,133,86281,1,2,0:0:0:0:
143,196,86468,2,0,L|134:284,1,75,0|8,0:0|0:0,0:0:0:0:
187,344,86843,1,2,0:0:0:0:
231,339,86937,1,2,0:0:0:0:
275,333,87031,6,0,B|343:361|343:361|413:328,1,150,6|2,0:0|0:0,0:0:0:0:
511,177,87781,2,0,P|491:104|421:73,1,150,2|2,0:0|0:0,0:0:0:0:
365,138,88343,2,0,B|324:161|287:143|287:143|251:125|215:146,1,150,2|0,0:0|0:0,0:0:0:0:
136,110,88906,2,0,L|140:191,1,75,2|0,0:0|0:0,0:0:0:0:
49,188,89281,2,0,L|53:269,1,75,2|0,0:0|0:0,0:0:0:0:
104,334,89656,1,2,0:0:0:0:
180,286,89843,6,0,B|223:305|268:289|268:289|317:267|388:282|386:348|336:386|273:368|259:308|267:266|258:223|301:190,1,419.999987182618,2|0,0:0|0:0,0:0:0:0:
