osu file format v14

[General]
AudioFilename: audio.mp3
AudioLeadIn: 0
PreviewTime: 61540
Countdown: 0
SampleSet: Soft
StackLeniency: 0.3
Mode: 0
LetterboxInBreaks: 0
WidescreenStoryboard: 1

[Editor]
DistanceSpacing: 1
BeatDivisor: 4
GridSize: 32
TimelineZoom: 2.1

[Metadata]
Title:Ju Tou San Chi Tian Qi Qing
TitleUnicode:舉頭三尺天氣晴
Artist:Paroto
ArtistUnicode:パロト
Creator:DigiDrake
Version:Glaceon's Normal
Source:家有大貓
Tags:jiā yǒu dà māo jia you da mao mau Nviek5 クエン酸p 晴空和音 Chinese Video Game Nekojishi Triodust KuensanP Parrot A Sunny Day is Watching over You (Vocal) 空氣載體 Gay Yaoi Bara Furry Bearizm Glaceon KittyAdventure Flask
BeatmapID:1975471
BeatmapSetID:929378

[Difficulty]
HPDrainRate:4
CircleSize:3
OverallDifficulty:4
ApproachRate:5
SliderMultiplier:1.1
SliderTickRate:1

[Events]
//Background and Video events
0,0,"kitties.jpg",0,0
Video,0,"bara.avi"
//Break Periods
2,49740,57340
//Storyboard Layer 0 (Background)
//Storyboard Layer 1 (Fail)
//Storyboard Layer 2 (Pass)
//Storyboard Layer 3 (Foreground)
//Storyboard Layer 4 (Overlay)
//Storyboard Sound Samples

[TimingPoints]
1540,375,4,2,1,25,1,0
1540,-100,4,2,1,25,0,0
3040,-100,4,2,1,25,0,0
3790,-100,4,2,1,25,0,0
4540,-100,4,2,1,25,0,0
6040,-100,4,2,1,25,0,0
6790,-100,4,2,1,25,0,0
6977,-100,4,2,1,25,0,0
7540,-100,4,2,3,25,0,0
12040,-100,4,2,3,30,0,0
12977,-100,4,2,3,60,0,0
13540,-100,4,2,2,60,0,0
13821,-100,4,2,1,60,0,0
14102,-100,4,2,1,60,0,0
18977,-100,4,2,2,60,0,0
19540,-100,4,2,2,60,0,0
19821,-100,4,2,1,60,0,0
24977,-100,4,2,2,60,0,0
25540,-100,4,2,1,60,0,0
25915,-100,4,2,1,60,0,0
36790,-100,4,2,2,60,0,0
37540,-100,4,2,1,60,0,0
49633,-100,4,2,1,60,0,0
61540,-100,4,2,1,60,0,0
62102,-100,4,2,1,60,0,0
62665,-100,4,2,1,75,0,0
63031,375,4,2,2,70,1,0
63031,-100,4,2,2,70,0,1
63406,-100,4,2,1,70,0,1
68468,-100,4,2,2,70,0,1
69031,-100,4,2,2,70,0,1
69406,-100,4,2,1,70,0,1
74468,-100,4,2,2,70,0,1
75031,-100,4,2,2,70,0,1
75406,-100,4,2,1,70,0,1
80656,-100,4,2,2,70,0,1
81031,-100,4,2,2,70,0,1
81406,-100,4,2,1,70,0,1
87031,-100,4,2,1,35,0,0
91343,-100,4,2,1,5,0,0

[Colours]
Combo1 : 207,172,151
Combo2 : 228,163,105
Combo3 : 225,204,134

[HitObjects]
82,242,1540,6,0,P|88:285|137:172,1,440,6|2,0:0|0:0,0:0:0:0:
140,171,3790,2,0,L|137:48,1,110,2|2,0:0|0:0,0:0:0:0:
233,8,4540,6,0,L|235:117,1,110,2|0,0:0|0:0,0:0:0:0:
244,227,5290,1,0,0:0:0:0:
244,227,5477,2,0,P|296:234|371:220,1,110,0|2,0:0|0:0,0:0:0:0:
403,205,6040,1,2,0:0:0:0:
403,205,6790,1,2,0:0:0:0:
403,205,7540,6,0,L|398:328,2,110,10|10|10,3:1|3:1|3:1,0:0:0:0:
447,104,8665,1,10,3:1:0:0:
372,23,9040,2,0,P|334:15|244:30,1,110,10|10,3:1|3:1,0:0:0:0:
221,124,9790,2,0,P|166:132|112:123,1,110,10|10,3:1|3:1,0:0:0:0:
11,81,10540,6,0,L|19:204,1,110,10|8,3:1|3:1,0:0:0:0:
66,216,11102,1,8,0:1:0:0:
66,216,11290,2,0,L|62:328,1,110,8|8,3:1|3:1,0:0:0:0:
160,374,12040,2,0,L|224:370,1,55,10|8,3:1|0:1,0:0:0:0:
253,330,12415,2,0,L|307:333,1,55,8|8,3:1|0:1,0:0:0:0:
348,370,12790,2,0,L|425:365,1,55,8|8,3:1|3:1,0:0:0:0:
445,331,13165,1,8,3:1:0:0:
397,231,13540,6,0,L|394:133,1,82.5,12|0,3:1|0:0,0:0:0:0:
389,66,14102,2,0,P|346:58|269:73,1,110,8|8,0:3|0:3,0:0:0:0:
246,111,14665,2,0,L|184:110,1,55,8|0,3:2|0:0,0:0:0:0:
135,109,15040,2,0,P|125:168|137:240,1,110,12|8,0:3|3:2,0:0:0:0:
153,267,15602,1,8,0:3:0:0:
250,317,15977,2,0,L|252:393,2,55,8|8|0,0:3|3:2|0:0,0:0:0:0:
292,281,16540,6,0,L|391:275,1,82.5,4|0,3:1|0:0,0:0:0:0:
456,270,17102,2,0,P|462:225|449:155,1,110,8|8,0:3|0:3,0:0:0:0:
409,125,17665,2,0,L|410:57,1,55,8|0,3:2|0:0,0:0:0:0:
414,15,18040,2,0,P|353:25|299:11,1,110,4|8,3:1|3:2,0:0:0:0:
252,2,18602,1,8,0:3:0:0:
163,66,18977,2,0,L|166:134,1,55,12|12,3:0|3:0,0:0:0:0:
203,160,19352,1,12,3:0:0:0:
203,160,19540,6,0,L|198:260,1,82.5,4|0,3:1|0:0,0:0:0:0:
192,324,20102,2,0,P|134:335|75:317,1,110,8|8,0:3|0:3,0:0:0:0:
48,281,20665,2,0,L|54:203,1,55,8|0,3:2|0:0,0:0:0:0:
86,183,21040,2,0,L|81:69,1,110,12|8,0:3|3:2,0:0:0:0:
109,26,21602,1,0,0:0:0:0:
213,61,21977,2,0,L|284:58,2,55,8|8|0,0:3|3:2|0:2,0:0:0:0:
183,108,22540,6,0,L|189:197,1,82.5,4|0,3:1|0:0,0:0:0:0:
193,272,23102,2,0,P|252:284|312:267,1,110,8|8,0:3|0:3,0:0:0:0:
336,231,23665,2,0,L|330:156,1,55,8|8,3:2|0:3,0:0:0:0:
287,143,24040,2,0,L|292:13,1,110,4|8,3:1|3:2,0:0:0:0:
335,0,24602,1,8,0:3:0:0:
426,60,24977,2,0,L|429:126,1,55,0|12,1:0|3:0,0:0:0:0:
406,165,25352,1,12,3:0:0:0:
406,165,25540,6,0,L|404:290,1,110,4|8,3:2|0:0,0:0:0:0:
420,332,26102,1,2,1:0:0:0:
420,332,26290,2,0,P|359:343|303:329,1,110,2|8,0:0|0:0,0:0:0:0:
265,233,27040,2,0,P|211:223|157:234,1,110,2|8,0:0|0:0,0:0:0:0:
55,274,27790,2,0,L|61:154,1,110,0|8,0:0|0:0,0:0:0:0:
163,124,28540,6,0,L|157:233,1,110,4|8,0:1|0:0,0:0:0:0:
154,293,29102,1,2,1:0:0:0:
154,293,29290,2,0,P|212:305|274:289,1,110,2|8,0:0|0:0,0:0:0:0:
303,193,30040,2,0,P|356:183|410:195,1,110,2|8,0:0|0:0,0:0:0:0:
510,241,30790,2,0,L|502:114,1,110,0|8,0:0|0:0,0:0:0:0:
486,22,31540,6,0,P|432:31|378:19,1,110,4|8,0:1|0:0,0:0:0:0:
330,17,32102,1,2,1:0:0:0:
330,17,32290,2,0,L|210:19,1,110,2|8,0:0|0:0,0:0:0:0:
169,116,33040,2,0,L|278:114,1,110,0|10,0:0|0:0,0:0:0:0:
381,154,33790,1,2,0:0:0:0:
362,262,34165,1,10,0:0:0:0:
253,280,34540,6,0,P|197:269|132:285,1,110,6|8,0:1|0:0,0:0:0:0:
96,295,35102,1,2,1:0:0:0:
96,295,35290,2,0,L|106:161,1,110,2|8,0:0|0:0,0:0:0:0:
184,109,36040,2,0,L|175:0,2,110,2|10|10,1:1|0:0|3:0,0:0:0:0:
228,150,36977,1,8,3:0:0:0:
228,150,37165,2,0,L|221:223,1,55,10|8,3:0|3:0,0:0:0:0:
186,245,37540,6,0,P|173:303|185:364,1,110,4|8,3:2|0:0,0:0:0:0:
236,375,38102,1,2,1:0:0:0:
236,375,38290,2,0,L|301:370,1,55,2|2,0:0|0:0,0:0:0:0:
337,342,38665,1,8,0:0:0:0:
445,357,39040,2,0,P|453:304|439:237,1,110,2|8,0:0|0:0,0:0:0:0:
372,164,39790,2,0,L|373:106,2,55,0|0|8,0:0|1:0|0:0,0:0:0:0:
285,231,40540,6,0,L|158:225,1,110,4|8,0:1|0:0,0:0:0:0:
125,234,41102,1,2,1:0:0:0:
125,234,41290,2,0,L|133:158,1,55,2|2,0:0|0:0,0:0:0:0:
158,131,41665,1,8,0:0:0:0:
194,44,42040,2,0,P|248:37|301:48,1,110,2|10,0:0|0:0,0:0:0:0:
360,141,42790,2,0,L|430:138,2,55,0|0|8,0:0|1:0|0:0,0:0:0:0:
265,198,43540,6,0,L|271:322,1,110,4|8,0:1|0:0,0:0:0:0:
276,367,44102,1,2,1:0:0:0:
276,367,44290,2,0,L|348:359,1,55,2|2,0:0|0:0,0:0:0:0:
375,329,44665,1,8,0:0:0:0:
482,350,45040,2,0,P|493:301|478:226,1,110,0|10,0:0|0:0,0:0:0:0:
412,159,45790,2,0,L|415:86,2,55,2|2|10,0:0|1:0|0:0,0:0:0:0:
313,208,46540,6,0,L|190:203,1,110,6|8,0:1|0:0,0:0:0:0:
152,205,47102,1,2,1:0:0:0:
152,205,47290,2,0,P|158:255|133:334,1,110,2|8,0:0|0:0,0:0:0:0:
97,341,47852,1,2,1:0:0:0:
97,341,48040,2,0,L|33:338,2,55,2|0|10,0:1|0:0|0:0,0:0:0:0:
200,376,48790,2,0,L|328:373,1,110,2|10,0:0|0:0,0:0:0:0:
368,377,49352,1,8,0:2:0:0:
368,377,49540,5,6,0:2:0:0:
256,192,58540,12,8,61540,1:3:0:0:
383,44,62665,6,0,L|389:115,1,55,6|0,0:2|0:0,0:0:0:0:
429,129,63031,6,0,P|437:180|420:248,1,110,14|8,3:1|3:2,0:0:0:0:
375,260,63593,2,0,L|246:255,1,110,10|10,0:3|0:3,0:0:0:0:
219,225,64156,1,10,3:2:0:0:
121,275,64531,2,0,P|111:229|138:147,1,110,14|8,0:3|3:2,0:0:0:0:
167,134,65093,1,8,0:3:0:0:
167,134,65281,2,0,L|164:66,2,55,2|8|10,0:0|0:3|3:2,0:0:0:0:
272,166,66031,6,0,P|325:154|378:167,2,110,6|10|2,3:1|3:2|0:2,0:0:0:0:
236,207,66968,1,10,0:3:0:0:
236,207,67156,1,8,3:2:0:0:
245,316,67531,2,0,L|370:310,1,110,4|10,3:1|3:2,0:0:0:0:
445,248,68281,2,0,L|436:167,1,55,2|14,0:0|3:3,0:0:0:0:
431,138,68656,1,12,3:3:0:0:
352,61,69031,6,0,P|294:74|231:55,1,110,14|10,3:1|3:2,0:0:0:0:
200,31,69593,1,8,0:3:0:0:
200,31,69781,2,0,L|72:37,1,110,2|10,0:0|3:2,0:0:0:0:
35,40,70343,2,0,P|21:98|37:153,1,110,2|0,0:0|0:0,0:0:0:0:
74,182,70906,1,10,3:2:0:0:
160,250,71281,2,0,L|158:313,2,55,2|10|10,0:0|0:3|3:2,0:0:0:0:
186,201,71843,1,2,0:0:0:0:
186,201,72031,6,0,L|317:206,1,110,6|10,3:1|3:2,0:0:0:0:
354,112,72781,2,0,L|276:108,1,55,2|0,0:0|0:0,0:0:0:0:
248,88,73156,1,10,3:2:0:0:
145,126,73531,2,0,P|84:134|24:117,2,110,6|10|2,3:1|3:2|0:0,0:0:0:0:
180,168,74468,1,4,3:0:0:0:
180,168,74656,2,0,L|251:172,1,55,10|12,3:2|3:0,0:0:0:0:
289,176,75031,6,0,L|294:303,1,110,14|8,3:1|3:2,0:0:0:0:
300,345,75593,1,10,0:3:0:0:
300,345,75781,2,0,L|369:337,1,55,2|10,0:0|0:3,0:0:0:0:
406,358,76156,1,10,3:2:0:0:
489,286,76531,2,0,P|499:221|480:156,1,110,14|8,0:3|3:2,0:0:0:0:
455,135,77093,1,10,0:3:0:0:
455,135,77281,2,0,L|400:136,1,55,2|10,0:2|0:3,0:0:0:0:
356,170,77656,1,8,3:2:0:0:
271,99,78031,6,0,L|141:96,1,110,6|10,3:1|3:2,0:0:0:0:
102,189,78781,2,0,L|168:191,2,55
51,191,79343,1,0,0:0:0:0:
51,191,79531,2,0,P|41:244|52:298,1,110,14|8,0:3|3:2,0:0:0:0:
155,337,80281,1,0,0:0:0:0:
155,337,80468,2,0,L|230:334,1,55
268,333,80843,1,0,0:0:0:0:
268,333,81031,6,0,P|321:342|375:331,2,110,14|8|0,0:3|3:2|0:0,0:0:0:0:
212,238,82156,2,0,L|215:174,1,55
218,128,82531,2,0,P|271:117|325:126,1,110,14|8,0:3|3:2,0:0:0:0:
393,213,83281,2,0,L|391:274,2,55
441,186,83843,1,0,0:0:0:0:
441,186,84031,6,0,L|441:68,1,110
439,21,84593,2,0,P|385:31|331:22,1,110,14|8,0:3|3:2,0:0:0:0:
279,3,85156,1,0,0:0:0:0:
186,63,85531,1,0,0:0:0:0:
213,169,85906,2,0,L|210:240,1,55
208,283,86281,1,0,0:0:0:0:
208,283,86468,2,0,P|154:273|100:284,1,110,0|8,0:3|3:2,0:0:0:0:
48,303,87031,5,0,0:0:0:0:
256,192,87218,12,0,91343,0:0:0:0:
