osu file format v14

[General]
AudioFilename: audio.mp3
AudioLeadIn: 0
PreviewTime: 61540
Countdown: 0
SampleSet: Soft
StackLeniency: 0.3
Mode: 0
LetterboxInBreaks: 0
WidescreenStoryboard: 1

[Editor]
Bookmarks: 7540,13540,19540,25540,31540,37540,43540,49540,55540,63031,69031,75031,81031,87031
DistanceSpacing: 0.7
BeatDivisor: 4
GridSize: 4
TimelineZoom: 2.1

[Metadata]
Title:Ju Tou San Chi Tian Qi Qing
TitleUnicode:舉頭三尺天氣晴
Artist:Paroto
ArtistUnicode:パロト
Creator:DigiDrake
Version:Flask's Insane
Source:家有大貓
Tags:jiā yǒu dà māo jia you da mao mau Nviek5 クエン酸p 晴空和音 Chinese Video Game Nekojishi Triodust KuensanP Parrot A Sunny Day is Watching over You (Vocal) 空氣載體 Gay Yaoi Bara Furry Bearizm Glaceon KittyAdventure Flask
BeatmapID:2108002
BeatmapSetID:929378

[Difficulty]
HPDrainRate:5
CircleSize:4
OverallDifficulty:7.5
ApproachRate:8.5
SliderMultiplier:1.7
SliderTickRate:1

[Events]
//Background and Video events
Video,0,"bara.avi"
0,0,"kitties.jpg",0,0
//Break Periods
//Storyboard Layer 0 (Background)
//Storyboard Layer 1 (Fail)
//Storyboard Layer 2 (Pass)
//Storyboard Layer 3 (Foreground)
//Storyboard Layer 4 (Overlay)
//Storyboard Sound Samples

[TimingPoints]
1540,375,4,2,1,25,1,0
1540,-166.666666666667,4,2,1,25,0,0
7540,-133.333333333333,4,2,3,25,0,0
12790,-100,4,2,2,40,0,0
13540,-100,4,2,2,60,0,0
13821,-100,4,2,1,60,0,0
13915,-100,4,2,1,60,0,0
18977,-100,4,2,2,60,0,0
19540,-100,4,2,2,60,0,0
19821,-100,4,2,1,60,0,0
24977,-100,4,2,2,60,0,0
25540,-100,4,2,1,60,0,0
36790,-100,4,2,2,60,0,0
37540,-100,4,2,1,60,0,0
49540,-125,4,2,1,30,0,0
61540,-125,4,2,2,60,0,0
62665,-66.6666666666667,4,2,1,60,0,0
63031,375,4,2,2,70,1,0
63031,-100,4,2,2,70,0,1
63218,-100,4,2,1,70,0,1
63406,-100,4,2,1,70,0,1
68468,-100,4,2,2,70,0,1
68843,-100,4,2,1,70,0,1
69031,-100,4,2,2,70,0,1
69312,-100,4,2,1,70,0,1
69406,-100,4,2,1,70,0,1
74281,-100,4,2,2,70,0,1
74656,-83.3333333333333,4,2,2,70,0,1
75031,-100,4,2,2,70,0,1
75406,-100,4,2,1,70,0,1
80468,-100,4,2,2,70,0,1
81218,-100,4,2,1,70,0,1
81406,-100,4,2,1,70,0,1
86468,-100,4,2,2,70,0,1
87031,-133.333333333333,4,2,1,35,0,0
91343,-133.333333333333,4,2,1,5,0,0

[Colours]
Combo1 : 207,172,151
Combo2 : 228,163,105
Combo3 : 225,204,134

[HitObjects]
202,49,1540,6,0,P|184:90|206:153,1,101.999996887207,6|0,0:0|0:0,0:0:0:0:
259,197,2102,1,0,0:0:0:0:
259,197,2477,1,2,0:0:0:0:
228,272,2665,2,0,L|221:331,1,50.9999984436036,2|0,0:0|0:0,0:0:0:0:
46,362,3040,6,0,P|64:302|152:312,1,152.999995330811,2|0,0:0|0:0,0:0:0:0:
211,348,3790,2,0,L|275:337,1,50.9999984436036,2|0,0:0|0:0,0:0:0:0:
335,374,4165,2,0,L|345:321,1,50.9999984436036,2|0,0:0|0:0,0:0:0:0:
362,244,4540,5,2,0:0:0:0:
464,357,4915,1,0,0:0:0:0:
208,275,5290,1,0,0:0:0:0:
146,222,5477,2,0,L|84:214,1,50.9999984436036,0|0,0:0|0:0,0:0:0:0:
208,275,5852,1,2,0:0:0:0:
182,146,6040,5,2,0:0:0:0:
182,146,6415,2,0,P|212:102|270:100,1,101.999996887207,2|2,0:0|0:0,0:0:0:0:
327,138,6977,2,0,L|433:131,1,101.999996887207,2|0,0:0|0:0,0:0:0:0:
461,213,7540,6,0,P|492:196|508:168,1,63.7500024318696,10|0,3:1|0:0,0:0:0:0:
408,47,7915,2,0,P|377:64|361:92,1,63.7500024318696,10|0,3:1|0:0,0:0:0:0:
317,217,8290,2,0,L|188:206,1,127.500004863739,10|10,3:1|3:1,0:0:0:0:
131,281,8852,1,2,0:0:0:0:
49,153,9040,6,0,P|39:120|49:83,1,63.7500024318696,10|0,3:1|0:0,0:0:0:0:
217,65,9415,2,0,P|227:98|217:135,1,63.7500024318696,10|0,3:1|0:0,0:0:0:0:
131,281,9790,2,0,P|194:266|244:298,1,127.500004863739,10|10,3:1|3:1,0:0:0:0:
178,348,10352,1,2,0:1:0:0:
367,355,10540,5,10,3:1:0:0:
456,345,10727,1,8,0:1:0:0:
511,275,10915,1,8,3:1:0:0:
501,186,11102,1,8,0:1:0:0:
431,130,11290,1,8,3:1:0:0:
342,141,11477,1,8,0:1:0:0:
287,210,11665,1,8,3:1:0:0:
297,299,11852,1,8,0:1:0:0:
416,274,12040,5,10,3:1:0:0:
436,258,12134,1,8,0:1:0:0:
438,232,12228,1,8,0:1:0:0:
421,213,12321,1,8,0:1:0:0:
396,211,12415,1,8,3:1:0:0:
376,227,12509,1,8,0:1:0:0:
374,253,12603,1,8,0:1:0:0:
391,272,12696,1,8,0:1:0:0:
409,244,12790,6,0,L|454:254,1,42.5,8|8,3:1|0:1,0:0:0:0:
309,358,12977,2,0,L|318:302,1,42.5,8|8,3:1|0:1,0:0:0:0:
196,316,13165,2,0,L|203:358,1,42.5,8|8,3:1|0:1,0:0:0:0:
103,244,13352,2,2,L|58:254,1,42.5,8|8,3:1|0:1,0:0:0:0:
30,141,13540,6,0,P|74:107|154:116,1,127.5,12|0,3:1|0:0,0:0:0:0:
163,125,13915,1,8,3:2:0:0:
176,289,14102,2,0,L|89:279,1,85,8|0,0:3|0:0,0:0:0:0:
241,206,14477,1,8,0:3:0:0:
19,337,14665,2,0,P|65:320|132:362,1,127.5,8|0,3:2|0:0,0:0:0:0:
205,373,15040,6,0,L|297:363,1,85,12|0,0:3|0:0,0:0:0:0:
313,353,15321,1,0,0:0:0:0:
328,332,15415,1,8,3:2:0:0:
329,306,15508,1,0,0:0:0:0:
320,281,15602,1,8,0:3:0:0:
252,188,15790,5,0,0:0:0:0:
428,253,15977,1,8,0:3:0:0:
320,281,16165,1,8,3:2:0:0:
357,177,16352,1,0,0:0:0:0:
184,35,16540,6,0,P|142:72|163:140,1,127.5,4|0,3:1|0:0,0:0:0:0:
179,148,16915,1,8,3:2:0:0:
357,177,17102,2,0,L|369:89,1,85,8|0,0:3|0:0,0:0:0:0:
262,226,17477,1,8,0:3:0:0:
461,244,17665,2,0,B|385:237|416:279|326:265,1,127.5,8|0,3:2|0:0,0:0:0:0:
297,337,18040,6,0,P|252:331|210:362,1,85,4|0,3:1|0:0,0:0:0:0:
196,362,18321,1,0,0:0:0:0:
169,360,18415,1,8,3:2:0:0:
116,205,18602,2,0,L|202:211,1,85
52,292,18977,5,12,3:0:0:0:
18,272,19071,1,12,3:0:0:0:
0,237,19165,1,12,3:0:0:0:
0,199,19258,1,12,3:0:0:0:
17,164,19352,1,12,3:0:0:0:
225,45,19540,6,0,P|215:100|150:120,1,127.5,4|0,3:1|0:0,0:0:0:0:
131,111,19915,1,8,3:2:0:0:
284,185,20102,2,0,L|374:176,1,85,8|0,0:3|0:0,0:0:0:0:
456,62,20477,1,8,0:3:0:0:
428,255,20665,2,0,B|462:199|462:199|458:125,1,127.5,8|0,3:2|0:0,0:0:0:0:
456,62,21040,6,0,B|415:71|415:71|372:56,1,85,12|0,0:3|0:0,0:0:0:0:
349,49,21321,1,0,0:0:0:0:
323,50,21415,1,8,3:2:0:0:
297,50,21508,1,0,0:2:0:0:
271,51,21602,1,8,0:3:0:0:
266,173,21790,5,0,0:0:0:0:
169,66,21977,1,8,0:3:0:0:
125,209,22165,1,8,3:2:0:0:
276,183,22352,1,0,0:2:0:0:
370,340,22540,6,0,L|389:206,1,127.5,4|0,3:1|0:0,0:0:0:0:
392,188,22915,1,8,3:2:0:0:
198,290,23102,2,0,L|286:278,1,85,8|0,0:3|0:0,0:0:0:0:
463,327,23477,1,8,0:3:0:0:
185,369,23665,2,0,P|133:344|120:275,1,127.5,8|0,3:2|0:0,0:0:0:0:
163,220,24040,6,0,L|158:135,1,85,4|0,3:1|0:0,0:0:0:0:
156,109,24321,1,0,0:2:0:0:
154,83,24415,1,8,3:2:0:0:
152,57,24508,1,0,0:2:0:0:
150,31,24602,1,8,0:3:0:0:
262,116,24790,1,0,0:2:0:0:
54,81,24977,5,0,1:0:0:0:
42,165,25165,1,12,3:0:0:0:
30,249,25352,2,0,L|43:302,1,42.5,12|12,3:0|3:0,0:0:0:0:
85,360,25540,6,0,P|130:305|225:320,1,170,4|8,3:2|0:0,0:0:0:0:
167,377,26102,1,2,1:0:0:0:
164,212,26290,1,2,0:0:0:0:
167,377,26477,2,0,L|261:364,1,85,2|8,0:0|0:0,0:0:0:0:
90,296,26852,1,2,0:0:0:0:
365,355,27040,6,0,P|382:320|374:266,1,85,2|0,0:0|0:0,0:0:0:0:
251,195,27415,2,0,P|234:230|242:284,1,85,8|0,0:0|0:0,0:0:0:0:
461,161,27790,1,0,0:0:0:0:
378,275,27977,1,0,1:0:0:0:
251,195,28165,2,0,L|158:182,1,85,8|0,0:0|0:0,0:0:0:0:
35,60,28540,6,0,B|74:9|148:40|148:40|146:71|117:78,1,170,4|8,0:1|0:0,0:0:0:0:
68,169,29102,1,2,1:0:0:0:
235,108,29290,1,2,0:0:0:0:
185,287,29477,2,0,L|174:371,1,85,2|8,0:0|0:0,0:0:0:0:
170,195,29852,1,2,0:0:0:0:
404,300,30040,5,2,0:0:0:0:
305,250,30227,1,0,0:0:0:0:
288,355,30415,2,0,P|324:315|292:241,1,127.5,8|0,0:0|0:0,0:0:0:0:
241,208,30790,2,0,L|257:122,1,85,0|0,0:0|1:0,0:0:0:0:
220,50,31165,1,8,0:0:0:0:
334,158,31352,1,0,1:0:0:0:
160,255,31540,6,0,B|112:248|112:248|72:260|72:260|-11:250,1,170,4|8,0:1|0:0,0:0:0:0:
120,332,32102,1,2,1:0:0:0:
60,175,32290,1,2,0:0:0:0:
120,332,32477,2,0,L|210:342,1,85,2|8,0:0|0:0,0:0:0:0:
26,273,32852,1,2,0:0:0:0:
149,134,33040,6,0,P|161:176|146:218,1,85,0|0,0:0|1:0,0:0:0:0:
283,315,33415,2,0,P|271:273|286:231,1,85,10|0,0:0|0:0,0:0:0:0:
266,149,33790,1,2,0:0:0:0:
183,295,33977,1,2,1:0:0:0:
361,356,34165,2,0,L|448:348,1,85,10|0,0:0|1:0,0:0:0:0:
501,211,34540,6,0,B|468:145|397:185|397:185|413:211|399:248,1,170,6|8,0:1|0:0,0:0:0:0:
373,86,35102,1,2,1:0:0:0:
252,222,35290,2,0,P|308:255|257:217,1,170,2|8,0:0|0:0,0:0:0:0:
373,86,35852,1,2,0:0:0:0:
164,122,36040,6,0,P|144:144|167:126,1,85,2|0,1:1|0:0,0:0:0:0:
373,86,36415,2,0,P|399:98|376:79,1,85,10|0,0:0|1:0,0:0:0:0:
296,259,36790,2,0,P|288:230|288:259,1,85,10|8,3:0|3:0,0:0:0:0:
271,45,37165,2,0,P|259:59|258:39,2,42.5,10|8|8,3:0|3:0|3:0,0:0:0:0:
279,150,37540,6,0,B|175:133|219:187|95:164,1,170,4|8,3:2|0:0,0:0:0:0:
65,248,38102,1,2,1:0:0:0:
75,77,38290,1,2,0:0:0:0:
65,248,38477,2,0,L|82:336,1,85,2|8,0:0|0:0,0:0:0:0:
216,159,38852,1,2,1:0:0:0:
219,359,39040,6,0,B|265:366|265:366|312:348,1,85,2|0,0:0|0:0,0:0:0:0:
396,191,39415,2,0,B|350:184|350:184|303:202,1,85,8|0,0:0|0:0,0:0:0:0:
216,159,39790,1,0,0:0:0:0:
360,274,39977,1,0,1:0:0:0:
181,344,40165,2,0,L|93:335,1,85,8|0,0:0|0:0,0:0:0:0:
54,106,40540,6,0,B|68:91|75:68|75:68|85:194,1,170,4|8,0:1|0:0,0:0:0:0:
55,273,41102,1,2,1:0:0:0:
169,131,41290,1,2,0:0:0:0:
245,184,41477,2,0,L|333:173,1,85,2|8,0:0|0:0,0:0:0:0:
398,348,41852,1,2,0:0:0:0:
439,190,42040,6,0,B|453:230|453:230|442:280,1,85,2|0,0:0|0:0,0:0:0:0:
227,325,42415,2,0,P|269:287|349:306,1,127.5,10|0,0:0|0:0,0:0:0:0:
398,348,42790,2,0,L|407:391,2,42.5,0|0|0,0:0|0:0|1:0,0:0:0:0:
439,190,43165,1,8,0:0:0:0:
296,360,43352,1,0,0:0:0:0:
169,257,43540,6,0,L|190:84,1,170,4|8,0:1|0:0,0:0:0:0:
134,17,44102,1,2,1:0:0:0:
267,142,44290,1,2,0:0:0:0:
94,202,44477,2,0,L|-9:189,1,85,2|8,0:0|0:0,0:0:0:0:
160,123,44852,1,2,0:0:0:0:
104,303,45040,6,0,P|144:289|194:304,1,85,0|0,0:0|1:0,0:0:0:0:
371,358,45415,2,0,L|459:349,1,85,10|0,0:0|0:0,0:0:0:0:
290,195,45790,2,0,B|279:244|279:244|296:284,1,85,2|2,0:0|1:0,0:0:0:0:
490,157,46165,2,0,P|466:111|394:99,1,127.5,10|0,0:0|0:0,0:0:0:0:
316,109,46540,6,0,B|270:123|240:82|240:82|204:112|161:96,1,170,6|8,0:1|0:0,0:0:0:0:
228,183,47102,1,2,1:0:0:0:
109,21,47290,2,0,P|72:75|106:175,1,170,2|8,0:0|0:0,0:0:0:0:
228,183,47852,1,2,1:0:0:0:
26,110,48040,6,0,L|121:96,1,85,2|0,0:1|1:0,0:0:0:0:
182,298,48415,2,0,L|87:312,1,85,10|0,0:0|0:0,0:0:0:0:
395,91,48790,2,0,P|420:122|419:166,1,85,2|0,0:0|1:0,0:0:0:0:
349,358,49165,2,0,P|324:327|325:283,1,85,10|8,0:0|0:2,0:0:0:0:
370,224,49446,1,8,0:2:0:0:
370,224,49540,6,0,B|304:246|304:246|239:210,1,136,6|0,0:2|0:0,0:0:0:0:
171,273,50102,2,0,L|153:128,1,136,2|0,0:0|0:0,0:0:0:0:
220,68,50665,1,0,0:0:0:0:
301,115,50852,2,0,L|344:109,2,34,0|0|0,0:0|0:0|0:0,0:0:0:0:
166,249,51415,5,0,0:0:0:0:
75,221,51602,2,0,L|35:217,2,34,0|0|2,0:0|0:0|0:0,0:0:0:0:
166,249,51977,1,0,0:0:0:0:
118,331,52165,2,0,P|170:344|219:326,1,102,0|0,0:0|0:0,0:0:0:0:
231,324,52540,6,0,L|308:338,1,68,6|0,0:1|0:0,0:0:0:0:
357,261,52915,2,0,L|330:187,1,68,2|2,0:0|0:0,0:0:0:0:
239,183,53290,2,0,L|188:242,1,68,2|0,0:0|0:0,0:0:0:0:
275,260,53665,1,2,0:0:0:0:
116,298,53852,1,2,0:0:0:0:
116,298,53946,1,0,0:0:0:0:
116,298,54040,6,0,P|85:256|110:169,1,136,2|2,0:0|0:0,0:0:0:0:
79,94,54602,2,0,L|66:49,1,34,0|0,0:0|0:0,0:0:0:0:
79,94,54790,2,0,L|162:83,1,68,2|0,0:0|0:0,0:0:0:0:
211,155,55165,2,0,L|294:166,1,68,2|2,0:0|0:0,0:0:0:0:
483,118,55540,6,0,B|420:82|420:82|353:111,1,136,6|0,0:1|0:0,0:0:0:0:
414,186,56102,1,2,0:0:0:0:
414,186,56196,2,0,L|400:299,1,102,0|0,0:0|0:0,0:0:0:0:
342,362,56665,1,2,0:0:0:0:
263,308,56852,2,0,L|221:311,2,34,2|0|2,0:0|0:0|0:0,0:0:0:0:
78,259,57415,5,0,0:0:0:0:
147,194,57602,2,0,L|196:200,2,34,0|0|0,0:0|0:0|0:0,0:0:0:0:
87,119,57977,1,0,0:0:0:0:
78,259,58165,2,0,L|91:339,1,68,0|0,0:0|0:0,0:0:0:0:
243,257,58540,6,0,B|296:252|296:252|314:266|314:266|375:259,1,136,6|0,0:1|0:0,0:0:0:0:
449,316,59102,2,0,P|468:274|445:191,1,136,2|0,0:0|0:0,0:0:0:0:
350,173,59665,1,2,0:0:0:0:
403,94,59852,1,2,0:0:0:0:
235,14,60040,1,6,0:2:0:0:
235,14,60415,5,2,0:0:0:0:
173,86,60602,2,0,L|181:133,1,34,0|0,0:0|0:0,0:0:0:0:
173,86,60790,2,0,B|82:77|82:77|105:204,1,204,0|0,0:0|0:0,0:0:0:0:
86,313,61540,5,8,1:3:0:0:
136,331,61633,1,8,3:0:0:0:
188,318,61727,1,8,3:0:0:0:
213,270,61821,1,8,3:0:0:0:
201,216,61915,1,8,3:0:0:0:
346,329,62102,5,10,1:3:0:0:
367,338,62196,1,8,3:0:0:0:
390,340,62290,1,8,3:0:0:0:
411,330,62383,1,8,3:0:0:0:
426,312,62477,1,10,3:0:0:0:
499,95,62665,6,0,P|446:69|370:158,1,191.250007295609,6|0,3:2|0:0,0:0:0:0:
472,226,63031,6,0,L|442:135,1,85,14|0,3:1|0:0,0:0:0:0:
445,145,63312,1,0,0:0:0:0:
445,145,63406,1,8,3:2:0:0:
269,60,63593,2,0,B|259:98|259:98|276:150,1,85,10|0,0:3|0:0,0:0:0:0:
351,195,63968,1,10,0:3:0:0:
200,282,64156,2,0,L|108:272,1,85,10|0,3:2|0:0,0:0:0:0:
309,371,64531,6,0,P|319:329|301:280,1,85,14|0,0:3|0:0,0:0:0:0:
307,289,64812,1,0,0:0:0:0:
307,289,64906,1,8,3:2:0:0:
159,359,65093,1,8,0:3:0:0:
52,203,65281,2,0,B|37:161|37:161|46:115,1,85,2|8,0:0|0:3,0:0:0:0:
227,101,65656,2,0,B|242:143|242:143|233:189,1,85,10|0,3:2|0:0,0:0:0:0:
158,268,66031,6,0,L|134:128,1,127.5,6|0,3:1|0:0,0:0:0:0:
125,71,66406,2,0,B|144:27|144:27|195:9,1,85,10|8,3:2|0:3,0:0:0:0:
33,133,66781,1,2,0:2:0:0:
234,182,66968,2,0,L|338:175,1,85,10|8,0:3|3:2,0:0:0:0:
129,200,67343,1,2,0:0:0:0:
328,331,67531,6,0,P|281:287|217:299,1,127.5,4|0,3:1|0:0,0:0:0:0:
161,338,67906,2,0,L|70:329,1,85,10|8,3:2|0:3,0:0:0:0:
354,229,68281,1,2,0:0:0:0:
266,366,68468,1,14,3:3:0:0:
266,366,68562,1,12,3:3:0:0:
266,366,68656,1,12,3:3:0:0:
171,223,68843,1,2,0:0:0:0:
418,156,69031,6,0,B|441:195|441:195|432:294,1,127.5,14|0,3:1|0:0,0:0:0:0:
426,349,69406,2,0,L|330:332,1,85,10|8,3:2|0:3,0:0:0:0:
257,197,69781,2,0,L|168:202,1,85,2|8,0:0|0:3,0:0:0:0:
69,317,70156,1,10,3:2:0:0:
24,93,70343,1,2,0:0:0:0:
24,93,70437,1,0,0:0:0:0:
24,93,70531,6,0,P|48:45|128:40,1,127.5,14|0,0:3|0:0,0:0:0:0:
178,78,70906,2,0,B|235:72|235:72|249:80|249:80|308:73,1,127.5,10|0,3:2|0:0,0:0:0:0:
377,111,71281,1,2,0:0:0:0:
485,30,71468,1,10,0:3:0:0:
448,216,71656,1,10,3:2:0:0:
289,158,71843,1,2,0:0:0:0:
371,30,72031,6,0,B|386:71|386:71|375:123,1,85,6|0,3:1|0:0,0:0:0:0:
207,286,72406,2,0,B|192:245|192:245|203:193,1,85,10|8,3:2|0:3,0:0:0:0:
440,165,72781,6,0,B|411:198|411:198|361:214,1,85,2|8,0:0|0:3,0:0:0:0:
137,150,73156,2,0,B|165:116|165:116|215:100,1,85,10|0,3:2|0:0,0:0:0:0:
358,293,73531,6,0,B|314:285|314:285|275:249,1,85,6|0,3:1|0:0,0:0:0:0:
219,22,73906,2,0,B|262:29|262:29|301:65,1,85,10|8,3:2|0:3,0:0:0:0:
207,286,74281,5,2,3:0:0:0:
371,30,74468,1,4,3:0:0:0:
289,158,74656,2,0,B|203:138|224:190|121:161,1,152.999995330811,10|12,3:2|3:0,0:0:0:0:
82,104,75031,6,0,P|112:157|59:248,1,170,14|8,3:1|3:2,0:0:0:0:
30,169,75593,1,10,0:3:0:0:
180,97,75781,1,2,0:0:0:0:
16,53,75968,1,10,0:3:0:0:
23,266,76156,2,0,L|134:253,1,85,10|0,3:2|0:0,0:0:0:0:
328,354,76531,6,0,P|272:298|185:324,1,170,14|8,0:3|3:2,0:0:0:0:
250,377,77093,1,10,0:3:0:0:
370,265,77281,1,2,0:2:0:0:
189,196,77468,1,10,0:3:0:0:
264,277,77656,2,0,B|289:213|289:213|274:140,1,127.5,8|0,3:2|0:0,0:0:0:0:
218,102,78031,6,0,P|256:78|310:86,1,85,6|0,3:1|0:0,0:0:0:0:
500,160,78406,2,0,P|462:184|408:176,1,85,10|8,3:2|0:3,0:0:0:0:
387,37,78781,1,2,0:2:0:0:
460,272,78968,1,10,0:3:0:0:
277,155,79156,1,10,3:2:0:0:
445,106,79343,1,2,0:0:0:0:
343,266,79531,6,0,L|355:357,1,85,4|0,3:1|0:0,0:0:0:0:
121,295,79906,2,0,P|165:248|237:254,1,127.5,10|0,3:2|0:2,0:0:0:0:
241,258,80281,1,2,0:0:0:0:
45,240,80468,1,2,1:0:0:0:
199,328,80656,1,8,3:2:0:0:
199,328,80749,1,12,3:3:0:0:
199,328,80843,1,12,3:3:0:0:
98,164,81031,6,0,L|107:72,1,85,14|0,3:1|0:0,0:0:0:0:
267,43,81406,2,0,P|280:84|268:129,1,85,10|8,3:2|0:3,0:0:0:0:
130,263,81781,2,0,L|41:251,1,85,2|8,0:0|0:3,0:0:0:0:
344,231,82156,1,10,3:2:0:0:
235,359,82343,1,10,0:3:0:0:
235,359,82531,6,0,B|232:311|232:311|246:286|246:286|237:220,1,127.5,14|0,0:3|0:0,0:0:0:0:
199,173,82906,2,0,P|206:127|240:95,1,85,10|8,3:2|0:3,0:0:0:0:
402,330,83281,2,0,P|358:346|313:333,1,85,2|8,0:0|0:3,0:0:0:0:
280,163,83656,1,10,3:2:0:0:
100,188,83843,1,2,0:2:0:0:
149,375,84031,6,0,L|160:285,1,85,4|0,3:1|0:0,0:0:0:0:
159,290,84312,1,0,0:0:0:0:
159,290,84406,1,8,3:2:0:0:
21,140,84593,2,0,B|5:183|5:183|21:234,1,85,8|0,0:3|0:2,0:0:0:0:
190,199,84968,1,8,0:3:0:0:
281,348,85156,2,0,L|375:340,1,85,8|8,3:2|0:3,0:0:0:0:
483,198,85531,6,0,P|444:153|377:153,1,127.5,4|0,3:1|0:0,0:0:0:0:
311,191,85906,2,0,L|317:247,2,42.5,10|0|8,3:2|0:2|0:3,0:0:0:0:
472,69,86281,1,2,0:2:0:0:
409,227,86468,1,2,1:0:0:0:
238,140,86656,1,8,3:2:0:0:
130,233,86843,2,0,L|74:227,1,42.5,12|12,3:0|3:0,0:0:0:0:
64,254,87031,6,0,L|45:125,2,127.500004863739,6|2|2,0:0|0:0|0:0,0:0:0:0:
52,344,88156,1,2,0:0:0:0:
52,344,88343,2,0,P|94:364|176:337,1,127.500004863739,2|0,0:0|0:0,0:0:0:0:
250,371,88906,5,2,0:0:0:0:
436,265,89281,1,2,0:0:0:0:
250,371,89656,2,0,L|237:301,1,63.7500024318696,2|2,0:0|0:0,0:0:0:0:
256,192,90031,12,0,91343,0:0:0:0:
