osu file format v14

[General]
AudioFilename: audio.mp3
AudioLeadIn: 0
PreviewTime: 61540
Countdown: 0
SampleSet: Soft
StackLeniency: 0.3
Mode: 0
LetterboxInBreaks: 0
WidescreenStoryboard: 0

[Editor]
Bookmarks: 7540,13540,19540,25540,31540,37540,43540,49540,55540,63031,69031,75031,81031,87031
DistanceSpacing: 0.6
BeatDivisor: 4
GridSize: 4
TimelineZoom: 2.1

[Metadata]
Title:Ju Tou San Chi Tian Qi Qing
TitleUnicode:舉頭三尺天氣晴
Artist:Paroto
ArtistUnicode:パロト
Creator:DigiDrake
Version:DigiBear's Bara Cats
Source:家有大貓
Tags:jiā yǒu dà māo jia you da mao mau Nviek5 クエン酸p 晴空和音 Chinese Video Game Nekojishi Triodust KuensanP Parrot A Sunny Day is Watching over You (Vocal) 空氣載體 Gay Yaoi Bara Furry Bearizm Glaceon KittyAdventure Flask
BeatmapID:1941021
BeatmapSetID:929378

[Difficulty]
HPDrainRate:5.5
CircleSize:4.1
OverallDifficulty:8.3
ApproachRate:9.3
SliderMultiplier:1.9
SliderTickRate:1

[Events]
//Background and Video events
Video,0,"bara.avi"
0,0,"kitties.jpg",0,0
//Break Periods
//Storyboard Layer 0 (Background)
//Storyboard Layer 1 (Fail)
//Storyboard Layer 2 (Pass)
//Storyboard Layer 3 (Foreground)
//Storyboard Layer 4 (Overlay)
//Storyboard Sound Samples

[TimingPoints]
1540,375,4,2,1,25,1,0
1540,-142.857142857143,4,2,1,25,0,0
1727,-142.857142857143,4,2,1,5,0,0
2477,-142.857142857143,4,2,1,25,0,0
3040,-129.87012987013,4,2,1,25,0,0
3133,-129.87012987013,4,2,1,5,0,0
3790,-200,4,2,1,25,0,0
4071,-200,4,2,1,5,0,0
4165,-200,4,2,1,25,0,0
4446,-200,4,2,1,5,0,0
4540,-256.410256410256,4,2,1,25,0,0
4633,-256.410256410256,4,2,1,5,0,0
5852,-256.410256410256,4,2,1,25,0,0
6040,-111.111111111111,4,2,1,25,0,0
6321,-111.111111111111,4,2,1,5,0,0
6415,-111.111111111111,4,2,1,25,0,0
6696,-111.111111111111,4,2,1,5,0,0
6790,-111.111111111111,4,2,1,25,0,0
6977,-125,4,2,1,25,0,0
7349,-125,4,2,1,5,0,0
7540,-100,4,2,3,25,0,0
7821,-100,4,2,3,5,0,0
7915,-100,4,2,3,25,0,0
8196,-100,4,2,3,5,0,0
8290,-100,4,2,3,25,0,0
8571,-100,4,2,3,5,0,0
8665,-100,4,2,3,25,0,0
9321,-100,4,2,3,5,0,0
9415,-100,4,2,3,25,0,0
9696,-100,4,2,3,5,0,0
9790,-100,4,2,3,25,0,0
10071,-100,4,2,3,5,0,0
10165,-100,4,2,3,25,0,0
12040,-100,4,2,3,30,0,0
12977,-83.3333333333333,4,2,3,35,0,0
13540,-71.4285714285714,4,2,2,60,0,0
13821,-71.4285714285714,4,2,1,60,0,0
13915,-83.3333333333333,4,2,1,60,0,0
14665,-62.5,4,2,1,60,0,0
15040,-71.4285714285714,4,2,1,60,0,0
15415,-83.3333333333333,4,2,1,60,0,0
16540,-62.5,4,2,1,60,0,0
16915,-83.3333333333333,4,2,1,60,0,0
17665,-62.5,4,2,1,60,0,0
18040,-71.4285714285714,4,2,1,60,0,0
18321,-83.3333333333333,4,2,1,60,0,0
18977,-83.3333333333333,4,2,2,60,0,0
19540,-71.4285714285714,4,2,2,60,0,0
19821,-71.4285714285714,4,2,1,60,0,0
19915,-83.3333333333333,4,2,1,60,0,0
20665,-62.5,4,2,1,60,0,0
21040,-71.4285714285714,4,2,1,60,0,0
21415,-83.3333333333333,4,2,1,60,0,0
22540,-62.5,4,2,1,60,0,0
22915,-83.3333333333333,4,2,1,60,0,0
23665,-62.5,4,2,1,60,0,0
24040,-71.4285714285714,4,2,1,60,0,0
24415,-83.3333333333333,4,2,1,60,0,0
24977,-83.3333333333333,4,2,2,60,0,0
25540,-83.3333333333333,4,2,1,60,0,0
25915,-90.9090909090909,4,2,1,60,0,0
27321,-90.9090909090909,4,2,1,5,0,0
27415,-90.9090909090909,4,2,1,60,0,0
28446,-90.9090909090909,4,2,1,5,0,0
28540,-90.9090909090909,4,2,1,60,0,0
28821,-90.9090909090909,4,2,1,5,0,0
28915,-90.9090909090909,4,2,1,60,0,0
30321,-90.9090909090909,4,2,1,5,0,0
30415,-90.9090909090909,4,2,1,60,0,0
31821,-90.9090909090909,4,2,1,5,0,0
31915,-90.9090909090909,4,2,1,60,0,0
33696,-90.9090909090909,4,2,1,5,0,0
33790,-90.9090909090909,4,2,1,60,0,0
34821,-90.9090909090909,4,2,1,5,0,0
34915,-90.9090909090909,4,2,1,60,0,0
36790,-90.9090909090909,4,2,2,60,0,0
37540,-83.3333333333333,4,2,1,60,0,0
37821,-83.3333333333333,4,2,1,5,0,0
37915,-90.9090909090909,4,2,1,60,0,0
39321,-90.9090909090909,4,2,1,5,0,0
39415,-90.9090909090909,4,2,1,60,0,0
40821,-90.9090909090909,4,2,1,5,0,0
40915,-90.9090909090909,4,2,1,60,0,0
42321,-90.9090909090909,4,2,1,5,0,0
42415,-90.9090909090909,4,2,1,60,0,0
43821,-90.9090909090909,4,2,1,5,0,0
43915,-90.9090909090909,4,2,1,60,0,0
45133,-90.9090909090909,4,2,1,5,0,0
45227,-90.9090909090909,4,2,1,60,0,0
45696,-90.9090909090909,4,2,1,5,0,0
45790,-90.9090909090909,4,2,1,60,0,0
46165,-83.3333333333333,4,2,1,60,0,0
46446,-83.3333333333333,4,2,1,5,0,0
46540,-76.9230769230769,4,2,1,60,0,0
46821,-76.9230769230769,4,2,1,5,0,0
46915,-90.9090909090909,4,2,1,60,0,0
47290,-83.3333333333333,4,2,1,60,0,0
47571,-83.3333333333333,4,2,1,5,0,0
47665,-100,4,2,1,60,0,0
48040,-76.9230769230769,4,2,1,60,0,0
48415,-83.3333333333333,4,2,1,60,0,0
48696,-83.3333333333333,4,2,1,5,0,0
48790,-90.9090909090909,4,2,1,60,0,0
49540,-100,4,2,1,50,0,0
52446,-90.9090909090909,4,2,1,50,0,0
52915,-100,4,2,1,50,0,0
60086,-100,4,2,1,5,0,0
60415,-100,4,2,1,50,0,0
61540,-100,4,2,2,50,0,0
62665,-200,4,2,1,60,0,0
63031,375,4,2,1,70,1,0
63031,-62.5,4,2,2,70,0,1
63312,-62.5,4,2,1,70,0,1
63406,-83.3333333333333,4,2,1,70,0,1
63593,-58.8235294117647,4,2,1,70,0,1
63874,-83.3333333333333,4,2,1,70,0,1
64156,-71.4285714285714,4,2,1,70,0,1
64531,-62.5,4,2,1,70,0,1
64906,-45.4545454545455,4,2,1,70,0,1
65093,-50,4,2,1,70,0,1
65281,-62.5,4,2,1,70,0,1
65656,-55.5555555555556,4,2,1,70,0,1
66031,-52.6315789473684,4,2,1,70,0,1
66312,-52.6315789473684,4,2,1,70,0,1
66781,-71.4285714285714,4,2,1,70,0,1
67156,-62.5,4,2,1,70,0,1
67531,-52.6315789473684,4,2,1,70,0,1
67906,-58.8235294117647,4,2,1,70,0,1
68468,-58.8235294117647,4,2,2,70,0,1
68843,-71.4285714285714,4,2,1,70,0,1
69031,-62.5,4,2,2,70,0,1
69312,-62.5,4,2,1,70,0,1
69406,-55.5555555555556,4,2,1,70,0,1
69781,-62.5,4,2,1,70,0,1
70156,-55.5555555555556,4,2,1,70,0,1
70531,-52.6315789473684,4,2,1,70,0,1
70906,-55.5555555555556,4,2,1,70,0,1
71093,-62.5,4,2,1,70,0,1
71281,-71.4285714285714,4,2,1,70,0,1
71656,-55.5555555555556,4,2,1,70,0,1
72031,-62.5,4,2,1,70,0,1
72406,-62.5,4,2,1,70,0,1
72593,-55.5555555555556,4,2,1,70,0,1
72781,-62.5,4,2,1,70,0,1
73531,-55.5555555555556,4,2,1,70,0,1
73906,-55.5555555555556,4,2,1,70,0,1
74468,-55.5555555555556,4,2,2,70,0,1
75031,-55.5555555555556,4,2,2,70,0,1
75312,-55.5555555555556,4,2,1,70,0,1
75406,-55.5555555555556,4,2,1,70,0,1
76906,-71.4285714285714,4,2,1,70,0,1
77468,-58.8235294117647,4,2,1,70,0,1
78031,-52.6315789473684,4,2,1,70,0,1
78406,-50,4,2,1,70,0,1
78687,-55.5555555555556,4,2,1,70,0,1
79531,-50,4,2,1,70,0,1
79906,-50,4,2,1,70,0,1
80468,-50,4,2,2,70,0,1
81031,-55.5555555555556,4,2,2,70,0,1
81312,-55.5555555555556,4,2,1,70,0,1
81406,-62.5,4,2,1,70,0,1
82343,-55.5555555555556,4,2,1,70,0,1
82531,-50,4,2,1,70,0,1
82906,-55.5555555555556,4,2,1,70,0,1
84031,-50,4,2,1,70,0,1
84406,-62.5,4,2,1,70,0,1
84781,-52.6315789473684,4,2,1,70,0,1
85531,-50,4,2,1,70,0,1
85906,-52.6315789473684,4,2,1,70,0,1
86468,-52.6315789473684,4,2,2,70,0,1
87031,-153.846153846154,4,2,1,35,0,0
87312,-153.846153846154,4,2,1,5,0,0
87406,-153.846153846154,4,2,1,35,0,0
87687,-153.846153846154,4,2,1,5,0,0
87781,-153.846153846154,4,2,1,35,0,0
88062,-153.846153846154,4,2,1,5,0,0
88156,-153.846153846154,4,2,1,35,0,0
88718,-153.846153846154,4,2,1,5,0,0
88812,-153.846153846154,4,2,1,5,0,0
88906,-125,4,2,1,35,0,0
89187,-125,4,2,1,5,0,0
89281,-125,4,2,1,35,0,0
89562,-125,4,2,1,5,0,0
89656,-125,4,2,1,35,0,0
89843,-90.9090909090909,4,2,1,35,0,0
89937,-99.9999999999999,4,2,1,5,0,0

[Colours]
Combo1 : 207,172,151
Combo2 : 228,163,105
Combo3 : 225,204,134

[HitObjects]
264,250,1540,6,0,B|230:228|172:252|148:299|190:295|179:398|86:417|16:369|19:299|92:275|114:306|92:326,1,332.499989852906,6|2,0:0|0:0,0:0:0:0:
105,186,2665,1,2,0:0:0:0:
105,186,3040,6,0,B|80:154|83:116|95:89|117:70|117:70|149:74|179:95|195:122|196:158,1,256.499992172241,2|0,0:0|0:0,0:0:0:0:
195,157,3790,6,0,P|229:185|268:190,1,71.25,2|0,0:0|0:0,0:0:0:0:
255,191,4165,2,0,P|297:181|323:152,1,71.25,2|0,0:0|0:0,0:0:0:0:
317,163,4540,6,0,B|316:129|328:101|356:76|388:69|388:69|411:85|424:111|433:149|411:187,1,259.350008706208,2|2,0:0|0:0,0:0:0:0:
327,246,6040,6,0,B|280:250|251:213|251:213|227:236|192:235,1,128.249996086121,2|0,0:0|0:0,0:0:0:0:
215,232,6415,2,0,B|180:242|156:223|156:223|152:175|192:154,1,128.249996086121,2|0,0:0|0:0,0:0:0:0:
177,163,6790,1,2,0:0:0:0:
215,232,6977,2,0,B|169:258|120:233|106:195|106:195|107:233|71:264,1,190,2|0,0:0|0:0,0:0:0:0:
19,192,7540,6,0,P|13:123|65:79,1,142.5,10|0,3:1|0:0,0:0:0:0:
33,53,7915,2,0,P|97:30|154:68,1,142.5,10|0,3:1|0:0,0:0:0:0:
187,50,8290,2,0,P|255:55|299:3,1,142.5,10|0,3:1|0:0,0:0:0:0:
280,8,8665,1,10,3:1:0:0:
304,200,8852,1,2,0:0:0:0:
360,267,9040,6,0,P|308:288|235:252,1,142.5,10|0,3:1|0:0,0:0:0:0:
123,309,9415,2,0,P|192:305|235:251,1,142.5,10|0,3:1|0:0,0:0:0:0:
218,129,9790,2,0,L|238:269,1,142.5,10|0,3:1|0:0,0:0:0:0:
254,355,10165,1,10,3:1:0:0:
312,178,10352,1,2,0:1:0:0:
200,27,10540,5,10,3:1:0:0:
277,79,10727,1,8,0:1:0:0:
372,86,10915,1,8,3:1:0:0:
456,44,11102,1,8,0:1:0:0:
456,44,11290,5,8,3:1:0:0:
362,49,11477,1,8,0:1:0:0:
283,103,11665,1,8,3:1:0:0:
243,187,11852,1,8,0:1:0:0:
250,279,12040,5,10,3:1:0:0:
257,232,12133,1,8,0:1:0:0:
243,187,12227,1,8,0:1:0:0:
211,153,12321,1,8,0:1:0:0:
166,138,12415,1,8,3:1:0:0:
119,145,12508,1,8,0:1:0:0:
81,171,12602,1,8,0:1:0:0:
58,213,12696,1,8,0:1:0:0:
57,260,12790,1,8,3:1:0:0:
77,302,12883,1,8,0:1:0:0:
114,331,12977,6,0,P|108:300|118:271,1,56.9999982604981,8|8,3:1|0:1,0:0:0:0:
317,144,13165,2,0,P|346:154|366:177,1,56.9999982604981,8|8,3:1|0:1,0:0:0:0:
162,179,13352,2,0,P|185:158|215:152,1,56.9999982604981,8|8,3:1|0:1,0:0:0:0:
413,261,13540,6,0,B|434:286|446:364|382:386|382:386|390:361|372:335,1,199.499993911743,12|0,3:1|0:0,0:0:0:0:
331,270,13915,2,0,P|338:238|341:207,1,56.9999982604981,8|0,3:2|0:0,0:0:0:0:
375,42,14102,2,0,P|430:49|469:89,1,113.999996520996,8|0,0:3|0:0,0:0:0:0:
399,131,14383,1,0,0:0:0:0:
392,124,14477,2,0,P|357:126|329:139,1,56.9999982604981,8|0,0:3|0:0,0:0:0:0:
177,208,14665,2,0,B|124:212|96:163|96:163|99:200|57:242,1,152,8|0,3:2|0:0,0:0:0:0:
11,169,14946,1,0,0:0:0:0:
11,169,15040,6,0,P|61:225|36:293,1,132.999995941162,12|0,0:3|0:0,0:0:0:0:
4,337,15321,1,0,0:0:0:0:
4,337,15415,2,0,L|75:320,1,56.9999982604981,8|0,3:2|0:0,0:0:0:0:
167,234,15602,2,0,B|196:226|217:234|217:234|244:263|284:255,1,113.999996520996,8|0,0:3|0:0,0:0:0:0:
332,204,15883,1,0,0:0:0:0:
336,199,15977,2,0,P|342:167|339:142,1,56.9999982604981,8|0,0:3|0:0,0:0:0:0:
440,384,16165,2,0,P|467:367|484:348,1,56.9999982604981,8|0,3:2|0:0,0:0:0:0:
356,357,16352,2,0,P|388:361|413:358,1,56.9999982604981
512,117,16540,6,0,B|485:82|485:82|471:212,1,152,4|0,3:1|0:0,0:0:0:0:
460,271,16821,1,0,0:0:0:0:
460,271,16915,2,0,P|431:263|391:256,1,56.9999982604981,8|0,3:2|0:0,0:0:0:0:
348,150,17102,2,0,P|315:155|279:165,1,56.9999982604981,8|0,0:3|0:0,0:0:0:0:
161,130,17290,2,0,P|148:157|144:185,1,56.9999982604981
7,214,17477,2,0,P|14:243|32:266,1,56.9999982604981,8|0,0:3|0:0,0:0:0:0:
187,319,17665,2,0,B|220:307|247:263|229:222|229:222|215:251|190:255,1,152,8|0,3:2|0:0,0:0:0:0:
153,189,17946,1,0,0:0:0:0:
145,184,18040,6,0,B|110:179|84:197|84:197|74:157|27:136,1,132.999995941162,4|0,3:1|0:0,0:0:0:0:
112,45,18321,1,0,0:0:0:0:
116,50,18415,2,0,P|122:77|118:105,1,56.9999982604981,8|0,3:2|0:0,0:0:0:0:
304,179,18602,2,0,P|330:166|346:144,1,56.9999982604981,8|0,0:3|0:0,0:0:0:0:
273,93,18790,1,0,0:0:0:0:
356,359,18977,5,12,3:0:0:0:
308,375,19071,1,12,3:0:0:0:
258,364,19165,1,12,3:0:0:0:
223,329,19258,1,12,3:0:0:0:
211,279,19352,2,0,P|220:255|231:216,1,56.9999982604981,12|12,3:0|3:0,0:0:0:0:
399,69,19540,6,0,B|346:43|305:59|273:93|273:93|293:59|288:29,1,199.499993911743,4|0,3:1|0:0,0:0:0:0:
207,11,19915,2,0,P|202:39|185:62,1,56.9999982604981,8|0,3:2|0:0,0:0:0:0:
36,100,20102,2,0,P|41:127|58:150,1,56.9999982604981,8|0,0:3|0:0,0:0:0:0:
201,214,20290,2,0,P|229:216|255:205,1,56.9999982604981
64,278,20477,2,0,P|35:280|9:269,1,56.9999982604981,8|0,0:3|0:0,0:0:0:0:
258,357,20665,2,0,B|298:322|353:350|353:350|339:324|345:298,1,152,8|0,3:2|0:0,0:0:0:0:
432,304,20946,1,0,0:0:0:0:
435,311,21040,6,0,P|498:327|515:274,1,132.999995941162,12|0,0:3|0:0,0:0:0:0:
468,160,21321,1,0,0:0:0:0:
463,165,21415,2,0,P|450:191|451:231,1,56.9999982604981,8|0,3:2|0:2,0:0:0:0:
279,215,21602,2,0,P|225:225|177:195,1,113.999996520996,8|0,0:3|0:0,0:0:0:0:
162,119,21883,1,0,0:2:0:0:
162,119,21977,2,0,P|174:145|173:185,1,56.9999982604981,8|0,0:3|0:2,0:0:0:0:
53,351,22165,2,0,P|66:326|88:308,1,56.9999982604981,8|0,3:2|0:2,0:0:0:0:
40,237,22352,2,0,P|66:224|106:225,1,56.9999982604981,0|0,0:2|0:2,0:0:0:0:
248,372,22540,6,0,P|323:361|399:353,1,152,4|0,3:1|0:0,0:0:0:0:
480,342,22821,1,0,0:0:0:0:
472,345,22915,2,0,P|441:345|416:336,1,56.9999982604981,8|0,3:2|0:0,0:0:0:0:
451,161,23102,2,0,P|481:160|506:169,1,56.9999982604981,8|0,0:3|0:0,0:0:0:0:
287,73,23290,2,0,P|286:42|295:17,1,56.9999982604981
394,32,23477,2,0,P|394:62|385:87,1,56.9999982604981,8|0,0:3|0:0,0:0:0:0:
240,233,23665,2,0,B|128:221|128:221|150:210|157:195,1,152,8|8,3:2|0:3,0:0:0:0:
85,129,23946,1,0,0:0:0:0:
90,123,24040,6,0,B|124:106|155:121|155:121|177:150|169:186,1,132.999995941162,4|0,3:1|0:0,0:0:0:0:
66,277,24321,1,0,0:2:0:0:
60,271,24415,2,0,P|47:243|46:215,1,56.9999982604981,8|0,3:2|0:2,0:0:0:0:
171,32,24602,2,0,P|158:59|157:87,1,56.9999982604981,8|0,0:3|0:2,0:0:0:0:
240,233,24790,1,0,0:2:0:0:
397,102,24977,1,0,1:0:0:0:
378,99,25071,1,0,3:0:0:0:
359,97,25165,1,12,3:0:0:0:
382,26,25258,1,12,3:0:0:0:
453,4,25352,1,12,3:0:0:0:
512,49,25446,1,12,3:0:0:0:
509,123,25540,6,0,B|485:157|499:211|518:186|540:229|515:269|515:269|486:243|448:247,1,227.999993041992,4|8,3:2|0:0,0:0:0:0:
447,367,26102,5,2,1:0:0:0:
328,337,26290,1,2,0:0:0:0:
290,220,26477,2,0,P|353:211|400:191,1,104.500003189087,2|8,0:0|0:0,0:0:0:0:
320,123,26852,1,2,0:0:0:0:
265,294,27040,6,0,B|230:285|217:251|217:251|201:302|142:307,1,156.750004783631,2|0,0:0|0:0,0:0:0:0:
144,229,27415,2,0,B|152:202|169:189|169:189|183:165|170:134,1,104.500003189087,8|0,0:0|0:0,0:0:0:0:
103,9,27790,1,0,0:0:0:0:
78,163,27977,1,0,1:0:0:0:
305,110,28165,2,0,B|268:121|238:96|238:96|207:54|162:61,1,156.750004783631,8|0,0:0|0:0,0:0:0:0:
90,87,28540,6,0,P|142:93|156:186,1,156.750004783631,4|0,0:1|0:0,0:0:0:0:
148,205,28915,1,8,0:0:0:0:
0,118,29102,1,2,1:0:0:0:
103,9,29290,1,2,0:0:0:0:
246,54,29477,2,0,L|358:41,1,104.500003189087,2|8,0:0|0:0,0:0:0:0:
226,67,29852,1,2,0:0:0:0:
441,165,30040,6,0,B|421:63|421:63|411:94|376:112,1,156.750004783631,2|0,0:0|0:0,0:0:0:0:
360,177,30415,2,0,B|376:243|376:243|399:231|431:240,1,104.500003189087,8|0,0:0|0:0,0:0:0:0:
409,337,30790,1,0,0:0:0:0:
428,248,30977,1,0,1:0:0:0:
322,363,31165,1,8,0:0:0:0:
174,319,31352,1,0,1:0:0:0:
8,341,31540,6,0,B|110:364|110:364|96:347|95:314,1,156.750004783631,4|0,0:1|0:0,0:0:0:0:
96,292,31915,1,8,0:0:0:0:
163,95,32102,1,2,1:0:0:0:
197,241,32290,1,2,0:0:0:0:
22,185,32477,2,0,P|13:135|0:83,1,104.500003189087,2|8,0:0|0:0,0:0:0:0:
197,241,32852,6,0,B|237:210|297:212|333:254|333:254|307:272|306:303,1,209.000006378174,2|0,0:0|1:0,0:0:0:0:
412,341,33415,2,0,P|369:378|306:320,1,156.750004783631,10|0,0:0|0:0,0:0:0:0:
416,253,33790,1,2,0:0:0:0:
491,301,33977,1,2,1:0:0:0:
512,134,34165,1,10,0:0:0:0:
341,205,34352,1,0,1:0:0:0:
440,12,34540,6,0,P|428:134|425:175,1,156.750004783631,6|0,0:1|0:0,0:0:0:0:
441,182,34915,1,8,0:0:0:0:
351,82,35102,1,2,1:0:0:0:
181,158,35290,2,0,P|131:171|75:146,1,104.500003189087,2|0,0:0|0:0,0:0:0:0:
14,29,35665,1,8,0:0:0:0:
67,140,35852,1,2,0:0:0:0:
17,322,36040,6,0,P|13:273|4:217,1,104.500003189087,2|0,1:1|0:0,0:0:0:0:
125,362,36415,1,10,0:0:0:0:
301,300,36602,1,0,1:0:0:0:
182,243,36790,1,10,3:0:0:0:
213,331,36977,1,8,3:0:0:0:
389,269,37165,1,10,3:0:0:0:
400,271,37258,1,8,3:0:0:0:
411,274,37352,1,8,3:0:0:0:
422,277,37446,1,8,3:0:0:0:
462,286,37540,6,0,B|504:224|504:224|393:192,1,170.999994781494,4|0,3:2|0:0,0:0:0:0:
384,193,37915,1,8,0:0:0:0:
287,166,38102,1,2,1:0:0:0:
316,303,38290,1,2,0:0:0:0:
146,253,38477,2,0,P|99:240|39:232,1,104.500003189087,2|8,0:0|0:0,0:0:0:0:
170,271,38852,1,2,1:0:0:0:
74,122,39040,6,0,B|56:87|65:35|112:23|112:23|117:49|98:61,1,156.750004783631,2|0,0:0|0:0,0:0:0:0:
84,134,39415,2,0,P|142:131|178:100,1,104.500003189087,8|0,0:0|0:0,0:0:0:0:
318,45,39790,1,0,0:0:0:0:
229,22,39977,1,0,1:0:0:0:
284,169,40165,2,0,P|296:222|304:278,1,104.500003189087,8|0,0:0|0:0,0:0:0:0:
431,187,40540,6,0,B|489:176|495:117|477:94|477:94|473:110|460:124,1,156.750004783631,4|0,0:1|0:0,0:0:0:0:
400,73,40915,1,8,0:0:0:0:
437,204,41102,1,2,1:0:0:0:
298,283,41290,1,2,0:0:0:0:
289,159,41477,2,0,B|257:154|228:141|228:141|226:164|208:181,1,104.500003189087,2|8,0:0|0:0,0:0:0:0:
306,154,41852,1,2,0:0:0:0:
178,268,42040,6,0,B|140:290|95:273|87:229|87:229|108:222|118:203,1,156.750004783631,2|0,0:0|0:0,0:0:0:0:
58,156,42415,2,0,P|53:101|40:44,1,104.500003189087,10|0,0:0|0:0,0:0:0:0:
153,85,42790,1,0,0:0:0:0:
278,81,42977,1,0,1:0:0:0:
149,100,43165,1,8,0:0:0:0:
32,43,43352,1,0,0:0:0:0:
54,281,43540,6,0,B|101:263|148:297|148:297|159:265|184:256,1,156.750004783631,4|0,0:1|0:0,0:0:0:0:
209,250,43915,1,8,0:0:0:0:
363,327,44102,1,2,1:0:0:0:
440,173,44290,1,2,0:0:0:0:
286,96,44477,2,0,B|257:99|241:120|241:120|218:105|190:110,1,104.500003189087,2|8,0:0|0:0,0:0:0:0:
1,81,44852,6,0,B|60:103|105:61|105:61|91:84|95:107,1,156.750004783631,2|0,0:0|0:0,0:0:0:0:
92,126,45227,1,0,1:0:0:0:
228,210,45415,2,0,P|178:189|144:269,1,156.750004783631,10|0,0:0|0:0,0:0:0:0:
163,274,45790,1,2,0:0:0:0:
338,342,45977,1,2,1:0:0:0:
142,265,46165,2,0,B|99:244|50:253|31:293|31:293|64:300|83:286,1,170.999994781494,10|0,0:0|0:0,0:0:0:0:
130,181,46540,6,0,B|84:166|28:178|3:203|3:203|16:181|9:151,1,185.249991519928,6|0,0:1|0:0,0:0:0:0:
6,130,46915,1,8,0:0:0:0:
110,0,47102,5,2,1:0:0:0:
130,181,47290,2,0,P|233:177|266:124,1,170.999994781494,2|0,0:0|0:0,0:0:0:0:
245,133,47665,1,8,0:0:0:0:
217,297,47852,5,2,1:0:0:0:
376,167,48040,2,0,P|436:165|487:204,1,123.499994346619,2|0,0:1|1:0,0:0:0:0:
325,307,48415,2,0,P|317:224|377:167,1,170.999994781494,10|0,0:0|0:0,0:0:0:0:
408,260,48790,6,0,P|415:313|418:368,1,104.500003189087,2|0,0:0|1:0,0:0:0:0:
217,297,49165,1,10,0:0:0:0:
138,348,49352,1,8,0:2:0:0:
138,348,49446,1,8,0:2:0:0:
138,348,49540,6,0,B|80:353|61:317|86:313|47:235|-53:323|37:360|50:326,1,190,6|0,0:2|0:0,0:0:0:0:
129,221,50102,1,2,0:0:0:0:
132,218,50196,2,0,B|159:159|112:118|112:118|117:138|113:153,1,142.5,0|0,0:0|0:0,0:0:0:0:
17,204,50665,1,0,0:0:0:0:
112,118,50852,1,0,0:0:0:0:
115,120,50946,1,0,0:0:0:0:
118,123,51040,2,0,B|180:98|225:138|224:176|224:176|190:180|170:151,1,190
348,212,51602,1,0,0:0:0:0:
351,215,51696,1,0,0:0:0:0:
354,218,51790,6,0,B|418:229|449:179|433:132|433:132|409:127|388:147,1,190,2|0,0:0|0:0,0:0:0:0:
412,342,52352,1,0,0:0:0:0:
419,341,52446,1,0,0:0:0:0:
424,337,52540,6,0,B|454:312|399:263|327:314|374:337|337:381|272:372,1,209.000006378174,6|2,0:1|0:0,0:0:0:0:
200,201,53102,1,2,0:0:0:0:
198,194,53196,1,0,0:0:0:0:
201,188,53290,2,0,P|249:182|276:217,1,95,2|2,0:0|0:0,0:0:0:0:
286,294,53665,1,2,0:0:0:0:
136,336,53852,1,2,0:0:0:0:
136,336,53946,1,0,0:0:0:0:
136,336,54040,6,0,L|36:325,1,95,2|0,0:0|0:0,0:0:0:0:
32,156,54415,2,0,B|60:124|96:134|96:134|88:151|74:151,1,95,2|0,0:0|0:0,0:0:0:0:
118,117,54696,1,0,0:0:0:0:
122,115,54790,2,0,L|222:126,1,95,2|0,0:0|0:0,0:0:0:0:
391,193,55165,1,2,0:0:0:0:
338,72,55352,1,2,0:0:0:0:
338,72,55446,1,0,0:0:0:0:
338,72,55540,6,0,P|348:173|353:261,1,190,6|0,0:1|0:0,0:0:0:0:
218,365,56102,1,2,0:0:0:0:
218,365,56196,2,0,B|196:313|194:250|263:203|263:203|248:225|248:271,1,237.5,0|2,0:0|0:0,0:0:0:0:
353,261,56852,1,2,0:0:0:0:
472,277,57040,6,0,P|447:219|352:273,1,190,2|0,0:0|0:0,0:0:0:0:
433,119,57602,1,0,0:0:0:0:
433,113,57696,1,0,0:0:0:0:
434,108,57790,2,0,P|382:96|239:71,1,190,0|0,0:0|0:0,0:0:0:0:
114,162,58352,1,0,0:0:0:0:
114,162,58446,1,0,0:0:0:0:
114,162,58540,6,0,B|131:129|93:121|72:134|55:180|117:197|124:240|86:286,1,190,6|0,0:1|0:0,0:0:0:0:
245,351,59102,1,2,0:0:0:0:
245,351,59196,1,0,0:0:0:0:
245,351,59290,2,0,P|200:323|159:326,1,95,0|0,0:0|0:0,0:0:0:0:
380,264,59665,1,2,0:0:0:0:
257,250,59852,1,2,0:0:0:0:
457,360,60040,6,0,P|458:348|459:336,1,23.75,6|0,0:2|0:0,0:0:0:0:
481,55,60415,1,2,0:0:0:0:
321,117,60602,1,0,0:0:0:0:
321,117,60696,2,0,B|274:84|212:88|170:127|170:127|205:155|202:194,1,237.5,0|0,0:0|0:0,0:0:0:0:
60,205,61352,2,0,L|107:199,1,47.5
263,278,61540,5,8,1:3:0:0:
219,295,61633,1,8,3:0:0:0:
172,292,61727,1,8,3:0:0:0:
208,323,61821,1,8,3:0:0:0:
227,367,61915,1,8,3:0:0:0:
462,327,62102,5,10,1:3:0:0:
433,290,62196,1,8,3:0:0:0:
387,288,62290,1,8,3:0:0:0:
355,321,62383,1,8,3:0:0:0:
359,367,62477,1,10,3:0:0:0:
382,154,62665,6,0,P|385:131|386:103,1,47.5,6|0,0:2|1:0,0:0:0:0:
217,75,63031,6,0,B|277:99|338:64|333:27|333:27|315:37|301:68|313:107,1,228,14|0,3:1|0:0,0:0:0:0:
390,161,63406,2,0,P|398:131|397:97,1,56.9999982604981,8|0,3:2|0:0,0:0:0:0:
196,276,63593,2,0,P|184:354|247:326,1,161.500003080368,10|0,0:3|0:0,0:0:0:0:
268,236,63874,1,0,0:0:0:0:
268,236,63968,6,0,P|264:207|254:181,1,56.9999982604981,10|0,0:3|0:0,0:0:0:0:
120,67,64156,2,0,P|121:101|102:137,1,66.4999979705811,10|0,3:2|0:2,0:0:0:0:
26,201,64343,2,0,P|57:222|88:231,1,66.4999979705811
116,46,64531,6,0,P|25:86|43:219,1,228,14|0,0:3|0:0,0:0:0:0:
116,155,64906,2,0,P|120:130|102:159,1,104.500003189087,8|0,3:2|0:2,0:0:0:0:
99,256,65093,2,0,B|128:258|146:274|146:274|152:250|174:231,1,95,8|0,0:3|0:0,0:0:0:0:
312,73,65281,6,0,P|279:54|231:55,1,76,2|0,0:0|0:0,0:0:0:0:
269,132,65468,2,0,P|297:107|312:72,1,76,8|0,0:3|0:0,0:0:0:0:
294,292,65656,2,0,B|343:297|372:259|372:259|360:315|404:352,1,170.999994781494,10|0,3:2|0:0,0:0:0:0:
405,192,65937,1,0,0:0:0:0:
447,282,66031,6,0,B|484:240|462:179|443:163|443:163|415:166|403:198,1,180.49999518013,6|0,3:1|0:0,0:0:0:0:
294,292,66312,1,0,0:0:0:0:
289,300,66406,2,0,B|239:337|183:299|180:255|180:255|201:272|229:272,1,180.49999518013,10|8,3:2|0:3,0:0:0:0:
265,174,66687,1,0,0:0:0:0:
269,183,66781,6,0,P|260:217|234:240,1,66.4999979705811,2|0,0:2|0:2,0:0:0:0:
170,109,66968,2,0,P|192:137|195:171,1,66.4999979705811,10|0,0:3|0:0,0:0:0:0:
20,276,67156,6,0,B|0:248|17:222|17:222|32:230|20:252,1,76,8|0,3:2|0:2,0:0:0:0:
95,343,67343,1,2,0:0:0:0:
113,165,67531,6,0,B|93:140|18:128|-1:241|66:269|84:226|113:257|120:316|93:347,1,270.749992770195,4|0,3:1|0:0,0:0:0:0:
221,265,67906,2,0,B|238:245|233:221|233:221|166:209|133:263,1,161.500003080368,10|8,3:2|0:3,0:0:0:0:
209,366,68187,1,0,0:0:0:0:
212,358,68281,2,0,P|248:339|296:348,1,80.750001540184,2|0,0:0|0:0,0:0:0:0:
512,375,68468,5,14,3:3:0:0:
434,365,68562,1,12,3:3:0:0:
399,296,68656,1,12,3:3:0:0:
417,279,68843,6,0,P|425:242|426:206,1,66.4999979705811,2|0,0:0|0:0,0:0:0:0:
407,73,69031,6,0,P|315:70|373:0,1,228,14|0,3:1|0:0,0:0:0:0:
333,128,69406,2,0,B|290:104|290:62|290:62|274:108|217:109,1,170.999994781494,10|8,3:2|0:3,0:0:0:0:
96,25,69687,1,0,0:0:0:0:
108,10,69781,2,0,P|114:45|123:86,1,76,2|0,0:0|0:0,0:0:0:0:
217,207,69968,2,0,P|223:169|231:132,1,76,8|0,0:3|0:0,0:0:0:0:
13,201,70156,2,0,P|5:242|18:282,1,85.4999973907472,10|0,3:2|0:2,0:0:0:0:
258,341,70343,1,2,0:0:0:0:
189,288,70437,1,0,0:0:0:0:
109,322,70531,6,0,B|153:332|183:311|183:311|205:348|250:364|250:364|297:328|352:345,1,270.749992770195,14|0,0:3|0:0,0:0:0:0:
423,382,70906,2,0,B|386:327|386:327|417:227,1,170.999994781494,10|8,3:2|0:3,0:0:0:0:
454,158,71187,1,0,0:0:0:0:
413,90,71281,6,0,P|388:113|374:154,1,66.4999979705811,2|0,0:0|0:0,0:0:0:0:
366,10,71468,2,0,P|397:-2|430:1,1,66.4999979705811,10|0,0:3|0:0,0:0:0:0:
243,49,71656,6,0,P|201:42|170:15,1,85.4999973907472,10|0,3:2|0:0,0:0:0:0:
62,201,71843,2,0,P|105:202|141:181,1,85.4999973907472,2|0,0:0|0:0,0:0:0:0:
262,291,72031,6,0,B|293:252|289:185|241:151|241:151|256:195|231:228,1,228,6|0,3:1|0:0,0:0:0:0:
83,115,72406,2,0,P|117:129|139:160,1,76,10|0,3:2|0:0,0:0:0:0:
140,181,72593,2,0,P|104:202|62:201,1,85.4999973907472,8|0,0:3|0:0,0:0:0:0:
5,345,72781,6,0,P|81:335|157:330,1,152,2|8,0:0|0:3,0:0:0:0:
262,291,73062,1,0,0:0:0:0:
280,310,73156,2,0,P|310:329|356:326,1,76,10|0,3:2|0:0,0:0:0:0:
373,243,73343,2,0,P|343:224|297:227,1,76
123,189,73531,6,0,B|142:226|195:233|228:188|227:144|207:120|163:111|192:37,1,256.499992172241,6|0,3:1|0:0,0:0:0:0:
180,21,73906,2,0,P|164:62|169:109,1,85.4999973907472,10|0,3:2|0:2,0:0:0:0:
104,201,74093,2,0,P|139:231|196:230,1,85.4999973907472,8|0,0:3|0:0,0:0:0:0:
419,143,74281,1,2,0:0:0:0:
414,122,74468,5,4,3:0:0:0:
410,101,74562,1,0,3:0:0:0:
406,80,74656,1,10,3:2:0:0:
397,165,74749,1,12,3:0:0:0:
389,250,74843,1,12,3:0:0:0:
381,335,74937,1,12,3:0:0:0:
459,300,75031,6,0,B|482:255|482:255|442:222|372:241|372:241|345:287|289:277,1,256.499992172241,14|0,3:1|0:0,0:0:0:0:
290,195,75406,2,0,B|294:168|312:157|312:157|301:180|309:227,1,85.4999973907472,8|0,3:2|0:2,0:0:0:0:
430,357,75593,2,0,B|418:345|419:317|419:317|399:335|380:334,1,85.4999973907472,10|0,0:3|0:0,0:0:0:0:
171,162,75781,6,0,B|152:160|135:139|135:139|132:167|107:189,1,85.4999973907472,2|0,0:0|0:0,0:0:0:0:
69,334,75968,2,0,B|76:351|67:376|67:376|92:365|124:375,1,85.4999973907472,10|0,0:3|0:0,0:0:0:0:
271,337,76156,2,0,B|282:321|308:317|308:317|286:300|279:268,1,85.4999973907472,10|0,3:2|0:0,0:0:0:0:
161,265,76343,2,0,P|168:289|165:261,1,85.4999973907472
279,59,76531,6,0,B|317:6|385:34|385:34|391:68|356:88,1,170.999994781494,14|0,0:3|0:0,0:0:0:0:
264,136,76812,1,0,0:0:0:0:
257,134,76906,2,0,P|210:98|201:61,1,66.4999979705811,8|0,3:2|0:0,0:0:0:0:
429,121,77093,6,0,P|381:154|343:152,1,66.4999979705811,10|0,0:3|0:2,0:0:0:0:
296,274,77281,2,0,P|291:331|313:363,1,66.4999979705811,2|0,0:2|0:2,0:0:0:0:
362,377,77468,2,0,P|326:356|308:319,1,80.750001540184,10|0,0:3|0:2,0:0:0:0:
356,140,77656,2,0,P|392:119|433:122,1,80.750001540184,8|0,3:2|0:2,0:0:0:0:
481,318,77843,1,0,0:0:0:0:
470,325,77937,1,0,0:0:0:0:
386,307,78031,6,0,B|374:277|395:250|395:250|429:246|473:277|470:328,1,180.49999518013,6|0,3:1|0:0,0:0:0:0:
362,377,78312,1,0,0:0:0:0:
233,348,78406,6,0,B|226:330|206:316|206:316|259:312|279:348|284:367|284:367|287:340|305:323,1,190,10|8,3:2|0:3,0:0:0:0:
286,238,78687,1,0,0:0:0:0:
286,238,78781,6,0,P|286:207|280:239,1,85.4999973907472,2|0,0:2|0:2,0:0:0:0:
120,384,78968,2,0,B|133:373|138:346|138:346|148:370|166:378,1,85.4999973907472,10|0,0:3|0:2,0:0:0:0:
141,91,79156,6,0,B|129:78|129:50|129:50|115:72|96:77,1,85.4999973907472,10|0,3:2|0:2,0:0:0:0:
53,197,79343,1,2,0:0:0:0:
215,129,79531,6,0,B|234:101|276:130|261:98|207:41|116:74|178:153|134:218|38:194,1,285,4|0,3:1|0:0,0:0:0:0:
208,268,79906,2,0,B|232:259|254:268|254:268|245:247|214:247,1,95,10|0,3:2|0:2,0:0:0:0:
68,117,80093,2,0,B|25:116|17:78|17:78|26:88|38:92,1,95,8|0,0:3|0:2,0:0:0:0:
309,70,80281,1,2,0:0:0:0:
320,92,80468,5,2,1:0:0:0:
322,118,80562,1,0,3:0:0:0:
314,142,80656,1,8,3:2:0:0:
395,126,80749,1,12,3:3:0:0:
459,180,80843,1,12,3:3:0:0:
453,264,80937,1,12,3:3:0:0:
382,308,81031,6,0,B|346:315|317:294|317:294|301:313|277:316|277:316|231:290|220:236|247:190,1,256.499992172241,14|0,3:1|0:0,0:0:0:0:
275,329,81406,2,0,P|221:315|189:327,1,76,10|0,3:2|0:2,0:0:0:0:
101,283,81593,2,0,P|66:297|43:327,1,76,8|0,0:3|0:2,0:0:0:0:
131,172,81781,2,0,P|154:97|153:25,1,152,2|8,0:0|0:3,0:0:0:0:
144,21,82062,1,0,0:0:0:0:
136,18,82156,2,0,P|131:60|141:94,1,76,10|0,3:2|0:2,0:0:0:0:
326,196,82343,2,0,P|285:206|245:193,1,85.4999973907472,10|0,0:3|0:2,0:0:0:0:
401,44,82531,6,0,B|466:66|484:148|435:214|435:214|441:163|418:138,1,285,14|0,0:3|0:0,0:0:0:0:
406,123,82906,2,0,P|400:166|421:209,1,85.4999973907472,10|0,3:2|0:2,0:0:0:0:
512,319,83093,1,8,0:3:0:0:
488,311,83187,1,0,0:0:0:0:
415,359,83281,2,0,B|344:364|286:373|286:373|311:355|322:326,1,170.999994781494,2|8,0:0|0:3,0:0:0:0:
246,208,83562,1,0,0:0:0:0:
241,214,83656,2,0,P|230:250|250:302,1,85.4999973907472,10|0,3:2|0:2,0:0:0:0:
287,373,83843,2,0,P|251:361|220:315,1,85.4999973907472,2|0,0:2|0:2,0:0:0:0:
125,101,84031,6,0,B|154:158|145:238|81:273|81:273|56:221|7:227,1,285,4|0,3:1|0:0,0:0:0:0:
83,293,84406,6,0,P|115:278|158:277,1,76,8|0,3:2|0:2,0:0:0:0:
391,273,84593,2,0,P|355:269|318:249,1,76,8|0,0:3|0:2,0:0:0:0:
125,101,84781,6,0,P|132:59|156:80,1,90.2499975900651,0|0,0:2|0:2,0:0:0:0:
344,171,84968,2,0,P|337:129|313:150,1,90.2499975900651,8|0,0:3|0:2,0:0:0:0:
246,339,85156,2,0,P|238:262|225:158,1,180.49999518013,8|8,3:2|0:3,0:0:0:0:
261,76,85437,1,0,0:0:0:0:
218,175,85531,6,0,P|205:268|195:363,1,190,4|0,3:1|0:0,0:0:0:0:
88,273,85812,1,0,0:0:0:0:
76,260,85906,2,0,P|126:265|157:288,1,90.2499975900651,10|0,3:2|0:2,0:0:0:0:
100,80,86093,2,0,P|70:120|35:136,1,90.2499975900651,8|0,0:3|0:2,0:0:0:0:
243,190,86281,2,0,P|222:144|226:105,1,90.2499975900651,2|0,0:2|0:2,0:0:0:0:
393,29,86468,5,2,1:0:0:0:
402,53,86562,1,0,3:0:0:0:
402,80,86656,1,8,3:2:0:0:
330,125,86749,1,12,3:0:0:0:
351,207,86843,1,12,3:0:0:0:
435,214,86937,1,12,3:0:0:0:
470,137,87031,6,0,P|489:99|484:47,1,92.6249957599642,6|0,0:0|0:0,0:0:0:0:
402,80,87406,2,0,P|425:115|472:137,1,92.6249957599642,2|0,0:0|0:0,0:0:0:0:
485,50,87781,2,0,P|442:52|400:82,1,92.6249957599642,2|0,0:0|0:0,0:0:0:0:
470,137,88156,1,2,0:0:0:0:
331,126,88343,6,0,B|293:116|256:144|276:147|249:191|193:178,1,154.374992933274,2|2,0:0|0:0,0:0:0:0:
195,178,88906,6,0,P|163:128|176:70,1,114,2|0,0:0|0:0,0:0:0:0:
171,76,89281,6,0,P|130:114|74:115,1,114,2|0,0:0|0:0,0:0:0:0:
74,115,89656,1,2,0:0:0:0:
216,246,89843,6,0,B|218:286|237:344|308:382|372:365|405:336|443:302|444:256|430:222|430:222|470:190|447:137|447:137|391:129|373:170|373:170|347:153|317:157|317:157|318:113|266:95|266:95|220:132|244:180|244:180|217:170|191:179,1,836.000025512696,2|0,0:0|0:0,0:0:0:0:
