osu file format v14

[General]
AudioFilename: audio.mp3
AudioLeadIn: 0
PreviewTime: 62102
Countdown: 0
SampleSet: Normal
StackLeniency: 0.6
Mode: 1
LetterboxInBreaks: 0
WidescreenStoryboard: 1

[Editor]
DistanceSpacing: 1.2
BeatDivisor: 4
GridSize: 32
TimelineZoom: 3.099999

[Metadata]
Title:Ju Tou San Chi Tian Qi Qing
TitleUnicode:舉頭三尺天氣晴
Artist:Paroto
ArtistUnicode:パロト
Creator:CrystilonZ
Version:Nwolf's Oni
Source:家有大貓
Tags:Nekojishi jiā yǒu dà māo jia you da mao mau Nviek5 KuensanP クエン酸P 晴空和音 Triodust 空氣載體 furry ezek HappyRocket88 BoatKrab KittyAdventure Shiroi Hiroshi gokugohan12468 collaboration 鸚鵡 ajeemaniz exusagi Nwolf Kaitjuh Parrot A Sunny Day is Watching over You (Vocal) Arzenvald
BeatmapID:1062640
BeatmapSetID:495866

[Difficulty]
HPDrainRate:6
CircleSize:4
OverallDifficulty:6
ApproachRate:9
SliderMultiplier:1.4
SliderTickRate:1

[Events]
//Background and Video events
0,0,"CNYbg.jpg",0,-30
//Break Periods
//Storyboard Layer 0 (Background)
//Storyboard Layer 1 (Fail)
//Storyboard Layer 2 (Pass)
//Storyboard Layer 3 (Foreground)
//Storyboard Sound Samples

[TimingPoints]
40,375,4,1,0,40,1,8
40,-111.111111111111,4,1,0,40,0,8
1540,375,4,1,0,40,1,0
1540,-111.111111111111,4,1,0,40,0,0
7352,-109.89010989011,4,1,0,40,0,0
7727,-108.695652173913,4,1,0,40,0,0
8102,-107.52688172043,4,1,0,40,0,0
8477,-106.382978723404,4,1,0,40,0,0
8758,-105.263157894737,4,1,0,40,0,0
8946,-104.166666666667,4,1,0,40,0,0
9227,-103.092783505155,4,1,0,40,0,0
9602,-102.040816326531,4,1,0,40,0,0
9977,-101.010101010101,4,1,0,40,0,0
10446,-100,4,1,0,40,0,0
12790,-100,4,1,0,44,0,0
12883,-100,4,1,0,48,0,0
12977,-100,4,1,0,52,0,0
13071,-100,4,1,0,56,0,0
13165,-100,4,1,0,60,0,0
13258,-100,4,1,0,64,0,0
13352,-100,4,1,0,68,0,0
13446,-100,4,1,0,72,0,0
13540,-100,4,1,0,75,0,0
25727,-111.111111111111,4,1,0,75,0,0
36883,-108.695652173913,4,1,0,75,0,0
37165,-105.263157894737,4,1,0,75,0,0
37258,-104.166666666667,4,1,0,75,0,0
37352,-103.092783505155,4,1,0,75,0,0
37446,-100,4,1,0,75,0,0
49727,-125,4,1,0,40,0,0
61540,-109.89010989011,4,1,0,40,0,0
61633,-108.695652173913,4,1,0,40,0,0
61727,-107.52688172043,4,1,0,40,0,0
61821,-106.382978723404,4,1,0,40,0,0
62008,-105.263157894737,4,1,0,40,0,0
62196,-104.166666666667,4,1,0,40,0,0
62290,-103.092783505155,4,1,0,40,0,0
62383,-102.040816326531,4,1,0,40,0,0
62571,-101.010101010101,4,1,0,40,0,0
63031,375,4,1,0,75,1,1
63031,-100,4,1,0,75,0,1
87031,-100,4,1,0,75,0,0

[Colours]
Combo1 : 75,175,41
Combo2 : 239,164,5
Combo3 : 4,211,255
Combo4 : 125,69,13
Combo5 : 255,236,0
Combo6 : 153,126,100

[HitObjects]
224,160,602,5,0,0:0:0:0:
224,160,977,1,0,0:0:0:0:
288,160,1165,1,8,0:0:0:0:
224,160,1540,1,0,0:0:0:0:
224,160,2102,1,0,0:0:0:0:
224,160,2477,1,0,0:0:0:0:
288,160,2665,1,8,0:0:0:0:
288,160,3040,1,8,0:0:0:0:
224,160,3790,1,0,0:0:0:0:
288,160,4165,1,8,0:0:0:0:
224,160,4540,1,0,0:0:0:0:
288,160,4915,1,8,0:0:0:0:
288,160,5290,1,8,0:0:0:0:
288,160,5477,1,8,0:0:0:0:
224,160,5852,1,0,0:0:0:0:
224,160,6415,1,0,0:0:0:0:
288,160,6790,1,8,0:0:0:0:
224,160,6977,1,0,0:0:0:0:
224,160,7540,1,0,0:0:0:0:
288,160,7915,1,8,0:0:0:0:
288,160,8290,1,8,0:0:0:0:
288,160,8665,1,8,0:0:0:0:
288,160,8852,1,8,0:0:0:0:
224,160,9040,1,0,0:0:0:0:
288,160,9415,1,8,0:0:0:0:
288,160,9790,1,8,0:0:0:0:
288,160,10165,1,8,0:0:0:0:
224,160,10352,1,0,0:0:0:0:
224,160,10540,1,0,0:0:0:0:
288,160,10727,1,8,0:0:0:0:
224,160,10915,1,0,0:0:0:0:
288,160,11102,1,8,0:0:0:0:
224,160,11290,1,0,0:0:0:0:
288,160,11477,1,8,0:0:0:0:
224,160,11665,1,0,0:0:0:0:
288,160,11852,1,8,0:0:0:0:
224,160,12040,1,0,0:0:0:0:
288,160,12133,1,8,0:0:0:0:
224,160,12227,1,0,0:0:0:0:
288,160,12321,1,8,0:0:0:0:
224,160,12415,1,0,0:0:0:0:
288,160,12508,1,8,0:0:0:0:
288,160,12602,1,8,0:0:0:0:
288,160,12696,1,8,0:0:0:0:
224,160,12790,1,0,0:0:0:0:
288,160,12883,1,8,0:0:0:0:
224,160,12977,1,0,0:0:0:0:
288,160,13071,1,8,0:0:0:0:
224,160,13165,1,0,0:0:0:0:
288,160,13258,1,8,0:0:0:0:
288,160,13352,1,8,0:0:0:0:
288,160,13446,1,8,0:0:0:0:
224,224,13540,1,4,0:0:0:0:
224,160,13821,1,0,0:0:0:0:
288,160,13915,1,8,0:0:0:0:
224,160,14102,1,0,0:0:0:0:
224,160,14477,1,0,0:0:0:0:
288,160,14665,1,8,0:0:0:0:
288,160,14852,1,8,0:0:0:0:
288,160,14946,1,8,0:0:0:0:
224,160,15040,1,0,0:0:0:0:
224,160,15321,1,0,0:0:0:0:
288,160,15415,1,8,0:0:0:0:
288,160,15602,1,8,0:0:0:0:
224,160,15790,1,0,0:0:0:0:
288,160,15977,1,8,0:0:0:0:
224,160,16071,1,0,0:0:0:0:
288,160,16165,1,8,0:0:0:0:
288,160,16258,1,8,0:0:0:0:
224,160,16352,1,0,0:0:0:0:
224,160,16540,1,0,0:0:0:0:
224,160,16821,1,0,0:0:0:0:
288,160,16915,1,8,0:0:0:0:
224,160,17102,1,0,0:0:0:0:
288,160,17477,1,8,0:0:0:0:
288,160,17665,1,8,0:0:0:0:
224,160,17852,1,0,0:0:0:0:
288,160,17946,1,8,0:0:0:0:
224,160,18040,1,0,0:0:0:0:
224,160,18321,1,0,0:0:0:0:
288,160,18415,1,8,0:0:0:0:
224,160,18602,1,0,0:0:0:0:
288,160,18790,1,8,0:0:0:0:
224,160,18977,1,0,0:0:0:0:
224,160,19071,1,0,0:0:0:0:
288,160,19165,1,8,0:0:0:0:
224,160,19258,1,0,0:0:0:0:
288,160,19352,1,8,0:0:0:0:
224,224,19540,1,4,0:0:0:0:
224,160,19821,1,0,0:0:0:0:
288,160,19915,1,8,0:0:0:0:
224,160,20102,1,0,0:0:0:0:
288,160,20477,1,8,0:0:0:0:
224,160,20571,1,0,0:0:0:0:
288,160,20665,1,8,0:0:0:0:
288,160,20852,1,8,0:0:0:0:
288,160,20946,1,8,0:0:0:0:
224,160,21040,1,0,0:0:0:0:
224,160,21133,1,0,0:0:0:0:
224,160,21227,1,0,0:0:0:0:
224,160,21321,1,0,0:0:0:0:
288,160,21415,1,8,0:0:0:0:
224,160,21602,1,0,0:0:0:0:
288,160,21696,1,8,0:0:0:0:
224,160,21790,1,0,0:0:0:0:
288,160,21977,1,8,0:0:0:0:
224,160,22071,1,0,0:0:0:0:
288,160,22165,1,8,0:0:0:0:
224,160,22258,1,0,0:0:0:0:
288,160,22352,1,8,0:0:0:0:
288,160,22446,1,8,0:0:0:0:
224,160,22540,1,0,0:0:0:0:
224,160,22821,1,0,0:0:0:0:
288,160,22915,1,8,0:0:0:0:
224,160,23102,1,0,0:0:0:0:
288,160,23477,1,8,0:0:0:0:
288,160,23665,1,8,0:0:0:0:
224,160,23852,1,0,0:0:0:0:
288,160,23946,1,8,0:0:0:0:
288,160,24040,1,8,0:0:0:0:
288,160,24133,1,8,0:0:0:0:
224,160,24227,1,0,0:0:0:0:
288,160,24321,1,8,0:0:0:0:
288,160,24415,1,8,0:0:0:0:
224,160,24602,1,0,0:0:0:0:
224,160,24696,1,0,0:0:0:0:
288,160,24790,1,8,0:0:0:0:
288,160,24977,1,8,0:0:0:0:
224,160,25071,1,0,0:0:0:0:
288,160,25165,1,8,0:0:0:0:
288,160,25258,1,8,0:0:0:0:
224,160,25352,1,0,0:0:0:0:
224,224,25540,5,4,0:0:0:0:
288,160,25915,1,8,0:0:0:0:
224,160,26102,1,0,0:0:0:0:
224,160,26290,1,0,0:0:0:0:
288,160,26477,1,8,0:0:0:0:
224,160,26665,1,0,0:0:0:0:
288,160,26852,1,8,0:0:0:0:
224,160,27227,1,0,0:0:0:0:
288,160,27415,1,8,0:0:0:0:
224,160,27790,1,0,0:0:0:0:
224,160,27977,1,0,0:0:0:0:
288,160,28165,1,8,0:0:0:0:
224,160,28540,1,0,0:0:0:0:
288,160,28915,1,8,0:0:0:0:
224,160,29102,1,0,0:0:0:0:
224,160,29290,1,0,0:0:0:0:
288,160,29477,1,8,0:0:0:0:
224,160,29665,1,0,0:0:0:0:
288,160,29852,1,8,0:0:0:0:
224,160,30227,1,0,0:0:0:0:
288,160,30415,1,8,0:0:0:0:
224,160,30790,1,0,0:0:0:0:
224,160,30977,1,0,0:0:0:0:
288,160,31165,1,8,0:0:0:0:
224,160,31352,1,0,0:0:0:0:
224,160,31540,1,0,0:0:0:0:
288,160,31915,1,8,0:0:0:0:
224,160,32102,1,0,0:0:0:0:
288,160,32290,1,8,0:0:0:0:
288,160,32477,1,8,0:0:0:0:
224,160,32665,1,0,0:0:0:0:
288,160,32852,1,8,0:0:0:0:
224,160,33227,1,0,0:0:0:0:
288,160,33415,1,8,0:0:0:0:
288,160,33790,1,8,0:0:0:0:
224,160,33977,1,0,0:0:0:0:
288,160,34165,1,8,0:0:0:0:
224,160,34352,1,0,0:0:0:0:
224,160,34540,1,0,0:0:0:0:
288,160,34915,1,8,0:0:0:0:
224,160,35102,1,0,0:0:0:0:
224,160,35290,1,0,0:0:0:0:
288,160,35665,1,8,0:0:0:0:
288,160,35852,1,8,0:0:0:0:
224,160,36040,1,0,0:0:0:0:
288,160,36415,1,8,0:0:0:0:
224,160,36602,1,0,0:0:0:0:
288,160,36790,1,8,0:0:0:0:
224,160,36977,1,0,0:0:0:0:
288,160,37165,1,8,0:0:0:0:
224,160,37258,1,0,0:0:0:0:
224,160,37352,1,0,0:0:0:0:
288,224,37540,1,12,0:0:0:0:
224,160,37727,1,0,0:0:0:0:
288,160,37915,1,8,0:0:0:0:
288,160,38102,1,8,0:0:0:0:
224,160,38196,1,0,0:0:0:0:
288,160,38290,1,8,0:0:0:0:
288,160,38477,1,8,0:0:0:0:
224,160,38665,1,0,0:0:0:0:
288,160,38852,1,8,0:0:0:0:
224,160,39227,1,0,0:0:0:0:
288,160,39415,1,8,0:0:0:0:
288,160,39790,1,8,0:0:0:0:
224,160,39977,1,0,0:0:0:0:
288,160,40165,1,8,0:0:0:0:
224,160,40540,1,0,0:0:0:0:
224,160,40727,1,0,0:0:0:0:
288,160,40915,1,8,0:0:0:0:
288,160,41102,1,8,0:0:0:0:
224,160,41196,1,0,0:0:0:0:
288,160,41290,1,8,0:0:0:0:
288,160,41477,1,8,0:0:0:0:
224,160,41665,1,0,0:0:0:0:
288,160,41852,1,8,0:0:0:0:
224,160,42227,1,0,0:0:0:0:
224,160,42321,1,0,0:0:0:0:
288,160,42415,1,8,0:0:0:0:
224,160,42602,1,0,0:0:0:0:
288,160,42790,1,8,0:0:0:0:
224,160,42977,1,0,0:0:0:0:
288,160,43071,1,0,0:0:0:0:
288,160,43165,1,8,0:0:0:0:
288,160,43352,1,8,0:0:0:0:
224,160,43540,1,0,0:0:0:0:
224,160,43727,1,0,0:0:0:0:
288,160,43915,1,8,0:0:0:0:
288,160,44102,1,8,0:0:0:0:
224,160,44196,1,0,0:0:0:0:
288,160,44290,1,8,0:0:0:0:
288,160,44477,1,8,0:0:0:0:
224,160,44665,1,0,0:0:0:0:
288,160,44852,1,8,0:0:0:0:
224,160,45227,1,0,0:0:0:0:
288,160,45415,1,8,0:0:0:0:
224,160,45602,1,0,0:0:0:0:
288,160,45696,1,8,0:0:0:0:
224,160,45790,1,0,0:0:0:0:
224,160,45977,1,0,0:0:0:0:
288,160,46165,1,8,0:0:0:0:
288,160,46352,1,8,0:0:0:0:
224,160,46540,1,0,0:0:0:0:
288,160,46915,1,8,0:0:0:0:
224,160,47102,1,0,0:0:0:0:
288,160,47196,1,8,0:0:0:0:
224,160,47290,1,0,0:0:0:0:
224,160,47477,1,0,0:0:0:0:
288,160,47665,1,8,0:0:0:0:
224,160,47852,1,0,0:0:0:0:
224,160,47946,1,0,0:0:0:0:
288,160,48040,1,8,0:0:0:0:
224,160,48227,1,0,0:0:0:0:
288,160,48415,1,8,0:0:0:0:
224,160,48790,1,0,0:0:0:0:
224,160,48977,1,0,0:0:0:0:
288,160,49165,1,8,0:0:0:0:
224,160,49352,1,0,0:0:0:0:
288,224,49540,5,12,0:0:0:0:
224,160,50102,1,0,0:0:0:0:
288,160,51790,1,8,0:0:0:0:
224,160,52540,1,0,0:0:0:0:
288,160,52915,1,8,0:0:0:0:
224,160,53102,1,0,0:0:0:0:
288,160,53290,1,8,0:0:0:0:
288,160,53665,1,8,0:0:0:0:
288,160,53852,1,8,0:0:0:0:
288,160,54415,1,8,0:0:0:0:
224,160,54790,1,0,0:0:0:0:
288,160,55165,1,8,0:0:0:0:
224,160,55540,1,0,0:0:0:0:
224,160,56102,1,0,0:0:0:0:
288,160,56665,1,8,0:0:0:0:
288,160,56852,1,8,0:0:0:0:
224,160,57040,1,0,0:0:0:0:
224,160,58540,1,0,0:0:0:0:
224,160,59102,1,0,0:0:0:0:
288,160,59665,1,8,0:0:0:0:
288,160,59852,1,8,0:0:0:0:
224,160,60040,1,0,0:0:0:0:
288,160,60415,1,8,0:0:0:0:
288,160,61540,1,8,0:0:0:0:
224,160,61633,1,0,0:0:0:0:
224,160,61727,1,0,0:0:0:0:
224,160,61915,1,0,0:0:0:0:
288,160,62102,1,8,0:0:0:0:
224,160,62196,1,0,0:0:0:0:
224,160,62290,1,0,0:0:0:0:
224,160,62477,1,0,0:0:0:0:
288,160,62665,1,8,0:0:0:0:
224,160,62852,1,0,0:0:0:0:
224,224,63031,5,4,0:0:0:0:
224,160,63312,1,0,0:0:0:0:
288,160,63406,1,8,0:0:0:0:
288,160,63593,1,8,0:0:0:0:
288,160,63687,1,8,0:0:0:0:
224,160,63781,1,0,0:0:0:0:
288,160,63968,1,8,0:0:0:0:
288,160,64156,1,8,0:0:0:0:
224,160,64343,1,0,0:0:0:0:
224,160,64437,1,0,0:0:0:0:
288,160,64531,1,8,0:0:0:0:
224,160,64812,1,0,0:0:0:0:
288,160,64906,1,8,0:0:0:0:
224,160,65093,1,0,0:0:0:0:
224,160,65187,1,0,0:0:0:0:
288,160,65281,1,8,0:0:0:0:
288,160,65374,1,8,0:0:0:0:
224,160,65468,1,0,0:0:0:0:
288,160,65656,1,8,0:0:0:0:
224,160,65843,1,0,0:0:0:0:
288,160,66031,1,8,0:0:0:0:
224,160,66124,1,0,0:0:0:0:
224,160,66218,1,0,0:0:0:0:
224,160,66312,1,0,0:0:0:0:
288,160,66406,1,8,0:0:0:0:
224,160,66593,1,0,0:0:0:0:
224,160,66687,1,0,0:0:0:0:
288,160,66781,1,8,0:0:0:0:
288,160,66968,1,8,0:0:0:0:
224,160,67156,1,0,0:0:0:0:
288,160,67343,1,8,0:0:0:0:
288,160,67437,1,8,0:0:0:0:
224,160,67531,1,0,0:0:0:0:
224,160,67718,1,0,0:0:0:0:
288,160,67906,1,8,0:0:0:0:
224,160,68093,1,0,0:0:0:0:
288,160,68281,1,8,0:0:0:0:
224,160,68374,1,0,0:0:0:0:
288,160,68468,1,8,0:0:0:0:
288,160,68562,1,8,0:0:0:0:
224,160,68656,1,0,0:0:0:0:
288,160,68843,1,8,0:0:0:0:
224,224,69031,1,4,0:0:0:0:
288,160,69406,1,8,0:0:0:0:
224,160,69593,1,0,0:0:0:0:
288,160,69781,1,8,0:0:0:0:
288,160,69874,1,8,0:0:0:0:
224,160,69968,1,0,0:0:0:0:
224,160,70062,1,0,0:0:0:0:
288,160,70156,1,8,0:0:0:0:
288,160,70343,1,8,0:0:0:0:
288,160,70437,1,8,0:0:0:0:
224,160,70531,1,0,0:0:0:0:
224,160,70718,1,0,0:0:0:0:
288,160,70906,1,8,0:0:0:0:
288,160,70999,1,8,0:0:0:0:
224,160,71093,1,0,0:0:0:0:
288,160,71281,1,8,0:0:0:0:
224,160,71374,1,0,0:0:0:0:
288,160,71468,1,8,0:0:0:0:
288,160,71656,1,8,0:0:0:0:
224,160,71843,1,0,0:0:0:0:
288,160,72031,1,8,0:0:0:0:
224,160,72124,1,0,0:0:0:0:
224,160,72218,1,0,0:0:0:0:
224,160,72312,1,0,0:0:0:0:
288,160,72406,1,8,0:0:0:0:
224,160,72593,1,0,0:0:0:0:
288,160,72781,1,8,0:0:0:0:
288,160,72874,1,8,0:0:0:0:
224,160,72968,1,0,0:0:0:0:
224,160,73062,1,0,0:0:0:0:
288,160,73156,1,8,0:0:0:0:
224,160,73343,1,0,0:0:0:0:
288,160,73531,1,8,0:0:0:0:
224,160,73624,1,0,0:0:0:0:
224,160,73718,1,0,0:0:0:0:
224,160,73812,1,0,0:0:0:0:
288,160,73906,1,8,0:0:0:0:
224,160,74093,1,0,0:0:0:0:
288,160,74281,1,8,0:0:0:0:
288,160,74374,1,8,0:0:0:0:
224,160,74468,1,0,0:0:0:0:
224,160,74562,1,0,0:0:0:0:
288,160,74656,1,8,0:0:0:0:
224,160,74749,1,0,0:0:0:0:
288,160,74843,1,8,0:0:0:0:
224,224,75031,1,4,0:0:0:0:
224,160,75312,1,0,0:0:0:0:
288,160,75406,1,8,0:0:0:0:
288,160,75593,1,8,0:0:0:0:
288,160,75687,1,8,0:0:0:0:
224,160,75781,1,0,0:0:0:0:
224,160,75968,1,0,0:0:0:0:
288,160,76156,1,8,0:0:0:0:
224,160,76343,1,0,0:0:0:0:
288,160,76437,1,8,0:0:0:0:
224,160,76531,1,0,0:0:0:0:
224,160,76812,1,0,0:0:0:0:
288,160,76906,1,8,0:0:0:0:
224,160,77093,1,0,0:0:0:0:
224,160,77187,1,0,0:0:0:0:
288,160,77281,1,8,0:0:0:0:
224,160,77468,1,0,0:0:0:0:
288,160,77656,1,8,0:0:0:0:
288,160,77749,1,8,0:0:0:0:
224,160,77843,1,0,0:0:0:0:
288,160,78031,1,8,0:0:0:0:
224,160,78124,1,0,0:0:0:0:
224,160,78218,1,0,0:0:0:0:
224,160,78312,1,0,0:0:0:0:
288,160,78406,1,8,0:0:0:0:
224,160,78593,1,0,0:0:0:0:
288,160,78781,1,8,0:0:0:0:
224,160,78874,1,0,0:0:0:0:
288,160,78968,1,8,0:0:0:0:
288,160,79156,1,8,0:0:0:0:
288,160,79249,1,8,0:0:0:0:
224,160,79343,1,0,0:0:0:0:
224,160,79531,1,0,0:0:0:0:
288,160,79906,1,8,0:0:0:0:
288,160,79999,1,8,0:0:0:0:
224,160,80093,1,0,0:0:0:0:
288,160,80281,1,8,0:0:0:0:
288,160,80468,1,8,0:0:0:0:
224,160,80562,1,0,0:0:0:0:
288,160,80656,1,8,0:0:0:0:
288,160,80749,1,8,0:0:0:0:
224,160,80843,1,0,0:0:0:0:
224,224,81031,1,4,0:0:0:0:
288,160,81406,1,8,0:0:0:0:
224,160,81593,1,0,0:0:0:0:
288,160,81781,1,8,0:0:0:0:
288,160,81874,1,8,0:0:0:0:
224,160,81968,1,0,0:0:0:0:
224,160,82062,1,0,0:0:0:0:
288,160,82156,1,8,0:0:0:0:
288,160,82343,1,8,0:0:0:0:
288,160,82437,1,8,0:0:0:0:
224,160,82531,1,0,0:0:0:0:
288,160,82906,1,8,0:0:0:0:
224,160,83093,1,0,0:0:0:0:
224,160,83187,1,0,0:0:0:0:
288,160,83281,1,8,0:0:0:0:
224,160,83468,1,0,0:0:0:0:
288,160,83656,1,8,0:0:0:0:
224,160,83749,1,0,0:0:0:0:
288,160,83843,1,8,0:0:0:0:
224,160,84031,1,0,0:0:0:0:
224,160,84218,1,0,0:0:0:0:
288,160,84406,1,8,0:0:0:0:
224,160,84593,1,0,0:0:0:0:
224,160,84968,1,0,0:0:0:0:
288,160,85156,1,8,0:0:0:0:
288,160,85343,1,8,0:0:0:0:
288,160,85437,1,8,0:0:0:0:
224,160,85531,1,0,0:0:0:0:
224,160,85718,1,0,0:0:0:0:
288,160,85906,1,8,0:0:0:0:
224,160,86093,1,0,0:0:0:0:
224,160,86187,1,0,0:0:0:0:
288,160,86281,1,8,0:0:0:0:
288,160,86468,1,8,0:0:0:0:
224,160,86656,1,0,0:0:0:0:
288,224,87031,1,12,0:0:0:0:
288,160,87406,1,8,0:0:0:0:
288,160,87781,1,8,0:0:0:0:
288,160,88156,1,8,0:0:0:0:
288,160,88343,1,8,0:0:0:0:
288,160,88906,1,8,0:0:0:0:
288,160,89281,1,8,0:0:0:0:
288,160,89656,1,8,0:0:0:0:
288,160,89843,1,8,0:0:0:0:
