osu file format v14

[General]
AudioFilename: audio.mp3
AudioLeadIn: 0
PreviewTime: 62102
Countdown: 0
SampleSet: Soft
StackLeniency: 0.6
Mode: 0
LetterboxInBreaks: 0
WidescreenStoryboard: 1

[Editor]
Bookmarks: 1607,13607,25607,37607,49607,63107,75107,91419
DistanceSpacing: 1.2
BeatDivisor: 4
GridSize: 8
TimelineZoom: 1.8

[Metadata]
Title:Ju Tou San Chi Tian Qi Qing
TitleUnicode:舉頭三尺天氣晴
Artist:Paroto
ArtistUnicode:パロト
Creator:CrystilonZ
Version:Furiends' Insane
Source:家有大貓
Tags:Nekojishi jiā yǒu dà māo jia you da mao mau Nviek5 KuensanP クエン酸P 晴空和音 Triodust 空氣載體 furry ezek HappyRocket88 BoatKrab KittyAdventure Shiroi Hiroshi gokugohan12468 collaboration 鸚鵡 ajeemaniz exusagi Nwolf Kaitjuh Parrot A Sunny Day is Watching over You (Vocal) Arzenvald
BeatmapID:1061825
BeatmapSetID:495866

[Difficulty]
HPDrainRate:6
CircleSize:4
OverallDifficulty:7
ApproachRate:8.2
SliderMultiplier:1.56
SliderTickRate:1

[Events]
//Background and Video events
Video,-40,"thisisavideo.avi"
0,0,"CNYbg.jpg",0,0
//Break Periods
//Storyboard Layer 0 (Background)
//Storyboard Layer 1 (Fail)
//Storyboard Layer 2 (Pass)
//Storyboard Layer 3 (Foreground)
Sprite,Foreground,TopLeft,"SB\CoheteFeliz88.png",320,240 S,0,0,,0.45 M,1,1540,3040,20,380,40,380 F,1,1540,3040,0,1 M,2,12040,13540,40,380,60,380 F,2,12040,13540,1,0
Sprite,Foreground,TopLeft,"SB\BootyKrabbyPatty.png",320,240 S,0,0,,0.45 M,1,13540,15040,20,380,40,380 F,1,13540,15040,0,1 M,2,24040,25540,40,380,60,380 F,2,24040,25540,1,0
Sprite,Foreground,TopLeft,"SB\CoheteFeliz88.png",320,240 S,0,0,,0.45 M,1,49540,51040,20,380,40,380 F,1,49540,51040,0,1 M,2,61531,63031,40,380,60,380 F,2,61531,63031,1,0
Sprite,Foreground,TopLeft,"SB\sweetest-person-on-earth.png",320,240 S,0,0,,0.45 M,1,75031,76531,20,380,40,380 F,1,75031,76531,0,1 M,2,89937,91437,40,380,60,380 F,2,89937,91437,1,0
Sprite,Foreground,TopLeft,"SB\Shirowhat.png",320,240 S,0,0,,0.45 M,1,25540,27040,20,380,40,380 F,1,25540,27040,0,1 M,2,36040,37540,40,380,60,380 F,2,36040,37540,1,0
Sprite,Foreground,TopLeft,"SB\FelineAdventure.png",320,240 S,0,0,,0.45 M,1,37540,39040,20,380,40,380 F,1,37540,39040,0,1 M,2,48040,49540,40,380,60,380 F,2,48040,49540,1,0
Sprite,Foreground,TopLeft,"SB\uglyzek.png",320,240 S,0,0,,0.45 M,1,63031,64531,20,380,40,380 F,1,63031,64531,0,1 M,2,73531,75031,40,380,60,380 F,2,73531,75031,1,0
//Storyboard Sound Samples

[TimingPoints]
40,375,4,2,1,12,1,0
1540,375,4,2,1,12,1,0
1540,-200,4,2,1,12,0,0
1633,-200,4,2,1,5,0,0
3790,-133.333333333333,4,2,1,12,0,0
3883,-133.333333333333,4,2,1,5,0,0
4540,-200,4,2,1,15,0,0
4633,-200,4,2,1,5,0,0
5852,-133.333333333333,4,2,1,5,0,0
6790,-200,4,2,1,12,0,0
6883,-200,4,2,1,5,0,0
7540,-100,4,2,1,15,0,0
12977,-100,4,2,1,25,0,0
13071,-100,4,2,1,25,0,0
13165,-100,4,2,2,40,0,0
13258,-100,4,2,1,25,0,0
13540,-100,4,2,2,45,0,0
13727,-100,4,2,2,35,0,0
13821,-100,4,2,2,40,0,0
13915,-100,4,2,2,45,0,0
14290,-100,4,2,2,35,0,0
14477,-100,4,2,2,45,0,0
15415,-100,4,2,2,45,0,0
15790,-100,4,2,2,35,0,0
15977,-100,4,2,2,45,0,0
16821,-100,4,2,2,40,0,0
16915,-100,4,2,2,45,0,0
17290,-100,4,2,2,35,0,0
17477,-100,4,2,2,45,0,0
18415,-100,4,2,2,45,0,0
18790,-100,4,2,2,35,0,0
18977,-100,4,2,2,45,0,0
19727,-100,4,2,2,35,0,0
19821,-100,4,2,2,40,0,0
19915,-100,4,2,2,45,0,0
20290,-100,4,2,2,35,0,0
20477,-100,4,2,2,45,0,0
21790,-100,4,2,2,35,0,0
21977,-100,4,2,2,45,0,0
22821,-100,4,2,2,40,0,0
22915,-100,4,2,2,45,0,0
23290,-100,4,2,2,35,0,0
23477,-100,4,2,2,45,0,0
24790,-100,4,2,2,35,0,0
24977,-100,4,2,2,45,0,0
25258,-100,4,2,2,35,0,0
25446,-100,4,2,2,40,0,0
25540,-100,4,2,2,35,0,0
31352,-100,4,2,2,10,0,0
31540,-100,4,2,2,35,0,0
36790,-100,4,2,2,25,0,0
36977,-100,4,2,2,10,0,0
37165,-100,4,2,2,40,0,0
37352,-100,4,2,2,30,0,0
37540,-100,4,2,2,40,0,0
49540,-166.666666666667,4,2,2,25,0,0
61446,-166.666666666667,4,2,2,5,0,0
61540,-100,4,2,2,40,0,0
61821,-100,4,2,2,20,0,0
61915,-100,4,2,2,40,0,0
62008,-100,4,2,2,20,0,0
62102,-100,4,2,2,40,0,0
62383,-100,4,2,2,25,0,0
62477,-100,4,2,2,40,0,0
62665,-100,4,2,2,50,0,0
63031,375,4,2,2,60,1,1
63406,-100,4,2,2,50,0,1
74656,-100,4,2,2,50,0,0
74749,-100,4,2,2,35,0,0
75031,-100,4,2,2,60,0,1
75406,-100,4,2,2,50,0,1
84218,-100,4,2,2,30,0,1
84312,-100,4,2,2,40,0,1
84406,-100,4,2,2,50,0,1
87031,-200,4,2,2,25,0,0
88718,-200,4,2,2,5,0,0
88812,-200,4,2,2,20,0,0
88999,-200,4,2,2,5,0,0

[Colours]
Combo1 : 75,175,41
Combo2 : 239,164,5
Combo3 : 4,211,255
Combo4 : 125,69,13
Combo5 : 255,236,0
Combo6 : 153,126,100

[HitObjects]
256,256,1540,6,0,B|244:224|256:200|256:200|268:172|248:136,2,117,4|2|2,3:1|0:0|0:0,0:0:0:0:
256,256,3040,1,2,0:0:0:0:
308,68,3790,2,0,P|256:48|192:80,1,117.000004463196,2|0,3:2|0:0,0:0:0:0:
176,256,4540,5,2,3:2:0:0:
336,208,4915,2,0,P|372:224|392:256,1,78,0|0,0:0|0:0,0:0:0:0:
420,292,5477,1,0,0:0:0:0:
420,292,5852,2,0,P|452:224|476:292,1,175.500006694794,2|0,0:0|0:0,0:0:0:0:
340,236,6790,6,0,B|344:208|364:188|364:188|352:164|352:164|364:132|348:96,1,136.5,2|0,3:2|3:3,0:0:0:0:
348,92,7540,6,0,P|320:132|280:144,1,78,8|0,1:0|0:0,0:0:0:0:
217,142,7915,2,0,P|183:125|164:92,1,78,8|0,1:0|0:0,0:0:0:0:
294,142,8290,2,0,L|352:208,1,78,8|2,1:0|3:2,0:0:0:0:
217,142,8665,2,0,L|159:208,1,78,8|2,1:0|3:2,0:0:0:0:
88,308,9040,6,0,P|140:324|168:312,1,78,8|0,1:0|0:0,0:0:0:0:
228,276,9415,2,0,P|276:264|312:292,1,78,8|0,1:0|0:0,0:0:0:0:
88,308,9790,2,0,P|108:260|112:216,1,78,8|0,1:0|0:0,0:0:0:0:
28,200,10165,2,0,P|35:161|51:126,1,78,8|0,1:0|0:0,0:0:0:0:
128,72,10540,5,8,1:0:0:0:
212,116,10727,1,8,3:1:0:0:
208,24,10915,1,8,1:0:0:0:
128,72,11102,1,8,3:1:0:0:
96,160,11290,1,8,1:0:0:0:
36,92,11477,1,8,3:1:0:0:
128,72,11665,1,8,1:0:0:0:
96,160,11852,1,8,3:1:0:0:
244,296,12040,5,8,1:0:0:0:
275,318,12133,1,8,3:1:0:0:
313,319,12227,1,8,3:1:0:0:
346,298,12321,1,8,3:1:0:0:
360,264,12415,2,0,P|364:240|360:212,1,39,8|8,1:1|3:1,0:0:0:0:
284,184,12602,2,0,P|280:208|284:236,1,39,8|8,3:1|3:1,0:0:0:0:
340,128,12790,5,8,1:1:0:0:
306,107,12883,1,8,3:1:0:0:
268,105,12977,1,8,1:0:0:0:
233,122,13071,1,8,3:1:0:0:
216,160,13165,2,0,L|200:208,1,39,8|8,1:1|3:1,0:0:0:0:
112,208,13352,2,0,L|125:171,1,39,8|8,3:1|3:1,0:0:0:0:
167,268,13540,6,0,P|120:290|46:258,1,117,4|2,1:1|0:0,0:0:0:0:
31,235,13915,2,0,L|26:323,1,78,8|0,0:1|1:2,0:0:0:0:
176,347,14290,1,8,3:0:0:0:
31,235,14477,1,2,1:2:0:0:
200,172,14665,2,0,P|238:165|276:173,1,78,8|2,0:1|0:0,0:0:0:0:
372,272,15040,6,0,L|387:116,1,156,0|8,1:2|0:1,0:0:0:0:
324,52,15602,1,0,1:2:0:0:
403,4,15790,2,0,P|442:0|481:3,1,78,8|2,3:0|1:2,0:0:0:0:
387,116,16165,1,8,0:1:0:0:
244,104,16353,1,2,0:0:0:0:
244,104,16446,1,0,0:0:0:0:
244,103,16540,6,0,P|188:117|137:91,1,117,0|2,1:2|0:0,0:0:0:0:
104,60,16915,2,0,L|107:137,1,78,8|0,0:1|1:2,0:0:0:0:
176,204,17290,1,10,3:0:0:0:
200,36,17477,1,2,1:2:0:0:
91,232,17665,2,0,P|53:232|16:220,1,78,8|0,0:1|0:0,0:0:0:0:
106,324,18040,6,0,P|169:280|245:286,1,156,0|8,1:2|0:1,0:0:0:0:
298,352,18602,1,0,1:0:0:0:
408,178,18790,1,8,3:0:0:0:
427,311,18978,1,0,1:2:0:0:
406,344,19070,1,2,1:2:0:0:
373,363,19165,1,0,1:2:0:0:
334,367,19258,1,2,1:2:0:0:
298,352,19352,1,0,1:0:0:0:
228,152,19540,5,4,1:2:0:0:
332,112,19727,1,0,0:0:0:0:
332,112,19821,1,2,0:0:0:0:
332,112,19914,1,8,0:1:0:0:
348,287,20102,1,0,1:2:0:0:
227,279,20290,2,0,L|138:270,1,78,8|2,3:0|1:2,0:0:0:0:
299,215,20665,1,8,0:1:0:0:
283,355,20852,1,2,0:0:0:0:
96,340,21040,6,0,P|67:269|100:201,1,156,0|8,1:2|0:1,0:0:0:0:
192,184,21602,1,0,1:2:0:0:
160,272,21790,1,8,3:0:0:0:
132,112,21977,1,2,1:2:0:0:
284,168,22165,2,0,L|361:164,1,78,8|2,0:1|0:0,0:0:0:0:
428,208,22447,1,0,0:0:0:0:
432,211,22540,6,0,P|440:268|410:318,1,117,0|2,1:2|0:0,0:0:0:0:
371,343,22915,1,8,0:1:0:0:
279,267,23102,2,0,P|233:257|198:268,1,78,0|8,1:2|3:0,0:0:0:0:
140,358,23477,1,2,1:2:0:0:
162,194,23665,2,0,L|167:109,1,78,8|0,0:1|1:0,0:0:0:0:
69,238,24040,6,0,L|61:82,1,156,0|8,1:2|0:1,0:0:0:0:
163,38,24602,2,0,L|166:115,1,78,0|8,1:2|3:0,0:0:0:0:
258,217,24977,5,2,1:2:0:0:
252,62,25165,1,10,2:0:0:0:
368,188,25352,1,10,0:0:0:0:
368,188,25446,1,10,0:0:0:0:
368,188,25540,6,0,L|376:356,1,156,4|8,0:0|0:0,0:0:0:0:
476,293,26102,1,0,0:0:0:0:
445,184,26290,2,0,L|362:188,1,78
304,244,26665,2,0,P|325:170|272:84,1,156,8|2,0:0|0:0,0:0:0:0:
186,76,27227,5,0,0:0:0:0:
161,183,27415,2,0,L|239:177,1,78,8|2,0:0|0:0,0:0:0:0:
371,93,27790,2,0,L|291:101,1,78,2|0,0:0|0:0,0:0:0:0:
329,263,28165,2,0,P|335:224|329:186,1,78,8|0,0:0|0:0,0:0:0:0:
196,314,28540,6,0,B|237:308|270:330|270:330|308:354|343:349,1,156,6|8,0:0|0:0,0:0:0:0:
420,304,29102,1,0,0:0:0:0:
503,336,29290,2,0,P|508:298|495:256,1,78,2|0,0:0|0:0,0:0:0:0:
408,148,29665,2,0,L|421:330,1,156,8|2,0:0|0:0,0:0:0:0:
344,360,30227,5,0,0:0:0:0:
272,296,30415,2,0,P|264:256|272:216,1,78,8|0,0:0|0:0,0:0:0:0:
416,216,30790,2,0,P|422:254|414:292,1,78,2|0,0:0|0:0,0:0:0:0:
428,124,31165,1,8,0:0:0:0:
340,152,31352,1,2,0:0:0:0:
340,152,31446,1,2,0:0:0:0:
340,152,31540,6,0,P|276:176|176:144,1,156,6|8,0:0|0:0,0:0:0:0:
116,120,32102,1,0,0:0:0:0:
190,81,32290,2,0,P|199:126|190:161,1,78,2|0,0:0|0:0,0:0:0:0:
40,160,32665,2,0,P|32:122|42:84,1,78,8|0,0:0|0:0,0:0:0:0:
116,120,33040,5,2,0:0:0:0:
116,28,33227,1,0,0:0:0:0:
116,120,33415,2,0,L|104:304,1,156,8|2,0:0|0:0,0:0:0:0:
193,308,33977,1,0,0:0:0:0:
278,269,34165,2,0,L|368:263,1,78,8|0,0:0|0:0,0:0:0:0:
440,160,34540,6,0,P|367:181|279:157,1,156,6|8,0:0|0:0,0:0:0:0:
293,87,35102,1,0,0:0:0:0:
293,87,35290,2,0,P|298:134|282:178,1,78,2|0,0:0|0:0,0:0:0:0:
140,142,35665,2,0,P|176:122|228:126,1,78,8|0,0:0|0:0,0:0:0:0:
196,204,36040,6,0,L|12:184,1,156,2|8,0:0|0:0,0:0:0:0:
11,106,36602,1,0,1:0:0:0:
34,194,36790,5,10,1:2:0:0:
17,100,36977,1,8,1:2:0:0:
78,28,37165,2,0,L|115:38,3,39,2|0|2|0,0:0|0:0|0:0|0:0,0:0:0:0:
148,64,37540,6,0,P|196:112|300:92,1,156,6|8,0:0|0:0,0:0:0:0:
356,56,38102,1,0,0:0:0:0:
428,112,38290,2,0,L|436:204,1,78,2|0,0:0|0:0,0:0:0:0:
332,256,38665,2,0,L|338:178,1,78,8|0,0:0|0:0,0:0:0:0:
388,320,39040,6,0,P|320:344|252:284,1,156,2|8,0:0|0:0,0:0:0:0:
248,280,39790,2,0,L|160:292,1,78,2|0,0:0|0:0,0:0:0:0:
84,192,40165,2,0,L|172:204,1,78,8|0,0:0|0:0,0:0:0:0:
220,124,40540,6,0,P|260:168|368:152,1,156,6|8,0:0|0:0,0:0:0:0:
308,16,41102,1,0,0:0:0:0:
308,16,41290,2,0,L|300:120,1,78,2|0,0:0|0:0,0:0:0:0:
351,165,41665,2,0,L|359:269,1,78,8|0,0:0|0:0,0:0:0:0:
432,284,42040,6,0,B|400:264|360:280|360:280|316:300|264:268,1,156,2|8,0:0|0:0,0:0:0:0:
264,260,42790,2,0,P|276:312|264:360,1,78,2|0,0:0|0:0,0:0:0:0:
192,204,43165,2,0,P|256:172|292:180,1,78,8|0,0:0|0:0,0:0:0:0:
192,308,43540,6,0,L|96:300,1,78,6|0,0:0|0:0,0:0:0:0:
33,330,43915,2,0,P|29:294|49:246,1,78,8|0,0:0|0:0,0:0:0:0:
121,220,44290,2,0,L|198:226,1,78,2|0,0:0|0:0,0:0:0:0:
256,162,44665,1,8,0:0:0:0:
187,110,44852,1,0,0:0:0:0:
238,40,45040,6,0,P|321:37|382:73,1,156,2|8,0:0|0:0,0:0:0:0:
404,88,45790,2,0,L|504:72,1,78,2|0,0:0|0:0,0:0:0:0:
396,184,46165,2,0,L|296:168,1,78,8|0,0:0|0:0,0:0:0:0:
198,233,46540,6,0,P|267:234|319:138,1,156,6|8,0:0|0:0,0:0:0:0:
226,77,47102,1,0,0:0:0:0:
226,77,47290,2,0,L|238:181,1,78,2|0,0:0|0:0,0:0:0:0:
128,104,47665,2,0,L|136:26,1,78,8|0,0:0|0:0,0:0:0:0:
46,124,48040,6,0,P|122:188|178:168,1,156,2|8,0:0|0:0,0:0:0:0:
248,139,48602,1,0,0:0:0:0:
248,139,48790,2,0,B|292:139|292:139|332:151,1,78,2|0,0:0|0:0,0:0:0:0:
464,60,49165,5,8,0:0:0:0:
416,140,49352,1,0,0:0:0:0:
456,224,49540,21,4,3:1:0:0:
192,304,49915,1,0,0:0:0:0:
216,224,50102,2,0,P|220:184|176:136,1,93.5999971435548,0|0,0:0|0:0,0:0:0:0:
112,128,50665,2,0,P|124:100|140:84,1,46.7999985717774,0|0,0:0|0:0,0:0:0:0:
168,68,50946,1,0,0:0:0:0:
204,64,51040,6,8,B|233:70|249:92|249:92|264:81|292:80,1,93.5999971435548,0|0,0:0|0:0,0:0:0:0:
360,108,51602,1,0,0:0:0:0:
432,80,51790,2,0,P|452:60|452:40,1,46.7999985717774,2|0,0:0|0:0,0:0:0:0:
452,156,52165,2,0,P|436:184|452:208,1,46.7999985717774,0|0,0:0|0:0,0:0:0:0:
492,252,52540,6,0,P|448:272|400:260,2,93.5999971435548,2|0|0,0:0|0:0|0:0,0:0:0:0:
356,200,53665,1,0,0:0:0:0:
332,272,53852,1,0,0:0:0:0:
280,216,54040,6,0,L|248:160,1,46.7999985717774,2|0,0:0|0:0,0:0:0:0:
216,256,54415,2,0,L|244:304,1,46.7999985717774,2|0,0:0|0:0,0:0:0:0:
256,328,54696,1,0,0:0:0:0:
272,360,54790,2,0,P|240:344|188:372,1,93.5999971435548,2|2,0:0|0:0,0:0:0:0:
124,316,55352,1,2,0:0:0:0:
68,256,55540,6,0,P|44:296|52:352,1,93.5999971435548,2|0,0:0|0:0,0:0:0:0:
124,316,56102,2,0,P|148:276|140:220,1,93.5999971435548,2|0,0:0|0:0,0:0:0:0:
68,256,56665,1,0,0:0:0:0:
16,196,56852,1,0,0:0:0:0:
92,164,57040,6,0,B|144:128|196:164|196:164|236:188|292:168|316:104|272:48|204:36|164:88|180:136,1,374.399988574219,0|2,0:0|0:0,0:0:0:0:
296,272,58915,5,0,0:0:0:0:
348,224,59102,2,0,P|384:208|444:232,1,93.5999971435548,2|0,0:0|0:0,0:0:0:0:
392,280,59665,2,0,L|368:324,2,46.7999985717774,0|0|2,0:0|0:0|0:0,0:0:0:0:
392,280,60415,6,0,B|420:234|392:192|392:192|432:192|465:169|465:169|432:140|440:84,1,257.399992144776,2|0,0:0|1:0,0:0:0:0:
496,40,61540,5,0,1:0:0:0:
468,16,61633,1,0,1:0:0:0:
432,8,61727,1,0,1:0:0:0:
400,16,61821,1,0,1:0:0:0:
376,36,61915,1,0,1:0:0:0:
364,68,62008,1,0,1:0:0:0:
384,108,62102,6,0,L|408:148,1,39,8|0,3:1|1:0,0:0:0:0:
460,212,62290,2,0,L|481:244,1,39,0|8,1:0|3:1,0:0:0:0:
372,224,62477,1,0,1:0:0:0:
480,136,62665,1,8,3:2:0:0:
456,316,62852,1,0,1:0:0:0:
200,120,63031,6,0,B|144:124|144:124|106:148|106:148|50:153,1,156,4|8,1:0|0:1,0:0:0:0:
249,190,63593,2,0,P|284:133|251:51,1,156,2|2,1:2|1:2,0:0:0:0:
172,226,64156,2,0,P|150:257|148:296,1,78,8|0,0:1|1:0,0:0:0:0:
367,312,64531,6,0,P|301:271|213:294,1,156,2|8,1:2|0:1,0:0:0:0:
401,382,65093,1,0,1:0:0:0:
499,167,65281,2,0,L|514:252,1,78,2|0,0:0|1:0,0:0:0:0:
392,40,65656,2,0,L|369:157,1,117,8|0,0:1|3:0,0:0:0:0:
301,190,66031,6,0,P|298:165|276:118,1,78,10|0,1:2|0:0,0:0:0:0:
125,29,66406,2,0,P|106:63|99:101,1,78,8|0,0:1|1:0,0:0:0:0:
111,282,66781,1,2,0:0:0:0:
111,282,66968,2,0,P|149:277|184:261,1,78,2|8,1:2|0:1,0:0:0:0:
26,195,67343,1,0,1:0:0:0:
260,130,67531,6,0,B|216:138|216:138|192:152|192:152|148:161,1,117,10|0,1:2|3:0,0:0:0:0:
98,101,67906,2,0,P|106:62|125:29,1,78,8|0,0:1|1:0,0:0:0:0:
253,212,68281,1,8,1:2:0:0:
313,34,68468,1,0,1:0:0:0:
313,34,68562,1,8,1:2:0:0:
313,34,68656,1,0,1:0:0:0:
191,163,68843,2,0,P|177:184|174:204,1,39,2|0,0:0|3:0,0:0:0:0:
296,277,69031,6,0,P|330:217|317:168,1,117,14|0,1:2|3:0,0:0:0:0:
367,112,69406,2,0,P|403:118|447:105,1,78,8|0,0:1|1:0,0:0:0:0:
247,38,69781,2,0,P|211:32|167:45,1,78,2|0,0:0|1:0,0:0:0:0:
111,263,70156,1,8,0:1:0:0:
216,153,70343,1,2,1:2:0:0:
25,246,70531,6,0,P|32:300|93:347,1,117,0|0,1:0|3:0,0:0:0:0:
152,327,70906,2,0,L|234:332,1,78,8|0,0:1|1:0,0:0:0:0:
365,158,71281,1,10,3:2:0:0:
210,177,71468,1,2,1:2:0:0:
229,331,71656,1,8,0:1:0:0:
384,312,71843,1,2,1:2:0:0:
215,100,72031,6,0,P|175:71|137:69,1,78,10|0,1:2|0:0,0:0:0:0:
297,100,72406,2,0,P|337:71|375:69,1,78,8|0,0:1|1:0,0:0:0:0:
168,185,72781,2,0,P|128:156|90:154,1,78,2|0,0:0|1:0,0:0:0:0:
344,185,73156,2,0,P|384:156|422:154,1,78,8|0,0:1|1:0,0:0:0:0:
142,257,73531,2,0,P|125:299|100:325,1,78,10|0,3:2|0:0,0:0:0:0:
370,257,73906,2,0,P|387:299|412:325,1,78,8|0,0:1|1:0,0:0:0:0:
256,84,74281,6,0,L|256:164,1,78,10|0,3:2|1:2,0:0:0:0:
112,328,74656,1,0,1:0:0:0:
112,328,74749,1,8,3:2:0:0:
112,328,74843,1,8,3:2:0:0:
360,175,75031,6,0,P|385:141|348:40,1,156,4|8,1:0|0:1,0:0:0:0:
192,25,75593,1,2,1:2:0:0:
308,112,75781,1,2,0:2:0:0:
175,169,75968,1,2,1:2:0:0:
291,256,76156,2,0,L|282:333,1,78,8|0,0:1|0:0,0:0:0:0:
226,106,76531,6,0,P|178:88|94:156,1,156,2|8,1:2|0:1,0:0:0:0:
88,341,77093,1,2,1:2:0:0:
175,169,77281,1,10,3:2:0:0:
281,333,77468,1,2,1:2:0:0:
126,247,77656,2,0,L|48:242,1,78,8|0,0:1|1:0,0:0:0:0:
264,183,78031,6,0,L|404:174,1,117,10|0,1:2|3:0,0:0:0:0:
442,128,78406,2,0,P|452:84|440:48,1,78,8|0,0:1|1:0,0:0:0:0:
252,11,78781,1,2,0:0:0:0:
380,175,78968,1,2,1:2:0:0:
227,312,79156,1,8,0:1:0:0:
99,148,79343,1,2,0:0:0:0:
289,265,79531,6,0,P|305:315|274:374,1,117,10|0,1:2|3:0,0:0:0:0:
227,312,79906,2,0,P|210:263|226:222,1,78,8|0,0:1|1:0,0:0:0:0:
296,117,80281,1,8,1:2:0:0:
157,180,80468,2,0,L|72:185,1,78,0|8,1:0|1:0,0:0:0:0:
79,184,80749,1,8,1:2:0:0:
79,184,80843,1,0,1:0:0:0:
289,264,81031,6,0,L|406:269,1,117,14|0,1:2|3:0,0:0:0:0:
472,307,81406,2,0,P|481:347|472:382,1,78,8|0,0:1|1:0,0:0:0:0:
349,224,81781,2,0,P|339:186|348:148,1,78,2|0,0:2|1:0,0:0:0:0:
469,24,82156,1,8,0:1:0:0:
420,184,82343,1,2,1:2:0:0:
305,61,82531,6,0,P|263:51|189:65,1,117,0|0,1:0|3:0,0:0:0:0:
132,117,82906,2,0,L|126:200,1,78,8|0,0:1|1:0,0:0:0:0:
289,261,83281,2,0,L|283:183,1,78,2|0,0:2|1:0,0:0:0:0:
191,63,83656,1,8,0:1:0:0:
356,164,83843,2,0,P|398:171|439:157,1,78,2|10,0:0|1:2,0:0:0:0:
512,8,84218,5,2,0:0:0:0:
512,8,84312,1,2,0:0:0:0:
512,8,84406,1,8,0:1:0:0:
482,217,84593,2,0,P|469:297|489:376,1,156,2|2,1:2|1:2,0:0:0:0:
343,244,85156,2,0,P|305:234|267:241,1,78,8|0,0:1|1:0,0:0:0:0:
66,305,85531,6,0,P|135:336|207:311,1,156,10|8,1:2|0:1,0:0:0:0:
278,139,86093,1,0,1:2:0:0:
305,316,86281,1,2,0:2:0:0:
139,251,86468,1,2,1:2:0:0:
343,244,86656,1,8,0:1:0:0:
235,71,86843,1,8,3:1:0:0:
235,71,86937,1,8,3:2:0:0:
235,71,87031,5,4,3:1:0:0:
305,316,87406,1,2,3:2:0:0:
392,158,87781,1,2,3:2:0:0:
147,228,88156,1,2,3:2:0:0:
147,228,88343,2,0,L|39:223,1,97.5,2|0,3:2|3:0,0:0:0:0:
23,237,88906,1,2,3:2:0:0:
256,192,88999,12,0,91437,3:0:0:0:
