osu file format v14

[General]
AudioFilename: audio.mp3
AudioLeadIn: 0
PreviewTime: 62102
Countdown: 0
SampleSet: Normal
StackLeniency: 0.6
Mode: 1
LetterboxInBreaks: 0
WidescreenStoryboard: 0

[Editor]
Bookmarks: 25607,37607
DistanceSpacing: 1.3
BeatDivisor: 4
GridSize: 32
TimelineZoom: 2.799999

[Metadata]
Title:Ju Tou San Chi Tian Qi Qing
TitleUnicode:舉頭三尺天氣晴
Artist:Paroto
ArtistUnicode:パロト
Creator:CrystilonZ
Version:Arzenvald's Muzukashii
Source:家有大貓
Tags:Nekojishi jiā yǒu dà māo jia you da mao mau Nviek5 KuensanP クエン酸P 晴空和音 Triodust 空氣載體 furry ezek HappyRocket88 BoatKrab KittyAdventure Shiroi Hiroshi gokugohan12468 collaboration 鸚鵡 ajeemaniz exusagi Nwolf Kaitjuh Parrot A Sunny Day is Watching over You (Vocal) Arzenvald
BeatmapID:1061964
BeatmapSetID:495866

[Difficulty]
HPDrainRate:6
CircleSize:4
OverallDifficulty:5
ApproachRate:9
SliderMultiplier:1.4
SliderTickRate:1

[Events]
//Background and Video events
0,0,"taikobg.jpg",0,0
//Break Periods
//Storyboard Layer 0 (Background)
//Storyboard Layer 1 (Fail)
//Storyboard Layer 2 (Pass)
//Storyboard Layer 3 (Foreground)
//Storyboard Sound Samples

[TimingPoints]
40,375,4,1,0,50,1,0
1540,375,4,1,0,50,1,0
10540,-100,4,1,0,65,0,0
63031,375,4,1,0,75,1,1
63031,-100,4,1,0,75,0,1
74656,-100,4,1,0,75,0,0
75031,-100,4,1,0,75,0,1
87031,-100,4,1,0,75,0,0

[Colours]
Combo1 : 75,175,41
Combo2 : 239,164,5
Combo3 : 4,211,255
Combo4 : 125,69,13
Combo5 : 255,236,0
Combo6 : 153,126,100

[HitObjects]
256,192,1540,5,4,0:0:0:0:
256,192,2102,5,0,0:0:0:0:
256,192,2477,5,0,0:0:0:0:
256,192,2665,5,0,0:0:0:0:
256,192,3040,5,0,0:0:0:0:
256,192,3790,5,0,0:0:0:0:
256,192,4540,5,0,0:0:0:0:
256,192,5290,5,0,0:0:0:0:
256,192,5665,5,0,0:0:0:0:
256,192,6040,5,0,0:0:0:0:
256,192,6790,5,0,0:0:0:0:
256,192,7540,5,8,0:0:0:0:
256,192,7915,5,0,0:0:0:0:
256,192,8290,5,0,0:0:0:0:
256,192,8665,5,0,0:0:0:0:
256,192,9040,5,8,0:0:0:0:
256,192,9415,5,0,0:0:0:0:
256,192,9790,5,8,0:0:0:0:
256,192,10165,5,0,0:0:0:0:
256,192,10540,5,8,0:0:0:0:
256,192,10727,5,0,0:0:0:0:
256,192,10915,5,8,0:0:0:0:
256,192,11102,5,0,0:0:0:0:
256,192,11290,5,8,0:0:0:0:
256,192,11477,5,0,0:0:0:0:
256,192,11665,5,8,0:0:0:0:
256,192,11852,5,0,0:0:0:0:
256,192,12040,12,0,13540,0:0:0:0:
256,188,13821,5,8,0:0:0:0:
256,188,13915,5,8,0:0:0:0:
256,188,14102,5,0,0:0:0:0:
256,188,14477,5,0,0:0:0:0:
256,188,14665,5,8,0:0:0:0:
256,188,14852,5,0,0:0:0:0:
256,188,15040,5,8,0:0:0:0:
256,188,15321,5,0,0:0:0:0:
256,188,15415,5,0,0:0:0:0:
256,188,15602,5,8,0:0:0:0:
256,188,15977,5,8,0:0:0:0:
256,188,16165,5,8,0:0:0:0:
256,188,16352,5,0,0:0:0:0:
256,188,16540,5,0,0:0:0:0:
256,188,16821,5,8,0:0:0:0:
256,188,16915,5,8,0:0:0:0:
256,188,17102,5,8,0:0:0:0:
256,188,17477,5,0,0:0:0:0:
256,188,17665,5,8,0:0:0:0:
256,188,17852,5,0,0:0:0:0:
256,188,18040,5,8,0:0:0:0:
256,188,18321,5,0,0:0:0:0:
256,188,18415,5,0,0:0:0:0:
256,188,18602,5,8,0:0:0:0:
256,188,18977,5,0,0:0:0:0:
256,188,19071,5,0,0:0:0:0:
256,188,19165,5,0,0:0:0:0:
256,188,19352,5,8,0:0:0:0:
256,188,19540,5,4,0:0:0:0:
256,188,19915,5,0,0:0:0:0:
256,188,20102,5,8,0:0:0:0:
256,188,20477,5,0,0:0:0:0:
256,188,20665,5,8,0:0:0:0:
256,188,20852,5,0,0:0:0:0:
256,188,20946,5,0,0:0:0:0:
256,188,21040,5,8,0:0:0:0:
256,188,21415,5,0,0:0:0:0:
256,188,21602,5,8,0:0:0:0:
256,188,21977,5,8,0:0:0:0:
256,188,22165,5,8,0:0:0:0:
256,188,22352,5,0,0:0:0:0:
256,188,22446,5,0,0:0:0:0:
256,188,22540,5,8,0:0:0:0:
256,188,22915,5,8,0:0:0:0:
256,188,23102,5,8,0:0:0:0:
256,188,23477,5,0,0:0:0:0:
256,188,23665,5,8,0:0:0:0:
256,188,23852,5,0,0:0:0:0:
256,188,24040,5,8,0:0:0:0:
256,188,24227,5,0,0:0:0:0:
256,188,24321,5,0,0:0:0:0:
256,188,24415,5,0,0:0:0:0:
256,188,24602,5,8,0:0:0:0:
256,188,24977,5,8,0:0:0:0:
256,188,25165,5,0,0:0:0:0:
256,188,25258,5,0,0:0:0:0:
256,188,25352,5,0,0:0:0:0:
256,188,25540,5,6,0:0:0:0:
256,188,25915,5,8,0:0:0:0:
256,188,26102,5,0,0:0:0:0:
256,188,26477,5,0,0:0:0:0:
256,188,26665,5,8,0:0:0:0:
256,188,27040,5,0,0:0:0:0:
256,188,27228,5,0,0:0:0:0:
256,188,27415,5,8,0:0:0:0:
256,188,27790,5,0,0:0:0:0:
256,188,27977,5,0,0:0:0:0:
256,188,28165,5,8,0:0:0:0:
256,188,28540,5,0,0:0:0:0:
256,188,28915,5,8,0:0:0:0:
256,188,29102,5,0,0:0:0:0:
256,188,29477,5,0,0:0:0:0:
256,188,29665,5,8,0:0:0:0:
256,188,30040,5,8,0:0:0:0:
256,188,30227,5,0,0:0:0:0:
256,188,30415,5,8,0:0:0:0:
256,188,30790,5,8,0:0:0:0:
256,188,30977,5,0,0:0:0:0:
256,188,31165,5,8,0:0:0:0:
256,188,31352,5,8,0:0:0:0:
256,188,31540,5,0,0:0:0:0:
256,188,31915,5,8,0:0:0:0:
256,188,32102,5,0,0:0:0:0:
256,188,32477,5,0,0:0:0:0:
256,188,32665,5,8,0:0:0:0:
256,188,33040,5,0,0:0:0:0:
256,188,33227,5,0,0:0:0:0:
256,188,33415,5,8,0:0:0:0:
256,188,33790,5,0,0:0:0:0:
256,188,33977,5,0,0:0:0:0:
256,188,34165,5,8,0:0:0:0:
256,188,34352,5,0,0:0:0:0:
256,188,34540,5,8,0:0:0:0:
256,188,34915,5,8,0:0:0:0:
256,188,35102,5,0,0:0:0:0:
256,188,35290,5,0,0:0:0:0:
256,188,35665,5,8,0:0:0:0:
256,188,35852,5,0,0:0:0:0:
256,188,36040,5,0,0:0:0:0:
256,188,36415,5,8,0:0:0:0:
256,188,36790,5,8,0:0:0:0:
256,188,36977,5,8,0:0:0:0:
256,188,37165,5,0,0:0:0:0:
256,188,37540,1,4,0:0:0:0:
256,188,37915,5,8,0:0:0:0:
256,188,38102,5,0,0:0:0:0:
256,188,38477,5,0,0:0:0:0:
256,188,38665,5,8,0:0:0:0:
256,188,38852,5,0,0:0:0:0:
256,188,39040,5,0,0:0:0:0:
256,188,39227,5,0,0:0:0:0:
256,188,39415,5,8,0:0:0:0:
256,188,39790,5,0,0:0:0:0:
256,188,39977,5,0,0:0:0:0:
256,188,40165,5,8,0:0:0:0:
256,188,40540,5,0,0:0:0:0:
256,188,40915,5,8,0:0:0:0:
256,188,41102,5,0,0:0:0:0:
256,188,41477,5,0,0:0:0:0:
256,188,41665,5,8,0:0:0:0:
256,188,42040,5,0,0:0:0:0:
256,188,42227,5,0,0:0:0:0:
256,188,42415,5,8,0:0:0:0:
256,188,42790,5,0,0:0:0:0:
256,188,42977,5,0,0:0:0:0:
256,188,43165,5,8,0:0:0:0:
256,188,43352,5,8,0:0:0:0:
256,188,43540,5,0,0:0:0:0:
256,188,43915,5,8,0:0:0:0:
256,188,44102,5,0,0:0:0:0:
256,188,44477,5,0,0:0:0:0:
256,188,44665,5,8,0:0:0:0:
256,188,45040,5,0,0:0:0:0:
256,188,45227,5,0,0:0:0:0:
256,188,45415,5,8,0:0:0:0:
256,188,45602,5,0,0:0:0:0:
256,188,45790,5,0,0:0:0:0:
256,188,45977,5,0,0:0:0:0:
256,188,46165,5,8,0:0:0:0:
256,188,46540,5,8,0:0:0:0:
256,188,46915,5,0,0:0:0:0:
256,188,47102,5,8,0:0:0:0:
256,188,47290,5,8,0:0:0:0:
256,188,47665,5,0,0:0:0:0:
256,188,47852,5,8,0:0:0:0:
256,188,48040,5,8,0:0:0:0:
256,188,48227,5,0,0:0:0:0:
256,188,48415,5,0,0:0:0:0:
256,188,48790,5,8,0:0:0:0:
256,188,48977,5,0,0:0:0:0:
256,188,49165,5,8,0:0:0:0:
256,188,49540,5,4,0:0:0:0:
256,188,49915,5,0,0:0:0:0:
256,188,50665,5,0,0:0:0:0:
256,188,51415,5,0,0:0:0:0:
256,188,52165,5,0,0:0:0:0:
256,188,52915,5,0,0:0:0:0:
256,188,53665,5,0,0:0:0:0:
256,188,54040,5,0,0:0:0:0:
256,188,54415,5,0,0:0:0:0:
256,188,54790,5,0,0:0:0:0:
256,188,55165,5,0,0:0:0:0:
256,188,55352,5,0,0:0:0:0:
256,188,55540,1,0,0:0:0:0:
256,188,55915,5,0,0:0:0:0:
256,188,56665,5,0,0:0:0:0:
256,188,57415,5,0,0:0:0:0:
256,188,58165,5,0,0:0:0:0:
256,188,58540,5,8,0:0:0:0:
256,188,58915,5,0,0:0:0:0:
256,188,59102,5,8,0:0:0:0:
256,188,59665,5,0,0:0:0:0:
256,188,59852,5,0,0:0:0:0:
256,188,60040,5,8,0:0:0:0:
256,188,60415,5,0,0:0:0:0:
256,188,61540,5,8,0:0:0:0:
256,188,61633,5,0,0:0:0:0:
256,188,61727,5,0,0:0:0:0:
256,188,62102,5,8,0:0:0:0:
256,188,62196,5,0,0:0:0:0:
256,188,62290,5,0,0:0:0:0:
256,188,62665,5,8,0:0:0:0:
256,188,63031,5,4,0:0:0:0:
256,188,63312,5,0,0:0:0:0:
256,188,63406,5,0,0:0:0:0:
256,188,63593,5,8,0:0:0:0:
256,188,63968,5,0,0:0:0:0:
256,188,64156,5,8,0:0:0:0:
256,188,64343,5,0,0:0:0:0:
256,188,64531,5,0,0:0:0:0:
256,188,64812,5,0,0:0:0:0:
256,188,64906,5,0,0:0:0:0:
256,188,65093,5,8,0:0:0:0:
256,188,65468,5,0,0:0:0:0:
256,188,65656,5,8,0:0:0:0:
256,188,65843,5,0,0:0:0:0:
256,188,66031,5,8,0:0:0:0:
256,188,66406,5,8,0:0:0:0:
256,188,66593,5,8,0:0:0:0:
256,188,66781,5,0,0:0:0:0:
256,188,66968,5,0,0:0:0:0:
256,188,67156,5,8,0:0:0:0:
256,188,67343,5,0,0:0:0:0:
256,188,67531,5,0,0:0:0:0:
256,188,67906,5,8,0:0:0:0:
256,188,68281,5,8,0:0:0:0:
256,188,68468,5,0,0:0:0:0:
256,188,68562,5,0,0:0:0:0:
256,188,68656,5,0,0:0:0:0:
256,188,69031,5,4,0:0:0:0:
256,188,69406,5,8,0:0:0:0:
256,188,69781,5,8,0:0:0:0:
256,188,69968,5,0,0:0:0:0:
256,188,70156,5,0,0:0:0:0:
256,188,70343,5,8,0:0:0:0:
256,188,70531,5,8,0:0:0:0:
256,188,70906,5,8,0:0:0:0:
256,188,71281,5,0,0:0:0:0:
256,188,71468,5,8,0:0:0:0:
256,188,71656,5,8,0:0:0:0:
256,188,71843,5,0,0:0:0:0:
256,188,72031,5,8,0:0:0:0:
256,188,72406,5,8,0:0:0:0:
256,188,72781,5,8,0:0:0:0:
256,188,72968,5,0,0:0:0:0:
256,188,73156,5,8,0:0:0:0:
256,188,73531,5,8,0:0:0:0:
256,188,73906,5,8,0:0:0:0:
256,188,74093,5,0,0:0:0:0:
256,188,74281,5,8,0:0:0:0:
256,188,74468,5,0,0:0:0:0:
256,188,74656,5,8,0:0:0:0:
256,188,74749,5,8,0:0:0:0:
256,188,74843,5,8,0:0:0:0:
256,188,75031,5,4,0:0:0:0:
256,188,75406,5,8,0:0:0:0:
256,188,75593,5,0,0:0:0:0:
256,188,75781,5,8,0:0:0:0:
256,188,75968,5,8,0:0:0:0:
256,188,76156,5,0,0:0:0:0:
256,188,76531,5,8,0:0:0:0:
256,188,76906,5,8,0:0:0:0:
256,188,77093,5,0,0:0:0:0:
256,188,77281,5,8,0:0:0:0:
256,188,77468,5,8,0:0:0:0:
256,188,77656,5,0,0:0:0:0:
256,188,77843,5,0,0:0:0:0:
256,188,78031,5,8,0:0:0:0:
256,188,78406,5,8,0:0:0:0:
256,188,78781,5,0,0:0:0:0:
256,188,78968,5,8,0:0:0:0:
256,188,79156,5,0,0:0:0:0:
256,188,79343,5,8,0:0:0:0:
256,188,79531,5,0,0:0:0:0:
256,188,79906,5,8,0:0:0:0:
256,188,80281,5,8,0:0:0:0:
256,188,80468,5,8,0:0:0:0:
256,188,80656,5,0,0:0:0:0:
256,188,80749,5,0,0:0:0:0:
256,188,80843,5,0,0:0:0:0:
256,188,81031,5,6,0:0:0:0:
256,188,81406,5,8,0:0:0:0:
256,188,81593,5,0,0:0:0:0:
256,188,81781,5,8,0:0:0:0:
256,188,81968,5,0,0:0:0:0:
256,188,82156,5,0,0:0:0:0:
256,188,82343,5,8,0:0:0:0:
256,188,82531,5,8,0:0:0:0:
256,188,82906,5,8,0:0:0:0:
256,188,83093,5,0,0:0:0:0:
256,188,83281,5,8,0:0:0:0:
256,188,83468,5,0,0:0:0:0:
256,188,83656,5,8,0:0:0:0:
256,188,83843,5,8,0:0:0:0:
256,188,84031,5,0,0:0:0:0:
256,188,84312,5,8,0:0:0:0:
256,188,84406,5,8,0:0:0:0:
256,188,84593,5,8,0:0:0:0:
256,188,84968,5,0,0:0:0:0:
256,188,85156,5,8,0:0:0:0:
256,188,85343,5,0,0:0:0:0:
256,188,85531,5,8,0:0:0:0:
256,188,85718,5,0,0:0:0:0:
256,188,85812,5,0,0:0:0:0:
256,188,85906,5,0,0:0:0:0:
256,188,86093,5,8,0:0:0:0:
256,188,86468,5,8,0:0:0:0:
256,188,86656,5,0,0:0:0:0:
256,188,86749,5,0,0:0:0:0:
256,188,86843,5,0,0:0:0:0:
256,188,87031,5,12,0:0:0:0:
256,188,87406,5,8,0:0:0:0:
256,188,87781,5,8,0:0:0:0:
256,188,88156,5,8,0:0:0:0:
256,188,88343,5,8,0:0:0:0:
256,188,88906,5,0,0:0:0:0:
256,188,89281,5,0,0:0:0:0:
256,188,89656,5,0,0:0:0:0:
256,188,89843,5,0,0:0:0:0:
